<?xml version="1.0" standalone="no"?>
<!DOCTYPE svg PUBLIC "-//W3C//DTD SVG 1.1//EN" "http://www.w3.org/Graphics/SVG/1.1/DTD/svg11.dtd" >
<svg xmlns="http://www.w3.org/2000/svg">
<metadata></metadata>
<defs>
<font id="webfontregular" horiz-adv-x="1024" >
<font-face units-per-em="2048" ascent="1638" descent="-410" />
<missing-glyph horiz-adv-x="477" />
<glyph unicode="&#xfb01;" horiz-adv-x="942" d="M61 715v135h82v319q0 70 8.5 123.5t41.5 100.5q14 20 37.5 42.5t57.5 41t80 30t105 11.5q27 0 63.5 -4.5t76.5 -16.5t77 -36.5t64 -67.5q35 -57 42 -115.5t7 -108.5v-34h-148v34q0 25 -4 64t-24 70q-18 29 -55 47t-99 18q-61 0 -98 -18.5t-56 -46.5q-20 -29 -24 -65 t-4 -69v-319h209v-135h-209v-715h-148v715h-82zM655 0v850h148v-850h-148z" />
<glyph unicode="&#xfb02;" horiz-adv-x="942" d="M61 715v135h82v319q0 70 8.5 123.5t41.5 100.5q14 20 37.5 42.5t57.5 41t80 30t105 11.5q27 0 63.5 -4.5t76.5 -16.5t77 -36.5t64 -67.5q35 -57 42 -115.5t7 -108.5v-1169h-148v1169q0 25 -4 64t-24 70q-18 29 -55 47t-99 18q-61 0 -98 -18.5t-56 -46.5q-20 -29 -24 -65 t-4 -69v-319h209v-135h-209v-715h-148v715h-82z" />
<glyph horiz-adv-x="0" />
<glyph unicode="&#xd;" horiz-adv-x="477" />
<glyph unicode=" "  horiz-adv-x="477" />
<glyph unicode="&#x09;" horiz-adv-x="477" />
<glyph unicode="&#xa0;" horiz-adv-x="477" />
<glyph unicode="!" horiz-adv-x="573" d="M184 82q0 41 31 71.5t72 30.5t71.5 -30.5t30.5 -71.5t-30.5 -71.5t-71.5 -30.5t-72 30.5t-31 71.5zM213 276v1090h147v-1090h-147z" />
<glyph unicode="&#x22;" horiz-adv-x="675" d="M111 1366h163l-26 -549h-111zM401 1366h164l-26 -549h-111z" />
<glyph unicode="#" horiz-adv-x="1228" d="M70 424l20 135h225l41 272h-225l21 136h225l61 399h150l-62 -399h279l61 399h150l-62 -399h226l-21 -136h-225l-41 -272h225l-20 -135h-226l-65 -424h-150l66 424h-279l-65 -424h-150l66 424h-225zM465 559h278l41 272h-278z" />
<glyph unicode="$" horiz-adv-x="1163" d="M158 328l147 41q8 -53 29.5 -98.5t52.5 -75.5q41 -43 83 -58.5t77 -17.5v561q-20 8 -48 20.5t-58.5 30t-61.5 37.5t-57 45q-53 51 -74 104.5t-21 118.5q0 74 26 134.5t69 106.5t101 73.5t124 33.5v179h123v-179q29 -4 68.5 -14t86.5 -43q41 -29 75 -67.5t56 -83.5 l-120 -80q-14 29 -35 56.5t-43 45.5q-27 23 -49.5 31t-38.5 12v-455q76 -29 136 -63.5t103 -79.5q96 -98 97 -248q0 -70 -21.5 -137.5t-64.5 -124.5t-105.5 -97t-144.5 -52v-191h-123v182q-86 4 -151.5 36t-110.5 75q-47 47 -80 112.5t-47 129.5zM379 1038q0 -35 11 -64.5 t40 -58.5q23 -23 54.5 -42t62.5 -31v399q-84 -14 -126 -72.5t-42 -130.5zM670 127q43 12 76.5 39t56 62.5t35 77.5t12.5 83q0 59 -21.5 99t-44.5 63t-57.5 42t-56.5 30v-496z" />
<glyph unicode="%" horiz-adv-x="1454" d="M68 1081q0 61 23.5 115.5t63.5 94.5t94.5 63.5t115.5 23.5t115.5 -23.5t94 -63.5t63.5 -94t24 -116q0 -61 -24 -115.5t-63.5 -94.5t-94 -63.5t-115.5 -23.5t-115.5 23.5t-94.5 63.5t-63.5 94.5t-23.5 115.5zM190 1081q0 -39 13.5 -72.5t37 -58t55.5 -39t69 -14.5 q76 0 125 54.5t49 129.5q0 76 -49.5 130.5t-124.5 54.5q-37 0 -69 -14.5t-55.5 -39t-37 -58.5t-13.5 -73zM289 20l796 1373l80 -45l-796 -1375zM793 283q0 61 23.5 115.5t63.5 94t94.5 63.5t115.5 24t115.5 -24t94 -63.5t63 -94t23.5 -115.5t-23.5 -115.5t-63 -94.5 t-94 -63.5t-115.5 -23.5t-115.5 23.5t-94.5 63.5t-63.5 94t-23.5 116zM915 283q0 -39 13.5 -73t37 -58.5t55.5 -39t69 -14.5q76 0 125 54.5t49 130.5t-49.5 130t-124.5 54q-37 0 -69 -14.5t-55.5 -39t-37 -58t-13.5 -72.5z" />
<glyph unicode="&#x26;" horiz-adv-x="1302" d="M111 354q0 55 13 100.5t31.5 80t40 60.5t37.5 42q27 27 62 54.5t68.5 51t61.5 41t38 23.5q-70 90 -102.5 156.5t-32.5 136.5q0 53 18.5 105t56 93t93 66t129.5 25q72 0 126 -24t90 -62.5t54 -88t18 -100.5q0 -47 -22.5 -111.5t-104.5 -136.5q-12 -12 -19 -16t-16.5 -11.5 t-25.5 -20.5t-49 -40l285 -366q55 59 90.5 99t64.5 81l111 -92q-29 -39 -70 -88.5t-104 -114.5l229 -297h-188l-148 190q-45 -45 -97 -83.5t-109.5 -68.5t-117 -46.5t-116.5 -16.5q-84 0 -155.5 29t-125 79t-84 119.5t-30.5 151.5zM262 356q0 -51 17.5 -95t50 -76.5t77 -51 t97.5 -18.5q55 0 109.5 22.5t101.5 53t84 62.5t55 50l-303 391q-76 -47 -120 -80.5t-73 -60.5q-14 -12 -31.5 -29.5t-31.5 -41t-23.5 -55.5t-9.5 -71zM471 1108q0 -45 17.5 -76t37.5 -59l62 -84l90 69q59 47 75.5 85t16.5 73q0 37 -13.5 63.5t-34 44t-47 25.5t-52.5 8 q-63 0 -107.5 -41.5t-44.5 -107.5z" />
<glyph unicode="'" horiz-adv-x="385" d="M111 1366h163l-26 -549h-111z" />
<glyph unicode="(" horiz-adv-x="602" d="M164 590q0 104 11 241.5t46 290.5q23 98 56.5 205t64.5 189l129 -60q-29 -72 -55.5 -161t-48.5 -193q-29 -135 -40.5 -258t-11.5 -258q0 -127 10.5 -244t39.5 -256q20 -100 46.5 -192.5t59.5 -182.5l-129 -59q-35 88 -58.5 167t-40 140t-25.5 102t-11 54 q-23 115 -33 237.5t-10 237.5z" />
<glyph unicode=")" horiz-adv-x="602" d="M131 -289q33 90 59.5 182.5t47.5 192.5q29 139 39 256t10 244q0 135 -11.5 258t-39.5 258q-23 104 -49.5 193t-55.5 161l129 60q31 -82 64.5 -188.5t56.5 -205.5q35 -154 46 -291t11 -241q0 -115 -10 -238t-33 -237q-2 -12 -11 -53.5t-25.5 -102.5t-41 -140t-57.5 -167z " />
<glyph unicode="*" horiz-adv-x="1163" d="M242 1198l43 129l237 -88l-10 254h139l-10 -254l238 88l43 -129l-246 -70l158 -198l-111 -80l-141 211l-142 -211l-110 80l157 198z" />
<glyph unicode="+" d="M68 614v136h370v352h148v-352h370v-136h-370v-352h-148v352h-370z" />
<glyph unicode="," horiz-adv-x="561" d="M49 -272l168 473l135 -49l-207 -463z" />
<glyph unicode="-" horiz-adv-x="655" d="M102 360v152h451v-152h-451z" />
<glyph unicode="." horiz-adv-x="466" d="M131 82q0 41 31 71.5t71 30.5q41 0 72 -30.5t31 -71.5t-31 -71.5t-72 -30.5t-71.5 30.5t-30.5 71.5z" />
<glyph unicode="/" horiz-adv-x="1212" d="M0 -348l1053 1902l118 -61l-1052 -1899z" />
<glyph unicode="0" horiz-adv-x="1163" d="M94 682q0 147 35 275t102 227q78 113 173.5 159t177.5 46t177 -46.5t173 -158.5q68 -98 102.5 -226.5t34.5 -275.5t-35 -275t-102 -227q-39 -57 -83 -96t-90 -63.5t-91 -35t-86 -10.5t-86 10.5t-91.5 35t-90.5 63.5t-83 96q-68 98 -102.5 226.5t-34.5 275.5zM246 682 q0 -109 22.5 -218.5t77.5 -197.5q53 -86 117.5 -118.5t118.5 -32.5q53 0 117.5 32.5t117.5 118.5q55 88 78 197.5t23 218.5t-23 218.5t-78 197.5q-53 86 -117.5 118.5t-117.5 32.5t-118 -32.5t-118 -118.5q-55 -88 -77.5 -197.5t-22.5 -218.5z" />
<glyph unicode="1" horiz-adv-x="1163" d="M315 1223l80 143h301v-1366h-151v1223h-230z" />
<glyph unicode="2" horiz-adv-x="1163" d="M102 0l498 575q12 14 34.5 41t46.5 55.5t45.5 56.5t33.5 46q47 66 61.5 117t14.5 92q0 117 -75 191.5t-198 74.5q-147 0 -227 -121q-20 -31 -31.5 -69.5t-13.5 -91.5h-152q4 104 33 169.5t70 112.5q43 49 119.5 94.5t203.5 45.5q90 0 168 -31t134.5 -85t88 -129 t31.5 -163q0 -70 -23.5 -137.5t-84.5 -155.5q-43 -59 -94.5 -119.5t-92.5 -107.5l-284 -322h577v-139h-883z" />
<glyph unicode="3" horiz-adv-x="1163" d="M131 354h152q4 -37 16 -72.5t33 -64.5q35 -49 90 -75.5t121 -26.5q57 0 106 21.5t85 59t56.5 88t20.5 107.5q0 29 -6 61.5t-21.5 64.5t-42 58.5t-65.5 45.5q-33 16 -74 23t-82 5v135q41 -4 82 4.5t74 24.5q16 8 35.5 23.5t37 40t30 58.5t12.5 81q0 45 -13.5 87t-41 74.5 t-71.5 52t-108 19.5q-41 0 -88 -13t-88 -65q-20 -27 -34.5 -63.5t-18.5 -79.5h-152q4 57 20.5 108.5t43.5 92.5q33 53 75.5 85t85.5 48t84 21.5t72 5.5q96 0 169 -31t121 -83t71.5 -118.5t23.5 -136.5q0 -37 -8 -79t-27.5 -83t-54.5 -78t-86 -63q18 -6 51 -25.5t64.5 -57.5 t56.5 -98.5t25 -148.5q0 -96 -33 -172t-90.5 -129t-133 -82t-163.5 -29q-53 0 -108.5 12.5t-107 40t-95.5 72.5t-70 111q-16 37 -22.5 71.5t-8.5 71.5z" />
<glyph unicode="4" horiz-adv-x="1163" d="M41 258l852 1184v-1045h168v-139h-168v-258h-152v258h-700zM309 397h432v604z" />
<glyph unicode="5" horiz-adv-x="1163" d="M70 221l120 86q16 -35 39 -60.5t54 -49.5q43 -35 96 -58.5t125 -23.5t133 27.5t106 74.5t71 111.5t26 136.5q0 74 -26 135.5t-70 106.5t-105 69.5t-135 24.5q-37 0 -104.5 -15.5t-159.5 -78.5l155 516l43 143h543v-139h-438l-88 -295q35 8 86 8q102 0 186 -37 t142.5 -100.5t90 -149.5t31.5 -186q0 -115 -40 -206t-108.5 -154.5t-158.5 -97.5t-190 -34q-84 0 -160 25t-146 82q-33 29 -63.5 63.5t-54.5 75.5z" />
<glyph unicode="6" horiz-adv-x="1163" d="M111 440q0 18 3 50t14 72t33.5 89t61.5 103l465 645l115 -86l-314 -436q57 18 121 18q98 0 179 -35t139.5 -95t91.5 -143t33 -178q0 -102 -35 -188t-97.5 -148.5t-148.5 -97.5t-188 -35q-121 0 -210 42t-147.5 110t-87 150.5t-28.5 162.5zM262 440q0 -68 23.5 -127 t65.5 -103t100.5 -69.5t130.5 -25.5q70 0 129 24.5t101 68.5t65.5 103.5t23.5 128.5q0 68 -23.5 126.5t-66.5 100.5t-102.5 65.5t-128.5 23.5q-70 0 -128.5 -24.5t-100.5 -66.5t-65.5 -99.5t-23.5 -125.5z" />
<glyph unicode="7" horiz-adv-x="1163" d="M106 47l777 1180h-748v139h1004l-865 -1323l-49 -76z" />
<glyph unicode="8" horiz-adv-x="1163" d="M164 377q0 111 51 199t156 135q-82 47 -124 124.5t-42 174.5q0 74 24.5 141.5t71.5 120.5t117.5 85t163.5 32q92 0 162.5 -32t117.5 -85t71.5 -121t24.5 -141q0 -96 -41.5 -174t-123.5 -125q104 -47 155 -135.5t51 -198.5q0 -80 -26.5 -152.5t-78.5 -128t-130 -88.5 t-182 -33t-183.5 33t-131.5 88.5t-77.5 128t-25.5 152.5zM315 381q0 -117 74 -191.5t193 -74.5t192.5 74.5t73.5 191.5q0 57 -19.5 105.5t-55.5 82t-85 53t-106 19.5q-59 0 -107.5 -19.5t-84.5 -53t-55.5 -82t-19.5 -105.5zM348 1008q0 -102 67 -169t167 -67t166.5 66.5 t66.5 169.5q0 55 -18.5 100t-51 77t-74.5 48t-89 16t-89 -16t-75 -48t-51.5 -77t-18.5 -100z" />
<glyph unicode="9" horiz-adv-x="1163" d="M111 920q0 102 34.5 188t97 148.5t148.5 97.5t189 35q121 0 210 -42t147 -110t87 -150.5t29 -162.5q0 -18 -3 -50t-14.5 -73t-34 -89t-61.5 -102l-465 -643l-115 84l314 436q-59 -18 -121 -18q-98 0 -180 35t-140.5 95t-90 142t-31.5 179zM262 924q0 -68 23.5 -126.5 t66.5 -100.5t102.5 -65.5t129.5 -23.5t128 24.5t100 66.5t65.5 99.5t23.5 125.5t-23.5 127t-65.5 103t-100 69.5t-130 25.5t-130.5 -24.5t-100.5 -68.5t-65.5 -103.5t-23.5 -128.5z" />
<glyph unicode=":" horiz-adv-x="466" d="M131 78q0 41 31 71.5t71 30.5q41 0 72 -30.5t31 -71.5t-31 -72t-72 -31t-71.5 31t-30.5 72zM131 768q0 41 31 71.5t71 30.5q41 0 72 -30.5t31 -71.5t-31 -71.5t-72 -30.5t-71.5 30.5t-30.5 71.5z" />
<glyph unicode=";" horiz-adv-x="561" d="M49 -272l168 473l135 -49l-207 -463zM160 768q0 41 30.5 71.5t71.5 30.5t72 -30.5t31 -71.5t-31 -71.5t-72 -30.5t-71.5 30.5t-30.5 71.5z" />
<glyph unicode="&#x3c;" d="M68 612v127l888 416v-147l-731 -332l731 -332v-147z" />
<glyph unicode="=" d="M68 471v135h888v-135h-888zM68 786v136h888v-136h-888z" />
<glyph unicode="&#x3e;" d="M68 197v147l731 332l-731 332v147l888 -416v-127z" />
<glyph unicode="?" horiz-adv-x="892" d="M117 1073q0 49 14 108.5t64 112.5q37 41 97 68t152 27q68 0 129.5 -18.5t112.5 -70.5q33 -33 61.5 -90t28.5 -151q0 -55 -14 -104.5t-55 -96.5q-33 -37 -72 -61.5t-86 -40.5q-35 -12 -73 -23.5t-75 -27.5q-12 -6 -28.5 -15.5t-32.5 -26t-27.5 -41t-11.5 -61.5 q0 -41 12.5 -65.5t28.5 -40.5q14 -14 39 -25.5t61 -11.5q63 0 101 37q23 23 36 61.5t13 75.5h147q0 -72 -22.5 -131.5t-61.5 -100.5q-25 -27 -75 -54t-136 -27q-78 0 -130 25.5t-83 55.5q-25 25 -53 76t-28 135q0 109 52 166.5t120 87.5q53 25 96 35t76 23q45 16 71.5 38.5 t39.5 47t16.5 49t3.5 45.5q0 31 -9.5 71t-44.5 72q-16 16 -46.5 29.5t-78.5 13.5q-35 0 -69.5 -10t-59.5 -33q-29 -27 -41 -64.5t-12 -72.5q0 -20 3 -42.5t9 -43.5h-151q-8 39 -8 90zM344 78q0 41 31 71.5t71 30.5q41 0 72 -30.5t31 -71.5t-31 -72t-72 -31t-71.5 31 t-30.5 72z" />
<glyph unicode="@" horiz-adv-x="1501" d="M68 678q0 147 55 276t150.5 224.5t225.5 150.5t279 55q131 0 248 -43t206 -122.5t141 -191.5t52 -249q0 -106 -29.5 -195t-76.5 -152.5t-106.5 -99.5t-120.5 -36q-63 0 -104.5 38t-45.5 99q-6 -10 -25.5 -34.5t-51 -49t-77 -43t-102.5 -18.5q-66 0 -119 25.5t-90 70.5 t-57.5 105.5t-20.5 127.5q0 82 26 158t74 133.5t113.5 91t145.5 33.5q94 0 148.5 -47t76.5 -111l27 132h106q-23 -90 -39 -176.5t-28.5 -155t-19.5 -116.5t-9 -62v-17q0 -10 3 -26.5t10 -31.5t22.5 -25.5t40.5 -10.5q37 0 76.5 26.5t74.5 78t57.5 123t22.5 163.5 q0 117 -43 211t-117.5 160.5t-174 102.5t-212.5 36q-127 0 -238.5 -47t-193.5 -130t-129 -194.5t-47 -238.5q0 -96 32 -202.5t105.5 -196t193.5 -147.5t296 -58q72 0 182.5 15t245.5 79l30 -94q-125 -59 -246.5 -79t-213.5 -20q-160 0 -293 51.5t-230.5 144.5t-151.5 223 t-54 286zM518 621q0 -55 16.5 -97.5t43 -70t60.5 -42t71 -14.5q55 0 98 28t73.5 73t47 104.5t16.5 120.5q0 53 -15.5 91t-40 61.5t-56 35t-64.5 11.5q-53 0 -99 -26t-80 -68t-52.5 -96t-18.5 -111z" />
<glyph unicode="A" horiz-adv-x="1273" d="M16 0l629 1432l612 -1432h-167l-160 385h-582l-164 -385h-168zM408 528h462l-229 547z" />
<glyph unicode="B" horiz-adv-x="1085" d="M176 0v1366h246q29 0 66.5 -2t80.5 -11.5t86 -25.5t80 -47q16 -12 38 -34.5t40 -56.5t31.5 -82t13.5 -110q0 -25 -4 -58.5t-18.5 -70.5t-41 -72.5t-71.5 -66.5q72 -18 121 -55t79.5 -85t45 -101.5t14.5 -102.5q0 -98 -42 -175t-97 -120q-41 -33 -84 -50t-85 -26.5 t-83 -11.5t-76 -2h-340zM328 143h174q66 0 128 9.5t111 48.5q41 29 65.5 78t24.5 110q0 82 -37.5 130t-78.5 71q-74 41 -232 41h-155v-488zM328 766h114q31 0 76 6t88 28.5t74 67.5t31 125q0 84 -35 131t-81 68.5t-89 26t-60 4.5h-118v-457z" />
<glyph unicode="C" horiz-adv-x="1323" d="M102 678q0 154 54.5 284t149.5 225t226.5 148.5t284.5 53.5q31 0 75 -3.5t96 -17.5t111.5 -41t121.5 -74v-188q-33 33 -79 67.5t-100 59.5q-53 25 -114.5 39t-120.5 14q-119 0 -219.5 -45t-174 -122t-114.5 -180t-41 -222q0 -139 51 -243.5t131 -174.5t177.5 -104.5 t191.5 -34.5q70 0 135.5 17.5t118.5 45.5q59 29 99 63t59 52v-188q-115 -82 -224.5 -108t-187.5 -26q-152 0 -282 54.5t-224 148.5t-147.5 223t-53.5 277z" />
<glyph unicode="D" horiz-adv-x="1294" d="M176 0v1366h279q51 0 112.5 -4t127 -20.5t132 -48t131.5 -87.5q47 -39 89.5 -91t75 -117.5t51 -144.5t18.5 -171q0 -109 -23.5 -191.5t-59.5 -146t-78 -110t-79 -76.5q-47 -41 -96 -70t-108.5 -49.5t-131 -29.5t-163.5 -9h-277zM328 143h133q41 0 88 4.5t98 16.5 t103.5 36.5t101.5 65.5q78 66 131 167.5t53 248.5q0 123 -41 222.5t-116.5 170t-182 109.5t-235.5 39h-133v-1080z" />
<glyph unicode="E" horiz-adv-x="987" d="M176 0v1366h709v-143h-557v-406h540v-143h-540v-531h557v-143h-709z" />
<glyph unicode="F" horiz-adv-x="888" d="M176 0v1366h623v-143h-471v-404h454v-143h-454v-676h-152z" />
<glyph unicode="G" horiz-adv-x="1552" d="M102 682q0 150 54.5 279t149.5 224t225.5 149.5t283.5 54.5q98 0 208 -29t210 -107q47 -35 88 -77.5t70 -83.5l-113 -103q-59 84 -129 141q-49 41 -129 78t-203 37t-226.5 -44t-177 -119.5t-114.5 -179t-41 -222.5q0 -139 50 -244.5t130 -176.5t179.5 -105.5t195.5 -34.5 q137 0 247.5 62.5t170.5 166.5q18 33 34.5 81t20.5 114h-405v143h569v-33q0 -115 -33 -229.5t-98 -202.5q-16 -20 -53 -61t-98.5 -82t-150.5 -72t-206 -31q-152 0 -282 54.5t-225 149.5t-148.5 224t-53.5 279z" />
<glyph unicode="H" horiz-adv-x="1355" d="M176 0v1366h152v-555h700v555h152v-1366h-152v668h-700v-668h-152z" />
<glyph unicode="I" horiz-adv-x="503" d="M176 0v1366h152v-1366h-152z" />
<glyph unicode="J" horiz-adv-x="626" d="M-94 76l84 119q35 -37 75.5 -56.5t79.5 -19.5q63 0 103 39q39 39 45 98t6 123v987h152v-983q0 -84 -11.5 -170t-72.5 -152q-35 -39 -88.5 -62.5t-128.5 -23.5q-74 0 -135.5 24t-108.5 77z" />
<glyph unicode="K" horiz-adv-x="1163" d="M176 0v1366h152v-586l581 586h205l-639 -637l660 -729h-209l-559 627l-39 -39v-588h-152z" />
<glyph unicode="L" horiz-adv-x="733" d="M176 0v1366h152v-1223h377v-143h-529z" />
<glyph unicode="M" horiz-adv-x="1767" d="M129 0l227 1442l525 -1153l534 1155l213 -1444h-155l-130 950l-464 -1007l-459 1007l-135 -950h-156z" />
<glyph unicode="N" horiz-adv-x="1568" d="M176 0v1423l1065 -1116v1059h152v-1427l-1065 1116v-1055h-152z" />
<glyph unicode="O" horiz-adv-x="1626" d="M102 682q0 154 55.5 283t153 223t226.5 147.5t276 53.5t276.5 -53.5t226.5 -147.5t152.5 -223t55.5 -283q0 -152 -55.5 -282t-151.5 -224t-226.5 -147.5t-277.5 -53.5t-277 53.5t-226.5 147.5t-152 224t-55.5 282zM258 682q0 -117 43 -220.5t119 -179t177 -119.5t216 -44 t216 44t176 119.5t119 179t44 220.5t-44 220.5t-119 179t-176 119.5t-216 44t-216 -44t-177 -119.5t-119 -179t-43 -220.5z" />
<glyph unicode="P" horiz-adv-x="933" d="M176 0v1366h248q104 0 189 -18.5t155 -77.5q76 -66 100.5 -147t24.5 -146q0 -72 -23.5 -141.5t-76 -123t-134 -86t-198.5 -32.5h-133v-594h-152zM328 737h125q135 0 211.5 64.5t76.5 183.5q0 82 -32.5 129t-80.5 71.5t-99.5 31t-88.5 6.5h-112v-486z" />
<glyph unicode="Q" horiz-adv-x="1626" d="M102 682q0 154 55.5 283t153 223t226.5 147.5t276 53.5t276.5 -53.5t225.5 -147.5t152.5 -223t56.5 -283q0 -94 -18.5 -170t-47 -136.5t-62.5 -106.5t-65 -76l201 -207h-197l-110 114q-23 -14 -59 -35.5t-87 -41t-117.5 -34t-148.5 -14.5q-147 0 -276 53.5t-226.5 147.5 t-153 224t-55.5 282zM258 682q0 -117 43 -220.5t119 -179t177 -119.5t216 -44q66 0 144.5 18.5t158.5 71.5l-330 340h197l240 -246q18 20 43.5 54t48 81t38 107.5t15.5 136.5q0 117 -44 220.5t-119 179t-176 119.5t-216 44t-216 -44t-177 -119.5t-119 -179t-43 -220.5z" />
<glyph unicode="R" horiz-adv-x="1028" d="M176 0v1366h219q35 0 77 -2t86 -10t87 -22.5t82 -41.5q59 -41 104.5 -116.5t45.5 -186.5q0 -78 -25 -144.5t-70 -116.5t-108.5 -80t-141.5 -36l435 -610h-185l-415 598h-39v-598h-152zM328 733h96q141 0 221 64.5t80 185.5q0 57 -21.5 110.5t-87.5 90.5q-47 27 -97 33 t-99 6h-92v-490z" />
<glyph unicode="S" horiz-adv-x="1060" d="M102 328l148 41q8 -53 30.5 -98.5t51.5 -75.5q45 -45 94 -60.5t102 -15.5q70 0 122 22.5t86 60.5t50.5 87t16.5 100q0 47 -15.5 86t-52.5 74q-29 29 -69.5 49t-94.5 45l-122 57q-41 18 -88.5 43t-94.5 70q-45 43 -69.5 94t-24.5 129q0 80 28.5 144.5t80 110.5t121 72 t153.5 26q63 0 115.5 -13.5t103.5 -48.5q41 -29 76 -67.5t57 -83.5l-121 -80q-14 29 -35.5 56.5t-43.5 45.5q-20 16 -57.5 31.5t-96.5 15.5q-102 0 -165.5 -57.5t-63.5 -153.5q0 -41 11 -66.5t40 -52.5q31 -31 67.5 -50t75.5 -36l131 -57q59 -27 113.5 -56.5t97.5 -72.5 q53 -53 75.5 -113.5t22.5 -134.5q0 -94 -32.5 -172t-91 -133t-137.5 -85t-171 -30q-68 0 -146.5 20.5t-150.5 90.5q-51 49 -81.5 114.5t-45.5 127.5z" />
<glyph unicode="T" horiz-adv-x="872" d="M29 1223v143h815v-143h-332v-1223h-152v1223h-331z" />
<glyph unicode="U" horiz-adv-x="1323" d="M176 487v879h152v-838q0 -43 2 -87t12 -87t31.5 -83t62.5 -74q41 -35 104.5 -56.5t121.5 -21.5q57 0 120.5 21.5t104.5 56.5t62.5 74.5t31.5 82.5t12 87t2 87v838h152v-879q0 -86 -15.5 -167.5t-70.5 -159.5q-61 -86 -164.5 -135.5t-234.5 -49.5t-234.5 49.5 t-165.5 135.5q-55 78 -70.5 159.5t-15.5 167.5z" />
<glyph unicode="V" horiz-adv-x="1138" d="M16 1366h168l385 -1042l385 1042h168l-553 -1448z" />
<glyph unicode="W" horiz-adv-x="1961" d="M16 1366h168l361 -1024l428 1094l405 -1094l400 1024h168l-574 -1438l-401 1094l-430 -1094z" />
<glyph unicode="X" horiz-adv-x="1032" d="M29 0l403 707l-366 659h172l282 -514l291 514h172l-375 -659l396 -707h-173l-313 561l-317 -561h-172z" />
<glyph unicode="Y" horiz-adv-x="1085" d="M16 1366h177l348 -610l352 610h176l-453 -778v-588h-151v588z" />
<glyph unicode="Z" horiz-adv-x="1097" d="M49 0l746 1223h-650v143h904l-746 -1223h725v-143h-979z" />
<glyph unicode="[" horiz-adv-x="593" d="M164 -348v1841h344v-135h-197v-1571h197v-135h-344z" />
<glyph unicode="\" horiz-adv-x="1222" d="M41 1493l119 61l1063 -1902l-119 -58z" />
<glyph unicode="]" horiz-adv-x="593" d="M86 -213h197v1571h-197v135h344v-1841h-344v135z" />
<glyph unicode="^" d="M53 748l363 618h192l363 -618h-160l-299 505l-299 -505h-160z" />
<glyph unicode="_" d="M0 -139h1024v-131h-1024v131z" />
<glyph unicode="`" d="M233 1294l152 70l215 -297l-90 -49z" />
<glyph unicode="a" horiz-adv-x="1077" d="M86 426q0 111 34 193.5t91 138t132 84t157 28.5q61 0 109 -15t83 -36.5t59.5 -46t39.5 -43.5v121h147v-850h-147v119q-18 -25 -45 -49.5t-63 -46t-82 -35t-101 -13.5q-80 0 -155 29t-132 85t-92 140t-35 197zM238 426q0 -68 18 -126t54 -101t88.5 -68t117.5 -25 q68 0 120 26t89 70t55.5 101t18.5 121q0 82 -25.5 141.5t-66.5 98t-91.5 57t-99.5 18.5q-55 0 -105.5 -19.5t-88 -59t-61 -98t-23.5 -136.5z" />
<glyph unicode="b" horiz-adv-x="1077" d="M139 0v1493h148v-762q37 47 79 75t80.5 42t73.5 18t58 4q100 0 176.5 -37.5t129 -101t80 -144.5t27.5 -167q0 -88 -27.5 -168t-80 -141.5t-128 -98.5t-171.5 -37q-104 0 -177 41t-120 103v-119h-148zM279 422q0 -66 20 -123t57 -100t89 -68t118 -25q63 0 115.5 25 t87.5 68t54.5 100t19.5 121q0 78 -24.5 138t-63.5 100t-89.5 60.5t-101.5 20.5t-102 -20.5t-91 -61.5t-64.5 -100t-24.5 -135z" />
<glyph unicode="c" horiz-adv-x="897" d="M86 420q0 98 34 180t95 142.5t144 94t182 33.5q102 0 167.5 -29.5t96.5 -52.5v-176q-59 74 -134 100.5t-132 26.5q-59 0 -113.5 -20.5t-96.5 -60.5t-66.5 -99t-24.5 -137t25.5 -136.5t67.5 -98.5t95 -60.5t111 -20.5q66 0 140.5 31t133.5 103v-177q-70 -51 -140.5 -69.5 t-129.5 -18.5q-98 0 -182.5 34t-144.5 93.5t-94 140.5t-34 177z" />
<glyph unicode="d" horiz-adv-x="1077" d="M86 426q0 111 34 193.5t91 138t132 84t157 28.5q61 0 109 -15t83 -36.5t59.5 -46t39.5 -43.5v764h147v-1493h-147v119q-18 -25 -45 -49.5t-63 -46t-82 -35t-101 -13.5q-80 0 -155 29t-132 85t-92 140t-35 197zM238 426q0 -68 18 -126t54 -101t88.5 -68t117.5 -25 q68 0 120 26t89 70t55.5 101t18.5 121q0 82 -25.5 141.5t-66.5 98t-91.5 57t-99.5 18.5q-55 0 -105.5 -19.5t-88 -59t-61 -98t-23.5 -136.5z" />
<glyph unicode="e" horiz-adv-x="985" d="M86 420q0 94 28.5 177t82 143.5t129 95t172.5 34.5q125 0 203.5 -50t117.5 -105q41 -57 63 -145q18 -75 18 -148q0 -14 -1 -27h-661q0 -66 21.5 -119t58 -91t86 -58.5t104.5 -20.5q100 0 174 62q29 25 51.5 55.5t36.5 61.5l123 -68q-18 -35 -45 -71.5t-60 -65.5 q-117 -104 -282 -105q-78 0 -152.5 25t-134 79t-96.5 138t-37 203zM248 518h500q-18 100 -87 160.5t-163 60.5t-164 -62.5t-86 -158.5z" />
<glyph unicode="f" horiz-adv-x="491" d="M61 715v135h82v371q0 29 2 61.5t10.5 64t25 60.5t44.5 53q66 55 170 56q41 0 66.5 -7.5t38.5 -11.5v-143q-47 18 -97 18q-25 0 -51 -8t-43 -37q-14 -23 -16 -55.5t-2 -67.5v-354h209v-135h-209v-715h-148v715h-82z" />
<glyph unicode="g" horiz-adv-x="1077" d="M86 426q0 125 38 204t85 126q53 53 129 83.5t162 30.5q94 0 166.5 -37.5t124.5 -103.5v121h147v-830q0 -35 -1 -75.5t-9 -83.5t-24.5 -88t-47.5 -86q-47 -66 -133 -112t-207 -46q-111 0 -185.5 36t-117.5 79t-77 111.5t-34 162.5h146q0 -53 18.5 -99t46.5 -77 q47 -51 101.5 -66.5t103.5 -15.5q154 0 225 119q33 53 40.5 108.5t7.5 108.5v123q-18 -25 -45 -49.5t-63 -46t-82 -35t-101 -13.5q-94 0 -168 33t-123 82q-43 43 -83 125t-40 211zM238 426q0 -55 17 -124t79 -126q35 -33 79 -51.5t103 -18.5q115 0 186 72q43 41 70 105.5 t27 140.5t-24.5 138.5t-65.5 101.5q-35 35 -85.5 55t-107.5 20q-68 0 -115 -24.5t-77 -55.5q-53 -55 -69.5 -117.5t-16.5 -115.5z" />
<glyph unicode="h" horiz-adv-x="962" d="M139 0v1493h148v-741q10 12 29.5 32.5t49 40t70.5 32.5t94 13q76 0 140.5 -29.5t103.5 -86.5q33 -47 41 -101.5t8 -126.5v-526h-147v522q0 39 -6 80t-33 76q-23 29 -56.5 45t-82.5 16q-39 0 -78 -13t-72 -52q-43 -51 -52 -116.5t-9 -113.5v-444h-148z" />
<glyph unicode="i" horiz-adv-x="425" d="M109 1171q0 43 30.5 74t73.5 31t73.5 -31t30.5 -74t-30.5 -73.5t-73.5 -30.5t-73.5 30.5t-30.5 73.5zM139 0v850h148v-850h-148z" />
<glyph unicode="j" horiz-adv-x="425" d="M109 1171q0 43 30.5 74t73.5 31t73.5 -31t30.5 -74t-30.5 -73.5t-73.5 -30.5t-73.5 30.5t-30.5 73.5zM139 -471v1321h148v-1321h-148z" />
<glyph unicode="k" horiz-adv-x="864" d="M139 0v1493h148v-958l311 315h193l-365 -365l430 -485h-192l-340 387l-37 -37v-350h-148z" />
<glyph unicode="l" horiz-adv-x="425" d="M139 0v1493h148v-1493h-148z" />
<glyph unicode="m" horiz-adv-x="1402" d="M139 0v850h148v-90q35 53 89 81.5t122 28.5q57 0 98 -17t68.5 -41t43 -46.5t21.5 -32.5q31 49 66.5 76t70.5 41t66 17t53 3q94 0 149.5 -34.5t83 -86t36 -108.5t8.5 -102v-539h-148v516q0 37 -4 76t-19.5 71.5t-46 54t-81.5 21.5q-63 0 -101.5 -27.5t-58 -67.5t-24.5 -86 t-5 -85v-473h-147v504q0 23 -2 62.5t-16.5 77.5t-46.5 66.5t-89 28.5q-63 0 -100 -28.5t-56.5 -70.5t-24.5 -90t-5 -87v-463h-148z" />
<glyph unicode="n" horiz-adv-x="962" d="M139 0v850h148v-98q10 12 29.5 32.5t49 40t70.5 32.5t94 13q76 0 140.5 -29.5t103.5 -86.5q33 -47 41 -101.5t8 -126.5v-526h-147v522q0 39 -6 80t-33 76q-23 29 -56.5 45t-82.5 16q-39 0 -78 -13t-72 -52q-43 -51 -52 -116.5t-9 -113.5v-444h-148z" />
<glyph unicode="o" horiz-adv-x="1073" d="M86 422q0 96 34 178t94 142.5t142 94t181 33.5q98 0 180 -33.5t142.5 -94t94 -142.5t33.5 -178t-33.5 -178t-94 -141.5t-143.5 -93.5t-179 -34t-179.5 34t-143.5 93.5t-94 141.5t-34 178zM238 422q0 -78 25.5 -137.5t67.5 -99.5t95 -59.5t111 -19.5q57 0 111 20.5 t95 60.5t67 98.5t26 136.5t-25 137t-67 99t-96 60.5t-111 20.5q-59 0 -112.5 -20.5t-95.5 -60.5t-66.5 -99t-24.5 -137z" />
<glyph unicode="p" horiz-adv-x="1077" d="M139 -471v1321h148v-119q37 47 79 75t80.5 42t73.5 18t58 4q100 0 176.5 -37.5t129 -101t80 -144.5t27.5 -167q0 -88 -27.5 -168t-80 -141.5t-128 -98.5t-171.5 -37q-104 0 -177 41t-120 103v-590h-148zM279 422q0 -66 20 -123t57 -100t89 -68t118 -25q63 0 115.5 25 t87.5 68t54.5 100t19.5 121q0 78 -24.5 138t-63.5 100t-89.5 60.5t-101.5 20.5t-102 -20.5t-91 -61.5t-64.5 -100t-24.5 -135z" />
<glyph unicode="q" horiz-adv-x="1077" d="M86 426q0 111 34 193.5t91 138t132 84t157 28.5q61 0 109 -15t83 -36.5t59.5 -46t39.5 -43.5v121h147v-1321h-147v590q-18 -25 -45 -49.5t-63 -46t-82 -35t-101 -13.5q-80 0 -155 29t-132 85t-92 140t-35 197zM238 426q0 -68 18 -126t54 -101t88.5 -68t117.5 -25 q68 0 120 26t89 70t55.5 101t18.5 121q0 82 -25.5 141.5t-66.5 98t-91.5 57t-99.5 18.5q-55 0 -105.5 -19.5t-88 -59t-61 -98t-23.5 -136.5z" />
<glyph unicode="r" horiz-adv-x="606" d="M139 0v850h148v-92q6 8 20.5 26.5t38 38t57 33.5t76.5 14q35 0 69 -10t62 -24l-69 -134q-25 16 -47.5 22.5t-38.5 6.5q-45 0 -74 -15.5t-45 -37.5q-18 -25 -33.5 -75t-15.5 -154v-449h-148z" />
<glyph unicode="s" horiz-adv-x="720" d="M74 193l127 53q6 -16 18 -41t33.5 -46.5t50.5 -37t70 -15.5q37 0 62.5 12.5t43 32t25.5 43t8 48.5q0 59 -39 86.5t-98 54.5q-78 35 -128 62.5t-79 62.5q-25 31 -32 61.5t-7 63.5q0 113 69.5 175t178.5 62q16 0 46 -3t62.5 -18t66.5 -46t58 -86l-121 -64 q-16 37 -46.5 61.5t-71.5 24.5t-72 -23.5t-31 -72.5q0 -47 33 -68.5t105 -52.5q92 -39 140 -69.5t72 -61.5q29 -35 37.5 -68.5t8.5 -68.5q0 -68 -23 -119t-62.5 -87t-93 -54.5t-114.5 -18.5q-12 0 -50 4.5t-84.5 25t-91.5 64.5t-71 124z" />
<glyph unicode="t" horiz-adv-x="438" d="M53 715v135h90v307h148v-307h147v-135h-147v-715h-148v715h-90z" />
<glyph unicode="u" horiz-adv-x="954" d="M139 338v512h148v-496q0 -45 5 -93t36 -89q16 -23 52 -44.5t97 -21.5t97 22t53 44q31 41 36 89t5 93v496h147v-512q0 -78 -13.5 -139.5t-64.5 -116.5q-57 -59 -126.5 -83t-133.5 -24q-63 0 -133 24t-127 83q-51 55 -64.5 116.5t-13.5 139.5z" />
<glyph unicode="v" horiz-adv-x="868" d="M16 850h164l254 -574l254 574h164l-418 -905z" />
<glyph unicode="w" horiz-adv-x="1396" d="M16 850h164l252 -578l266 643l265 -643l254 578h163l-422 -909l-262 634l-262 -634z" />
<glyph unicode="x" horiz-adv-x="929" d="M16 0l363 455l-309 395h180l219 -289l223 289h180l-311 -397l352 -453h-180l-268 346l-268 -346h-181z" />
<glyph unicode="y" horiz-adv-x="942" d="M16 850h168l301 -608l277 608h164l-625 -1321h-164l271 551z" />
<glyph unicode="z" horiz-adv-x="942" d="M16 0l615 715h-496v135h791l-615 -715h590v-135h-885z" />
<glyph unicode="{" horiz-adv-x="1026" d="M299 514v119q20 2 45 13t45 44q27 45 27 125v399q0 29 3 62t12 64.5t28.5 60.5t54.5 51q41 29 93 35t98 6h55v-125h-31q-16 0 -57 -5t-70 -32q-29 -29 -34 -67.5t-5 -73.5v-385q0 -39 -5 -78t-21 -68q-16 -27 -43 -49t-56 -37q29 -14 55.5 -36.5t43.5 -49.5 q16 -29 21 -67.5t5 -77.5v-387q0 -35 5 -74t34 -67q29 -27 70 -32t57 -5h31v-125h-55q-45 0 -97.5 6t-93.5 35q-35 23 -54.5 51.5t-28.5 60t-12 64.5t-3 61v402q0 80 -27 125q-20 33 -45 44t-45 13z" />
<glyph unicode="|" d="M438 -512v2048h148v-2048h-148z" />
<glyph unicode="}" horiz-adv-x="1026" d="M266 -223h31q16 0 57 5t70 32q29 29 34 67.5t5 73.5v387q0 39 5 78t21 67q16 27 43 49.5t56 36.5q-29 14 -55.5 37t-43.5 49q-16 29 -21 68t-5 78v385q0 35 -5 74t-34 67q-29 27 -70 32t-57 5h-31v125h56q45 0 97 -6t93 -35q33 -23 53.5 -51.5t29.5 -60t12 -64.5t3 -62 v-399q0 -80 27 -125q20 -33 45 -44t45 -13v-119q-20 -2 -45 -13.5t-45 -43.5q-27 -45 -27 -125v-402q0 -29 -3 -61.5t-12 -64t-29.5 -60.5t-53.5 -51q-41 -29 -93 -35t-97 -6h-56v125z" />
<glyph unicode="~" d="M20 498q18 41 47 87t52 72q37 41 81 59.5t97 18.5q57 0 111.5 -19.5t119.5 -49.5q47 -23 97.5 -44.5t97.5 -21.5q76 0 125 49q20 18 37.5 43t27.5 47l91 -53q-16 -39 -43 -79t-60 -70q-37 -37 -85 -58.5t-111 -21.5q-59 0 -113.5 22.5t-108.5 46.5q-70 33 -111.5 49.5 t-82.5 16.5q-59 0 -107 -41q-23 -18 -41 -48t-30 -59z" />
<glyph unicode="&#xa1;" horiz-adv-x="573" d="M184 813q0 41 31 71.5t72 30.5t71.5 -30.5t30.5 -71.5t-30.5 -71.5t-71.5 -30.5t-72 30.5t-31 71.5zM213 -471v1089h147v-1089h-147z" />
<glyph unicode="&#xa2;" horiz-adv-x="1163" d="M201 694q0 125 42 203t85 121q35 35 97 71.5t157 49.5v202h123v-198q119 -14 215 -80v-176q-31 37 -84.5 75.5t-130.5 49.5v-627q78 10 134 51t87 78v-176q-29 -23 -84.5 -49.5t-136.5 -36.5v-223h-123v227q-72 10 -140.5 43t-119.5 82q-47 47 -84 123t-37 190zM352 696 q0 -70 21.5 -129t68.5 -106q37 -37 74 -52.5t66 -21.5v619q-51 -6 -85 -27t-57 -43q-41 -41 -64.5 -101.5t-23.5 -138.5z" />
<glyph unicode="&#xa3;" horiz-adv-x="1163" d="M111 53q20 31 46.5 62.5t49.5 50.5q45 37 88 49t80 12q25 37 41 84t16 92q0 6 -3 41t-23 82h-230v115h176l-41 76q-39 72 -64.5 137.5t-25.5 146.5q0 74 26.5 147t82.5 128q41 41 110.5 74.5t184.5 33.5q104 0 169.5 -32.5t102.5 -69.5q51 -49 87 -133t36 -193v-18h-150 v20q0 47 -12 107.5t-61 110.5q-25 25 -67 45t-107 20q-59 0 -101.5 -18.5t-68.5 -44.5q-33 -31 -54.5 -78t-21.5 -103q0 -78 33.5 -146.5t74.5 -152.5l29 -57h258v-115h-207q12 -33 17.5 -64.5t5.5 -60.5q0 -47 -15.5 -96t-44.5 -96l121 -45q47 -18 81 -30.5t63 -12.5t55 10 t53 35q41 41 64 96l125 -74q-20 -47 -46 -81.5t-55 -57.5q-41 -35 -84 -53.5t-98 -18.5q-51 0 -92 10.5t-84 26.5l-80 31q-66 25 -101.5 32t-52.5 7q-20 0 -50 -7t-58 -30q-27 -20 -42.5 -42.5t-19.5 -31.5z" />
<glyph unicode="&#xa4;" horiz-adv-x="1368" d="M111 1221l82 82l194 -193q76 66 157 85t140 19t140 -19t157 -85l195 193l81 -82l-194 -195q66 -76 85 -154.5t19 -136.5q0 -57 -19.5 -136t-84.5 -155l192 -192l-81 -82l-193 190q-76 -66 -157 -85t-140 -19t-140 19.5t-157 84.5l-192 -190l-82 82l192 192 q-66 76 -85 155t-19 136t19.5 136t84.5 155zM340 735q0 -78 26.5 -141.5t72.5 -109.5t108.5 -71.5t136.5 -25.5t136.5 25.5t108.5 71.5t72.5 109.5t26.5 141.5q0 76 -26.5 140.5t-72.5 110.5t-108.5 71.5t-136.5 25.5t-136.5 -25.5t-108.5 -71.5t-72.5 -110.5t-26.5 -140.5z " />
<glyph unicode="&#xa5;" horiz-adv-x="1163" d="M53 1366h178l349 -610l352 610h178l-272 -465h223v-115h-289l-104 -180h393v-114h-406v-492h-151v492h-400v114h388l-105 180h-283v115h218z" />
<glyph unicode="&#xa6;" d="M438 225h148v-737h-148v737zM438 799v737h148v-737h-148z" />
<glyph unicode="&#xa7;" horiz-adv-x="1163" d="M207 580q0 98 55 186q59 88 152 125q-25 14 -54.5 35.5t-58.5 56.5q-35 41 -47 80t-12 86q0 82 29.5 146.5t74.5 105.5t109.5 66.5t144.5 25.5q70 0 129 -20.5t113 -69.5q39 -35 60.5 -72t31.5 -73.5t13 -72.5t3 -69v-10h-147v10q0 59 -17.5 110.5t-50.5 82.5t-68.5 40 t-64.5 9q-94 0 -153 -58q-59 -53 -60 -135q0 -74 53 -127q23 -23 62 -46t117 -52q59 -23 125.5 -49.5t119.5 -77.5t71.5 -107.5t18.5 -119.5q0 -49 -10 -99.5t-47 -103.5q-41 -57 -90 -90t-59 -37q86 -41 131 -113q23 -35 33 -72.5t10 -78.5q0 -78 -27 -138.5t-68 -101.5 q-66 -66 -136 -83t-128 -17q-98 0 -160.5 30.5t-101.5 71.5q-35 37 -52.5 80t-25.5 82t-9 69.5t-3 45.5h147q0 -47 16.5 -101.5t47.5 -87.5q16 -16 51 -35.5t94 -19.5q35 0 74 10t72 43q27 25 42 63t15 83q0 39 -13.5 70.5t-35.5 54.5q-29 29 -72 48t-114 48 q-80 31 -139.5 58.5t-104.5 76.5q-35 37 -60.5 95.5t-25.5 142.5zM358 573q0 -66 21.5 -103.5t42.5 -55.5q29 -29 72 -46.5t88 -17.5q47 0 89 16.5t70 47.5q29 29 46.5 69.5t17.5 89.5q0 43 -16.5 86t-49.5 76q-23 23 -60.5 42.5t-96.5 19.5q-53 0 -92 -17.5t-68 -46.5 q-23 -23 -43.5 -61.5t-20.5 -98.5z" />
<glyph unicode="&#xa8;" d="M231 1126q0 41 31 72t72 31t71.5 -31t30.5 -72t-30.5 -71.5t-71.5 -30.5t-72 30.5t-31 71.5zM588 1126q0 41 30.5 72t71.5 31t72 -31t31 -72t-31 -71.5t-72 -30.5t-71.5 30.5t-30.5 71.5z" />
<glyph unicode="&#xa9;" horiz-adv-x="1515" d="M51 682q0 147 56.5 276t152.5 224.5t224 151t274 55.5q143 0 272 -55.5t225.5 -151t152.5 -224.5t56 -276q0 -145 -56 -274t-152.5 -224.5t-224.5 -151t-273 -55.5t-273.5 55.5t-224.5 151t-152.5 224.5t-56.5 274zM166 682q0 -123 46 -230.5t127 -187.5t188.5 -126 t230.5 -46t230.5 46t188 126t127 187.5t46.5 230.5t-46.5 230.5t-127 188.5t-188 127t-230.5 46t-230.5 -46t-188.5 -127t-127 -188.5t-46 -230.5zM379 672q0 90 32.5 168t90 134t135.5 89t168 33q55 0 120.5 -16.5t127.5 -61.5v-164q-53 66 -125 92.5t-125 26.5 q-55 0 -106.5 -19.5t-90.5 -57.5t-62.5 -94.5t-23.5 -127.5q0 -74 24.5 -129.5t63.5 -92t89.5 -55t103.5 -18.5q78 0 144.5 35t113.5 90v-166q-74 -53 -139.5 -67.5t-114.5 -14.5q-92 0 -170 30.5t-135.5 86t-89 131.5t-31.5 168z" />
<glyph unicode="&#xaa;" horiz-adv-x="763" d="M82 1079q0 84 25.5 135.5t54.5 79.5q35 35 84 53.5t116 18.5q57 0 105 -23q23 -10 40 -23t34 -36v70h104v-545h-104v65q-31 -37 -72 -57q-49 -25 -111 -24q-72 0 -121 24.5t-77 52.5q-47 47 -62.5 101.5t-15.5 107.5zM102 596v86h543v-86h-543zM184 1077 q0 -41 15.5 -78.5t42.5 -64.5q29 -27 61.5 -39t65.5 -12q39 0 70.5 15t54.5 38q53 53 53 143q0 86 -55 146q-23 23 -55.5 37t-69.5 14q-33 0 -66 -12.5t-61 -40.5q-27 -29 -41.5 -68t-14.5 -78z" />
<glyph unicode="&#xab;" horiz-adv-x="880" d="M74 434l307 385l94 -76l-246 -309l246 -299l-94 -74zM377 434l307 385l94 -76l-246 -309l246 -299l-94 -74z" />
<glyph unicode="&#xac;" d="M68 416v131h888v-547h-143v416h-745z" />
<glyph unicode="&#xad;" horiz-adv-x="655" d="M102 360v152h451v-152h-451z" />
<glyph unicode="&#xae;" horiz-adv-x="1515" d="M55 680q0 150 53.5 278.5t147.5 223t222 147.5t280 53q150 0 278.5 -53t223 -147.5t147.5 -223.5t53 -278q0 -152 -53 -280t-147.5 -222t-223.5 -147.5t-278 -53.5q-152 0 -280 53.5t-222 147.5t-147.5 222t-53.5 280zM170 680q0 -127 45 -234.5t123 -185.5t185.5 -123 t234.5 -45q125 0 233.5 45t186 123t123 185.5t45.5 234.5q0 125 -45.5 233.5t-123 186.5t-186 123t-233.5 45q-127 0 -234.5 -45t-185.5 -123t-123 -186.5t-45 -233.5zM543 297v766h139q23 0 72 -4t98 -24.5t87 -64.5t38 -126q0 -88 -55.5 -145.5t-143.5 -67.5l264 -334 h-139l-250 324v-324h-110zM653 719h45q25 0 54.5 3t55.5 15.5t42 37t16 65.5q0 45 -17.5 70.5t-43 38t-55 14.5t-56.5 2h-41v-246z" />
<glyph unicode="&#xaf;" d="M203 1051v123h618v-123h-618z" />
<glyph unicode="&#xb0;" horiz-adv-x="1009" d="M221 1087q0 61 21.5 112.5t59.5 89.5t89 59.5t113 21.5q61 0 112.5 -21.5t89 -59.5t59 -89t21.5 -113q0 -61 -21.5 -112t-59 -89t-89 -59.5t-112.5 -21.5t-112.5 21.5t-89.5 59.5t-59.5 89t-21.5 112zM324 1087q0 -47 17 -82.5t43 -59t57.5 -35t62.5 -11.5t62.5 11.5 t57 35t43 59t17.5 82.5t-17.5 83t-43 59.5t-57 35t-62.5 11.5t-62.5 -11.5t-57.5 -35t-43 -59.5t-17 -83z" />
<glyph unicode="&#xb1;" d="M68 137v135h888v-135h-888zM68 707v135h370v350h148v-350h370v-135h-370v-351h-148v351h-370z" />
<glyph unicode="&#xb2;" horiz-adv-x="716" d="M66 549l299 346q35 41 53 63.5t41 55.5q14 20 29.5 51t15.5 74q0 59 -41 103t-115 44q-37 0 -73.5 -15t-59.5 -54q-12 -23 -18.5 -48.5t-6.5 -50.5h-102q6 111 62 179q47 55 102 69t94 14q117 0 190.5 -66.5t73.5 -176.5q0 -41 -15 -82t-50 -92q-29 -41 -59.5 -76 t-53.5 -62l-158 -182h334v-94h-542z" />
<glyph unicode="&#xb3;" horiz-adv-x="716" d="M78 772h102q2 -25 10.5 -45t18.5 -37q16 -23 46 -42t75 -19q72 0 114.5 45t42.5 111q0 53 -23.5 85.5t-55.5 47.5q-20 10 -46 13t-49 1v94q23 -2 49.5 2t45.5 15q27 14 47 43.5t20 72.5q0 47 -29.5 87t-101.5 40q-43 0 -67.5 -13t-36.5 -30q-14 -16 -21.5 -41.5 t-9.5 -46.5h-103q2 31 11.5 67t27.5 64q20 33 47 51.5t54.5 27.5t53.5 12t44 3q70 0 116 -22.5t72.5 -55t38 -70.5t11.5 -71q0 -12 -3.5 -36.5t-14.5 -51t-31.5 -52.5t-57.5 -42q68 -27 93.5 -83t25.5 -116q0 -51 -17.5 -95t-51 -77.5t-82 -53t-109.5 -19.5 q-102 0 -157.5 44t-78.5 97q-10 23 -14 48.5t-6 47.5z" />
<glyph unicode="&#xb4;" d="M424 1067l215 297l152 -70l-275 -276z" />
<glyph unicode="&#xb5;" horiz-adv-x="1071" d="M139 -471v1321h148v-424q0 -18 1 -48t7 -63.5t18.5 -67.5t34.5 -63q39 -49 91.5 -63.5t88.5 -14.5q74 0 126.5 37t80.5 84q37 59 43 120t6 97v406h148v-850h-148v176q-31 -86 -96 -143.5t-164 -57.5q-59 0 -101 19.5t-70.5 45.5t-44 50.5t-21.5 34.5v-596h-148z" />
<glyph unicode="&#xb6;" horiz-adv-x="1187" d="M45 993q0 98 34 167t81 110q39 33 84 52t91 28.5t88 12.5t73 3h548v-119h-122v-1442h-127v1442h-217v-1442h-127v838h-31q-80 0 -158 28.5t-125 76.5q-35 35 -63.5 94t-28.5 151z" />
<glyph unicode="&#xb7;" horiz-adv-x="409" d="M74 696q0 53 39 92t92 39t92 -38.5t39 -92.5q0 -53 -39 -92t-92 -39t-92 39t-39 92z" />
<glyph unicode="&#xb8;" d="M373 -375l172 269l135 -56l-207 -262z" />
<glyph unicode="&#xb9;" horiz-adv-x="716" d="M180 1274l49 94h217v-819h-106v725h-160z" />
<glyph unicode="&#xba;" horiz-adv-x="765" d="M84 1081q0 43 15.5 94.5t60.5 98.5q33 35 87 63.5t136 28.5q59 0 118.5 -22.5t102.5 -65.5q35 -35 56.5 -86t21.5 -113q0 -74 -25.5 -121t-50.5 -73q-35 -35 -89 -61.5t-134 -26.5q-72 0 -125 22.5t-90 59.5q-39 37 -61.5 89t-22.5 113zM106 596v86h556v-86h-556z M186 1079q0 -51 17.5 -84.5t38.5 -54.5q25 -25 61.5 -39t79.5 -14q37 0 77 14t68 43q23 23 37.5 57.5t14.5 79.5q0 47 -16.5 84t-41.5 60q-16 16 -51 33.5t-88 17.5q-57 0 -92 -19.5t-51 -35.5q-53 -53 -54 -142z" />
<glyph unicode="&#xbb;" horiz-adv-x="880" d="M102 137l246 309l-246 299l95 74l307 -373l-307 -385zM406 137l245 309l-245 299l94 74l307 -373l-307 -385z" />
<glyph unicode="&#xbc;" horiz-adv-x="1556" d="M180 1274l49 94h217v-819h-106v725h-160zM383 20l794 1373l78 -45l-794 -1375zM869 156l522 708v-614h100v-94h-100v-156h-102v156h-420zM1057 250h232v317z" />
<glyph unicode="&#xbd;" horiz-adv-x="1556" d="M180 1274l49 94h217v-819h-106v725h-160zM299 20l794 1373l78 -45l-794 -1375zM906 0l299 346q35 41 53 63.5t41 55.5q14 20 29.5 51t15.5 74q0 59 -41 103t-115 44q-37 0 -73.5 -15t-59.5 -54q-12 -23 -18.5 -48.5t-6.5 -50.5h-102q6 111 62 179q47 55 102 69t94 14 q117 0 190.5 -66.5t73.5 -176.5q0 -41 -15 -82t-50 -92q-29 -41 -59.5 -76t-53.5 -62l-158 -182h334v-94h-542z" />
<glyph unicode="&#xbe;" horiz-adv-x="1556" d="M78 772h102q2 -25 10.5 -45t18.5 -37q16 -23 46 -42t75 -19q72 0 114.5 45t42.5 111q0 53 -23.5 85.5t-55.5 47.5q-20 10 -46 13t-49 1v94q23 -2 49.5 2t45.5 15q27 14 47 43.5t20 72.5q0 47 -29.5 87t-101.5 40q-43 0 -67.5 -13t-36.5 -30q-14 -16 -21.5 -41.5 t-9.5 -46.5h-103q2 31 11.5 67t27.5 64q20 33 47 51.5t54.5 27.5t53.5 12t44 3q70 0 116 -22.5t72.5 -55t38 -70.5t11.5 -71q0 -12 -3.5 -36.5t-14.5 -51t-31.5 -52.5t-57.5 -42q68 -27 93.5 -83t25.5 -116q0 -51 -17.5 -95t-51 -77.5t-82 -53t-109.5 -19.5 q-102 0 -157.5 44t-78.5 97q-10 23 -14 48.5t-6 47.5zM424 20l794 1373l78 -45l-794 -1375zM871 156l522 708v-614h100v-94h-100v-156h-102v156h-420zM1059 250h232v317z" />
<glyph unicode="&#xbf;" horiz-adv-x="892" d="M117 -166q0 55 14 104.5t55 96.5q33 37 72 61.5t86 40.5q35 12 73 23.5t75 27.5q12 6 28.5 15.5t32.5 26t27.5 41t11.5 61.5q0 41 -12.5 65.5t-28.5 40.5q-14 14 -39 25.5t-61 11.5q-63 0 -101 -37q-23 -23 -36 -61.5t-13 -75.5h-147q0 72 22.5 131.5t61.5 99.5 q25 27 74.5 54.5t136.5 27.5q78 0 130 -25.5t83 -56.5q25 -25 53 -75.5t28 -134.5q0 -109 -52 -166.5t-120 -87.5q-53 -25 -96 -35t-76 -23q-45 -16 -71.5 -38.5t-40 -47t-16.5 -49.5t-3 -45q0 -31 9.5 -71t44.5 -72q16 -16 46.5 -29.5t77.5 -13.5q35 0 70 10t59 33 q29 27 41.5 64.5t12.5 72.5q0 45 -13 86h152q8 -39 8 -90q0 -49 -14 -108.5t-64 -112.5q-37 -41 -97 -68t-152 -27q-68 0 -129.5 18.5t-112.5 69.5q-33 33 -61.5 90.5t-28.5 151.5zM344 813q0 41 31 71.5t71 30.5q41 0 72 -30.5t31 -71.5t-31 -71.5t-72 -30.5t-71.5 30.5 t-30.5 71.5z" />
<glyph unicode="&#xc0;" horiz-adv-x="1273" d="M16 0l629 1432l612 -1432h-167l-160 385h-582l-164 -385h-168zM344 1714l143 92l258 -266l-88 -65zM408 528h462l-229 547z" />
<glyph unicode="&#xc1;" horiz-adv-x="1273" d="M16 0l629 1432l612 -1432h-167l-160 385h-582l-164 -385h-168zM408 528h462l-229 547zM547 1540l258 266l143 -92l-313 -239z" />
<glyph unicode="&#xc2;" horiz-adv-x="1273" d="M16 0l629 1432l612 -1432h-167l-160 385h-582l-164 -385h-168zM356 1561l287 243l287 -243l-107 -84l-180 155l-180 -155zM408 528h462l-229 547z" />
<glyph unicode="&#xc3;" horiz-adv-x="1273" d="M16 0l629 1432l612 -1432h-167l-160 385h-582l-164 -385h-168zM320 1575q20 53 61 92q25 25 55.5 40t73.5 15q41 0 76 -14t63 -29q29 -16 58.5 -29.5t56.5 -13.5q37 0 66 29q25 25 36 59l88 -71q-18 -49 -53 -84q-37 -39 -75.5 -51.5t-67.5 -12.5q-37 0 -66.5 12.5 t-70.5 32.5q-39 18 -66 29.5t-49 11.5q-35 0 -62 -26q-10 -12 -20 -28.5t-14 -35.5zM408 528h462l-229 547z" />
<glyph unicode="&#xc4;" horiz-adv-x="1273" d="M16 0l629 1432l612 -1432h-167l-160 385h-582l-164 -385h-168zM344 1606q0 43 30.5 73.5t73.5 30.5t74 -30.5t31 -73.5t-31 -74t-74 -31t-73.5 31t-30.5 74zM408 528h462l-229 547zM733 1606q0 43 31 73.5t74 30.5t73.5 -30.5t30.5 -73.5t-30.5 -74t-73.5 -31t-74 31 t-31 74z" />
<glyph unicode="&#xc5;" horiz-adv-x="1273" d="M16 0l629 1432l612 -1432h-167l-160 385h-582l-164 -385h-168zM408 528h462l-229 547zM465 1675q0 37 14 70t39 57.5t57.5 38.5t69.5 14t69.5 -14t57.5 -38.5t39 -57.5t14 -70t-14 -69.5t-39 -57t-57.5 -39t-69.5 -14.5t-69.5 14.5t-57.5 39t-39 57t-14 69.5zM559 1677 q0 -35 25.5 -60.5t60.5 -25.5t60.5 25.5t25.5 60.5t-25.5 60.5t-60.5 25.5t-60.5 -25.5t-25.5 -60.5z" />
<glyph unicode="&#xc6;" horiz-adv-x="1843" d="M29 0l608 1366h600l59 -143h-551l170 -406h541l60 -143h-537l221 -531h555l60 -143h-553h-160l-162 383h-582l-161 -383h-168zM424 526h457l-226 535z" />
<glyph unicode="&#xc7;" horiz-adv-x="1323" d="M102 678q0 154 54.5 284t149.5 225t226.5 148.5t284.5 53.5q31 0 75 -3.5t96 -17.5t111.5 -41t121.5 -74v-188q-33 33 -79 67.5t-100 59.5q-53 25 -114.5 39t-120.5 14q-119 0 -219.5 -45t-174 -122t-114.5 -180t-41 -222q0 -139 51 -243.5t131 -174.5t177.5 -104.5 t191.5 -34.5q70 0 135.5 17.5t118.5 45.5q59 29 99 63t59 52v-188q-115 -82 -224.5 -108t-187.5 -26q-152 0 -282 54.5t-224 148.5t-147.5 223t-53.5 277zM574 -377l172 271l143 -62l-213 -262z" />
<glyph unicode="&#xc8;" horiz-adv-x="987" d="M176 0v1366h709v-143h-557v-406h540v-143h-540v-531h557v-143h-709zM242 1714l143 92l258 -266l-88 -65z" />
<glyph unicode="&#xc9;" horiz-adv-x="987" d="M176 0v1366h709v-143h-557v-406h540v-143h-540v-531h557v-143h-709zM422 1540l258 266l143 -92l-313 -239z" />
<glyph unicode="&#xca;" horiz-adv-x="987" d="M176 0v1366h709v-143h-557v-406h540v-143h-540v-531h557v-143h-709zM245 1561l287 243l287 -243l-107 -84l-180 155l-180 -155z" />
<glyph unicode="&#xcb;" horiz-adv-x="987" d="M176 0v1366h709v-143h-557v-406h540v-143h-540v-531h557v-143h-709zM233 1606q0 43 30.5 73.5t73.5 30.5t74 -30.5t31 -73.5t-31 -74t-74 -31t-73.5 31t-30.5 74zM622 1606q0 43 31 73.5t74 30.5t73.5 -30.5t30.5 -73.5t-30.5 -74t-73.5 -31t-74 31t-31 74z" />
<glyph unicode="&#xcc;" horiz-adv-x="503" d="M-55 1714l143 92l258 -266l-88 -65zM176 0v1366h152v-1366h-152z" />
<glyph unicode="&#xcd;" horiz-adv-x="503" d="M176 0v1366h152v-1366h-152zM180 1540l258 266l143 -92l-313 -239z" />
<glyph unicode="&#xce;" horiz-adv-x="503" d="M-33 1561l287 243l287 -243l-107 -84l-180 155l-180 -155zM176 0v1366h152v-1366h-152z" />
<glyph unicode="&#xcf;" horiz-adv-x="0" />
<glyph unicode="&#xd0;" horiz-adv-x="1294" d="M0 688v131h176v547h279q51 0 112.5 -4t127 -20.5t132 -48t131.5 -87.5q47 -39 89.5 -91t75 -117.5t51 -144.5t18.5 -171q0 -109 -23.5 -191.5t-59.5 -146t-78 -110t-79 -76.5q-47 -41 -96 -70t-108.5 -49.5t-131 -29.5t-163.5 -9h-277v688h-176zM328 143h133q41 0 88 4.5 t98 16.5t103.5 36.5t101.5 65.5q78 66 131 167.5t53 248.5q0 123 -41 222.5t-116.5 170t-182 109.5t-235.5 39h-133v-404h278v-131h-278v-545z" />
<glyph unicode="&#xd1;" horiz-adv-x="1568" d="M176 0v1423l1065 -1116v1059h152v-1427l-1065 1116v-1055h-152zM467 1575q20 53 61 92q25 25 55.5 40t73.5 15q41 0 76 -14t63 -29q29 -16 58.5 -29.5t56.5 -13.5q37 0 66 29q25 25 36 59l88 -71q-18 -49 -53 -84q-37 -39 -75.5 -51.5t-67.5 -12.5q-37 0 -66.5 12.5 t-70.5 32.5q-39 18 -66 29.5t-49 11.5q-35 0 -62 -26q-10 -12 -20 -28.5t-14 -35.5z" />
<glyph unicode="&#xd2;" horiz-adv-x="1626" d="M102 682q0 154 55.5 283t153 223t226.5 147.5t276 53.5t276.5 -53.5t226.5 -147.5t152.5 -223t55.5 -283q0 -152 -55.5 -282t-151.5 -224t-226.5 -147.5t-277.5 -53.5t-277 53.5t-226.5 147.5t-152 224t-55.5 282zM258 682q0 -117 43 -220.5t119 -179t177 -119.5t216 -44 t216 44t176 119.5t119 179t44 220.5t-44 220.5t-119 179t-176 119.5t-216 44t-216 -44t-177 -119.5t-119 -179t-43 -220.5zM529 1714l143 92l258 -266l-88 -65z" />
<glyph unicode="&#xd3;" horiz-adv-x="1626" d="M102 682q0 154 55.5 283t153 223t226.5 147.5t276 53.5t276.5 -53.5t226.5 -147.5t152.5 -223t55.5 -283q0 -152 -55.5 -282t-151.5 -224t-226.5 -147.5t-277.5 -53.5t-277 53.5t-226.5 147.5t-152 224t-55.5 282zM258 682q0 -117 43 -220.5t119 -179t177 -119.5t216 -44 t216 44t176 119.5t119 179t44 220.5t-44 220.5t-119 179t-176 119.5t-216 44t-216 -44t-177 -119.5t-119 -179t-43 -220.5zM688 1540l258 266l143 -92l-313 -239z" />
<glyph unicode="&#xd4;" horiz-adv-x="1626" d="M102 682q0 154 55.5 283t153 223t226.5 147.5t276 53.5t276.5 -53.5t226.5 -147.5t152.5 -223t55.5 -283q0 -152 -55.5 -282t-151.5 -224t-226.5 -147.5t-277.5 -53.5t-277 53.5t-226.5 147.5t-152 224t-55.5 282zM258 682q0 -117 43 -220.5t119 -179t177 -119.5t216 -44 t216 44t176 119.5t119 179t44 220.5t-44 220.5t-119 179t-176 119.5t-216 44t-216 -44t-177 -119.5t-119 -179t-43 -220.5zM526 1561l287 243l287 -243l-107 -84l-180 155l-180 -155z" />
<glyph unicode="&#xd5;" horiz-adv-x="1626" d="M102 682q0 154 55.5 283t153 223t226.5 147.5t276 53.5t276.5 -53.5t226.5 -147.5t152.5 -223t55.5 -283q0 -152 -55.5 -282t-151.5 -224t-226.5 -147.5t-277.5 -53.5t-277 53.5t-226.5 147.5t-152 224t-55.5 282zM258 682q0 -117 43 -220.5t119 -179t177 -119.5t216 -44 t216 44t176 119.5t119 179t44 220.5t-44 220.5t-119 179t-176 119.5t-216 44t-216 -44t-177 -119.5t-119 -179t-43 -220.5zM496 1575q20 53 61 92q25 25 55.5 40t73.5 15q41 0 76 -14t63 -29q29 -16 58.5 -29.5t56.5 -13.5q37 0 66 29q25 25 36 59l88 -71q-18 -49 -53 -84 q-37 -39 -75.5 -51.5t-67.5 -12.5q-37 0 -66.5 12.5t-70.5 32.5q-39 18 -66 29.5t-49 11.5q-35 0 -62 -26q-10 -12 -20 -28.5t-14 -35.5z" />
<glyph unicode="&#xd6;" horiz-adv-x="1626" d="M102 682q0 154 55.5 283t153 223t226.5 147.5t276 53.5t276.5 -53.5t226.5 -147.5t152.5 -223t55.5 -283q0 -152 -55.5 -282t-151.5 -224t-226.5 -147.5t-277.5 -53.5t-277 53.5t-226.5 147.5t-152 224t-55.5 282zM258 682q0 -117 43 -220.5t119 -179t177 -119.5t216 -44 t216 44t176 119.5t119 179t44 220.5t-44 220.5t-119 179t-176 119.5t-216 44t-216 -44t-177 -119.5t-119 -179t-43 -220.5zM514 1606q0 43 30.5 73.5t73.5 30.5t74 -30.5t31 -73.5t-31 -74t-74 -31t-73.5 31t-30.5 74zM903 1606q0 43 31 73.5t74 30.5t73.5 -30.5t30.5 -73.5 t-30.5 -74t-73.5 -31t-74 31t-31 74z" />
<glyph unicode="&#xd7;" d="M111 987l96 96l305 -305l305 305l96 -96l-305 -305l293 -293l-96 -96l-293 293l-293 -293l-96 96l293 293z" />
<glyph unicode="&#xd8;" horiz-adv-x="1626" d="M90 76l164 162q-90 115 -121 230.5t-31 213.5q0 154 56.5 283t153 223t225.5 147.5t276 53.5q92 0 210 -30t237 -120l161 164l103 -103l-162 -163q20 -25 48 -64t53.5 -95t43 -130t17.5 -166q0 -152 -55.5 -282t-152.5 -224t-226 -147.5t-277 -53.5q-84 0 -153.5 15.5 t-127 38t-100.5 51.5t-76 55l-163 -162zM258 682q0 -66 12.5 -119t29.5 -96t36.5 -75t36.5 -52l768 797q-16 12 -46 31.5t-71 36t-94 28.5t-117 12q-115 0 -216 -44t-177 -119.5t-119 -179t-43 -220.5zM473 236q96 -74 188.5 -95.5t151.5 -21.5q115 0 216 44t176 119.5 t119 179t44 220.5q0 78 -25.5 171t-97.5 183z" />
<glyph unicode="&#xd9;" horiz-adv-x="1323" d="M176 487v879h152v-838q0 -43 2 -87t12 -87t31.5 -83t62.5 -74q41 -35 104.5 -56.5t121.5 -21.5q57 0 120.5 21.5t104.5 56.5t62.5 74.5t31.5 82.5t12 87t2 87v838h152v-879q0 -86 -15.5 -167.5t-70.5 -159.5q-61 -86 -164.5 -135.5t-234.5 -49.5t-234.5 49.5 t-165.5 135.5q-55 78 -70.5 159.5t-15.5 167.5zM365 1714l143 92l258 -266l-88 -65z" />
<glyph unicode="&#xda;" horiz-adv-x="1323" d="M176 487v879h152v-838q0 -43 2 -87t12 -87t31.5 -83t62.5 -74q41 -35 104.5 -56.5t121.5 -21.5q57 0 120.5 21.5t104.5 56.5t62.5 74.5t31.5 82.5t12 87t2 87v838h152v-879q0 -86 -15.5 -167.5t-70.5 -159.5q-61 -86 -164.5 -135.5t-234.5 -49.5t-234.5 49.5 t-165.5 135.5q-55 78 -70.5 159.5t-15.5 167.5zM557 1540l258 266l143 -92l-313 -239z" />
<glyph unicode="&#xdb;" horiz-adv-x="1323" d="M176 487v879h152v-838q0 -43 2 -87t12 -87t31.5 -83t62.5 -74q41 -35 104.5 -56.5t121.5 -21.5q57 0 120.5 21.5t104.5 56.5t62.5 74.5t31.5 82.5t12 87t2 87v838h152v-879q0 -86 -15.5 -167.5t-70.5 -159.5q-61 -86 -164.5 -135.5t-234.5 -49.5t-234.5 49.5 t-165.5 135.5q-55 78 -70.5 159.5t-15.5 167.5zM375 1561l287 243l287 -243l-107 -84l-180 155l-180 -155z" />
<glyph unicode="&#xdc;" horiz-adv-x="1323" d="M176 487v879h152v-838q0 -43 2 -87t12 -87t31.5 -83t62.5 -74q41 -35 104.5 -56.5t121.5 -21.5q57 0 120.5 21.5t104.5 56.5t62.5 74.5t31.5 82.5t12 87t2 87v838h152v-879q0 -86 -15.5 -167.5t-70.5 -159.5q-61 -86 -164.5 -135.5t-234.5 -49.5t-234.5 49.5 t-165.5 135.5q-55 78 -70.5 159.5t-15.5 167.5zM363 1606q0 43 30.5 73.5t73.5 30.5t74 -30.5t31 -73.5t-31 -74t-74 -31t-73.5 31t-30.5 74zM752 1606q0 43 31 73.5t74 30.5t73.5 -30.5t30.5 -73.5t-30.5 -74t-73.5 -31t-74 31t-31 74z" />
<glyph unicode="&#xdd;" horiz-adv-x="1085" d="M16 1366h177l348 -610l352 610h176l-453 -778v-588h-151v588zM453 1540l258 266l143 -92l-313 -239z" />
<glyph unicode="&#xde;" horiz-adv-x="933" d="M176 0v1366h152v-205h96q104 0 189 -18.5t155 -77.5q76 -66 100.5 -146.5t24.5 -146.5q0 -72 -23.5 -141.5t-76 -122.5t-134 -86t-198.5 -33h-133v-389h-152zM328 532h125q135 0 211.5 65t76.5 183q0 82 -32.5 129t-80.5 72t-99.5 31t-88.5 6h-112v-486z" />
<glyph unicode="&#xdf;" horiz-adv-x="1089" d="M12 715v135h144v274q0 29 3 66t13 76t29.5 78.5t54.5 74.5q35 37 97.5 68t160.5 31q72 0 139.5 -22.5t122.5 -80.5q57 -59 74.5 -120.5t17.5 -120.5q0 -47 -8 -93.5t-37 -91.5t-59.5 -68.5t-52.5 -33.5q113 -39 180 -113q41 -41 77 -112.5t36 -182.5t-38 -195.5 t-98 -144.5q-25 -27 -61.5 -54.5t-84.5 -51t-107.5 -40t-129.5 -18.5v144q86 6 157 40t116 81q37 39 63.5 96t26.5 135q0 82 -30 142.5t-68 97.5q-59 57 -133 77.5t-132 22.5v131q45 0 95.5 17.5t85.5 52.5q35 37 43 80t8 71q0 74 -19.5 115t-42.5 61q-18 16 -53 31.5 t-88 15.5q-66 0 -103.5 -23.5t-60.5 -53.5q-35 -47 -41 -113t-6 -129v-1067h-147v715h-144z" />
<glyph unicode="&#xe0;" horiz-adv-x="1077" d="M86 426q0 111 34 193.5t91 138t132 84t157 28.5q61 0 109 -15t83 -36.5t59.5 -46t39.5 -43.5v121h147v-850h-147v119q-18 -25 -45 -49.5t-63 -46t-82 -35t-101 -13.5q-80 0 -155 29t-132 85t-92 140t-35 197zM233 1294l152 70l215 -297l-90 -49zM238 426q0 -68 18 -126 t54 -101t88.5 -68t117.5 -25q68 0 120 26t89 70t55.5 101t18.5 121q0 82 -25.5 141.5t-66.5 98t-91.5 57t-99.5 18.5q-55 0 -105.5 -19.5t-88 -59t-61 -98t-23.5 -136.5z" />
<glyph unicode="&#xe1;" horiz-adv-x="1077" d="M86 426q0 111 34 193.5t91 138t132 84t157 28.5q61 0 109 -15t83 -36.5t59.5 -46t39.5 -43.5v121h147v-850h-147v119q-18 -25 -45 -49.5t-63 -46t-82 -35t-101 -13.5q-80 0 -155 29t-132 85t-92 140t-35 197zM238 426q0 -68 18 -126t54 -101t88.5 -68t117.5 -25 q68 0 120 26t89 70t55.5 101t18.5 121q0 82 -25.5 141.5t-66.5 98t-91.5 57t-99.5 18.5q-55 0 -105.5 -19.5t-88 -59t-61 -98t-23.5 -136.5zM424 1067l215 297l152 -70l-275 -276z" />
<glyph unicode="&#xe2;" horiz-adv-x="1077" d="M86 426q0 111 34 193.5t91 138t132 84t157 28.5q61 0 109 -15t83 -36.5t59.5 -46t39.5 -43.5v121h147v-850h-147v119q-18 -25 -45 -49.5t-63 -46t-82 -35t-101 -13.5q-80 0 -155 29t-132 85t-92 140t-35 197zM238 426q0 -68 18 -126t54 -101t88.5 -68t117.5 -25 q68 0 120 26t89 70t55.5 101t18.5 121q0 82 -25.5 141.5t-66.5 98t-91.5 57t-99.5 18.5q-55 0 -105.5 -19.5t-88 -59t-61 -98t-23.5 -136.5zM241 1092l283 247l283 -247l-95 -74l-188 166l-188 -166z" />
<glyph unicode="&#xe3;" horiz-adv-x="1077" d="M86 426q0 111 34 193.5t91 138t132 84t157 28.5q61 0 109 -15t83 -36.5t59.5 -46t39.5 -43.5v121h147v-850h-147v119q-18 -25 -45 -49.5t-63 -46t-82 -35t-101 -13.5q-80 0 -155 29t-132 85t-92 140t-35 197zM238 426q0 -68 18 -126t54 -101t88.5 -68t117.5 -25 q68 0 120 26t89 70t55.5 101t18.5 121q0 82 -25.5 141.5t-66.5 98t-91.5 57t-99.5 18.5q-55 0 -105.5 -19.5t-88 -59t-61 -98t-23.5 -136.5zM250 1087q14 23 33.5 49.5t35.5 43.5q29 29 56.5 39t60.5 10q41 0 75 -12.5t68 -28.5q35 -18 60.5 -29.5t54.5 -11.5q18 0 31.5 4 t27.5 20q10 12 23.5 32t19.5 32l84 -70q-16 -43 -53 -80q-35 -37 -70.5 -49t-64.5 -12q-37 0 -75 14.5t-66 28.5q-37 16 -63.5 27.5t-49.5 11.5q-18 0 -31.5 -7t-27.5 -22q-14 -14 -24.5 -29.5t-18.5 -29.5z" />
<glyph unicode="&#xe4;" horiz-adv-x="1077" d="M86 426q0 111 34 193.5t91 138t132 84t157 28.5q61 0 109 -15t83 -36.5t59.5 -46t39.5 -43.5v121h147v-850h-147v119q-18 -25 -45 -49.5t-63 -46t-82 -35t-101 -13.5q-80 0 -155 29t-132 85t-92 140t-35 197zM238 426q0 -68 18 -126t54 -101t88.5 -68t117.5 -25 q68 0 120 26t89 70t55.5 101t18.5 121q0 82 -25.5 141.5t-66.5 98t-91.5 57t-99.5 18.5q-55 0 -105.5 -19.5t-88 -59t-61 -98t-23.5 -136.5zM266 1126q0 41 31 72t72 31t71.5 -31t30.5 -72t-30.5 -71.5t-71.5 -30.5t-72 30.5t-31 71.5zM623 1126q0 41 30.5 72t71.5 31 t72 -31t31 -72t-31 -71.5t-72 -30.5t-71.5 30.5t-30.5 71.5z" />
<glyph unicode="&#xe5;" horiz-adv-x="1077" d="M86 426q0 111 34 193.5t91 138t132 84t157 28.5q61 0 109 -15t83 -36.5t59.5 -46t39.5 -43.5v121h147v-850h-147v119q-18 -25 -45 -49.5t-63 -46t-82 -35t-101 -13.5q-80 0 -155 29t-132 85t-92 140t-35 197zM238 426q0 -68 18 -126t54 -101t88.5 -68t117.5 -25 q68 0 120 26t89 70t55.5 101t18.5 121q0 82 -25.5 141.5t-66.5 98t-91.5 57t-99.5 18.5q-55 0 -105.5 -19.5t-88 -59t-61 -98t-23.5 -136.5zM373 1194q0 37 14.5 68.5t38 55t55 38t68.5 14.5t68.5 -14.5t55 -38t38 -55t14.5 -68.5t-14.5 -68.5t-38 -55t-55 -38t-68.5 -14.5 t-68.5 14.5t-55 38t-38 55t-14.5 68.5zM463 1194q0 -35 25.5 -60.5t60.5 -25.5t60.5 25.5t25.5 60.5t-25.5 60.5t-60.5 25.5t-60.5 -25.5t-25.5 -60.5z" />
<glyph unicode="&#xe6;" horiz-adv-x="1585" d="M86 252q0 68 27.5 121t76 88t113 53t137.5 18q78 0 136.5 -18t107.5 -53q2 37 -6 88t-33 92q-33 55 -85 76.5t-118 21.5q-37 0 -74.5 -6t-73.5 -14t-65.5 -17.5t-48.5 -15.5v139q86 29 148.5 37t115.5 8q35 0 79 -5t89 -22.5t85 -52t69 -92.5q53 86 138 129t190 43 q92 0 167.5 -32.5t128 -93t81 -145.5t28.5 -189v-15h-663q2 -63 23.5 -116.5t58 -91t84 -59.5t102.5 -22q90 0 157.5 53.5t104.5 127.5l123 -74q-23 -41 -54.5 -83t-78.5 -77t-108.5 -56.5t-141.5 -21.5q-27 0 -67 4.5t-86 20.5t-93 51t-88 94q-33 -57 -74 -91t-85 -51 t-86 -22.5t-74 -5.5q-74 0 -140.5 17.5t-117 51.5t-80 86t-29.5 122zM233 252q0 -23 9.5 -48.5t34 -47t66.5 -36t106 -14.5q63 0 107 14.5t70.5 37t38 49t11.5 51.5q0 23 -11.5 47.5t-38 46t-68.5 35.5t-105 14q-111 0 -165.5 -44t-54.5 -105zM846 518h502 q-14 104 -85 162.5t-167 58.5q-92 0 -163 -57t-87 -164z" />
<glyph unicode="&#xe7;" horiz-adv-x="897" d="M86 420q0 98 34 180t95 142.5t144 94t182 33.5q102 0 167.5 -29.5t96.5 -52.5v-176q-59 74 -134 100.5t-132 26.5q-59 0 -113.5 -20.5t-96.5 -60.5t-66.5 -99t-24.5 -137t25.5 -136.5t67.5 -98.5t95 -60.5t111 -20.5q66 0 140.5 31t133.5 103v-177q-70 -51 -140.5 -69.5 t-129.5 -18.5q-98 0 -182.5 34t-144.5 93.5t-94 140.5t-34 177zM334 -375l172 269l135 -56l-207 -262z" />
<glyph unicode="&#xe8;" horiz-adv-x="985" d="M86 420q0 94 28.5 177t82 143.5t129 95t172.5 34.5q125 0 203.5 -50t117.5 -105q41 -57 62.5 -145.5t17.5 -174.5h-661q0 -66 21.5 -119t58 -91t86 -58.5t104.5 -20.5q100 0 174 62q29 25 51.5 55.5t36.5 61.5l123 -68q-18 -35 -45 -71.5t-60 -65.5q-117 -104 -282 -105 q-78 0 -152.5 25t-134 79t-96.5 138t-37 203zM233 1294l152 70l215 -297l-90 -49zM248 518h500q-18 100 -87 160.5t-163 60.5t-164 -62.5t-86 -158.5z" />
<glyph unicode="&#xe9;" horiz-adv-x="985" d="M86 420q0 94 28.5 177t82 143.5t129 95t172.5 34.5q125 0 203.5 -50t117.5 -105q41 -57 62.5 -145.5t17.5 -174.5h-661q0 -66 21.5 -119t58 -91t86 -58.5t104.5 -20.5q100 0 174 62q29 25 51.5 55.5t36.5 61.5l123 -68q-18 -35 -45 -71.5t-60 -65.5q-117 -104 -282 -105 q-78 0 -152.5 25t-134 79t-96.5 138t-37 203zM248 518h500q-18 100 -87 160.5t-163 60.5t-164 -62.5t-86 -158.5zM385 1067l215 297l152 -70l-275 -276z" />
<glyph unicode="&#xea;" horiz-adv-x="985" d="M86 420q0 94 28.5 177t82 143.5t129 95t172.5 34.5q125 0 203.5 -50t117.5 -105q41 -57 62.5 -145.5t17.5 -174.5h-661q0 -66 21.5 -119t58 -91t86 -58.5t104.5 -20.5q100 0 174 62q29 25 51.5 55.5t36.5 61.5l123 -68q-18 -35 -45 -71.5t-60 -65.5q-117 -104 -282 -105 q-78 0 -152.5 25t-134 79t-96.5 138t-37 203zM215 1092l283 247l283 -247l-95 -74l-188 166l-188 -166zM248 518h500q-18 100 -87 160.5t-163 60.5t-164 -62.5t-86 -158.5z" />
<glyph unicode="&#xeb;" horiz-adv-x="985" d="M86 420q0 94 28.5 177t82 143.5t129 95t172.5 34.5q125 0 203.5 -50t117.5 -105q41 -57 62.5 -145.5t17.5 -174.5h-661q0 -66 21.5 -119t58 -91t86 -58.5t104.5 -20.5q100 0 174 62q29 25 51.5 55.5t36.5 61.5l123 -68q-18 -35 -45 -71.5t-60 -65.5q-117 -104 -282 -105 q-78 0 -152.5 25t-134 79t-96.5 138t-37 203zM217 1126q0 41 31 72t72 31t71.5 -31t30.5 -72t-30.5 -71.5t-71.5 -30.5t-72 30.5t-31 71.5zM248 518h500q-18 100 -87 160.5t-163 60.5t-164 -62.5t-86 -158.5zM574 1126q0 41 30.5 72t71.5 31t72 -31t31 -72t-31 -71.5 t-72 -30.5t-71.5 30.5t-30.5 71.5z" />
<glyph unicode="&#xec;" horiz-adv-x="425" d="M-29 1311l158 55l186 -313l-92 -43zM139 0v850h148v-850h-148z" />
<glyph unicode="&#xed;" horiz-adv-x="425" d="M106 1053l191 313l158 -55l-252 -301zM139 0v850h148v-850h-148z" />
<glyph unicode="&#xee;" horiz-adv-x="425" d="M-29 1106l242 217l242 -217l-88 -72l-154 137l-154 -137zM139 0v850h148v-850h-148z" />
<glyph unicode="&#xef;" horiz-adv-x="425" d="M18 1174q0 41 26 71.5t60 30.5q35 0 60.5 -31t25.5 -71q0 -41 -25.5 -72t-60.5 -31t-60.5 31t-25.5 72zM139 0v850h148v-850h-148zM236 1174q0 41 25.5 71.5t60.5 30.5t60.5 -31t25.5 -71q0 -41 -26 -72t-60 -31q-35 0 -60.5 31t-25.5 72z" />
<glyph unicode="&#xf0;" horiz-adv-x="1073" d="M86 434q0 125 42 209t91 133q20 20 49 41t67 38t85 28.5t104 11.5q59 0 104.5 -11.5t79 -26.5t56 -32.5t37.5 -29.5q-12 47 -30.5 85t-45.5 76q-31 45 -63.5 78t-67.5 62l-367 -121l-37 110l275 91q-49 23 -122 45t-173 32l35 125q80 -6 146.5 -23.5t120.5 -39t95 -43 t70 -39.5l264 86l37 -111l-195 -63q51 -45 87 -92t65 -107q35 -68 63.5 -168t28.5 -262q0 -76 -13 -161t-59 -162q-25 -43 -59.5 -82t-81.5 -70t-106.5 -48.5t-130.5 -17.5q-123 0 -202 43t-124 88q-53 53 -89 133t-36 195zM238 430q0 -57 18 -120.5t76 -119.5 q45 -43 99 -63.5t106 -20.5q72 0 121 26t77 54q51 49 76 118.5t25 141.5q0 80 -29 143.5t-70 102.5q-35 33 -82 52.5t-112 19.5q-72 0 -123 -25.5t-84 -56.5q-45 -41 -71.5 -103.5t-26.5 -148.5z" />
<glyph unicode="&#xf1;" horiz-adv-x="962" d="M139 0v850h148v-98q10 12 29.5 32.5t49 40t70.5 32.5t94 13q76 0 140.5 -29.5t103.5 -86.5q33 -47 41 -101.5t8 -126.5v-526h-147v522q0 39 -6 80t-33 76q-23 29 -56.5 45t-82.5 16q-39 0 -78 -13t-72 -52q-43 -51 -52 -116.5t-9 -113.5v-444h-148zM158 1087 q14 23 33.5 49.5t35.5 43.5q29 29 56.5 39t60.5 10q41 0 75 -12.5t68 -28.5q35 -18 60.5 -29.5t54.5 -11.5q18 0 31.5 4t27.5 20q10 12 23.5 32t19.5 32l84 -70q-16 -43 -53 -80q-35 -37 -70.5 -49t-64.5 -12q-37 0 -75 14.5t-66 28.5q-37 16 -63.5 27.5t-49.5 11.5 q-18 0 -31.5 -7t-27.5 -22q-14 -14 -24.5 -29.5t-18.5 -29.5z" />
<glyph unicode="&#xf2;" horiz-adv-x="1073" d="M86 422q0 96 34 178t94 142.5t142 94t181 33.5q98 0 180 -33.5t142.5 -94t94 -142.5t33.5 -178t-33.5 -178t-94 -141.5t-143.5 -93.5t-179 -34t-179.5 34t-143.5 93.5t-94 141.5t-34 178zM238 422q0 -78 25.5 -137.5t67.5 -99.5t95 -59.5t111 -19.5q57 0 111 20.5 t95 60.5t67 98.5t26 136.5t-25 137t-67 99t-96 60.5t-111 20.5q-59 0 -112.5 -20.5t-95.5 -60.5t-66.5 -99t-24.5 -137zM258 1294l152 70l215 -297l-90 -49z" />
<glyph unicode="&#xf3;" horiz-adv-x="1073" d="M86 422q0 96 34 178t94 142.5t142 94t181 33.5q98 0 180 -33.5t142.5 -94t94 -142.5t33.5 -178t-33.5 -178t-94 -141.5t-143.5 -93.5t-179 -34t-179.5 34t-143.5 93.5t-94 141.5t-34 178zM238 422q0 -78 25.5 -137.5t67.5 -99.5t95 -59.5t111 -19.5q57 0 111 20.5 t95 60.5t67 98.5t26 136.5t-25 137t-67 99t-96 60.5t-111 20.5q-59 0 -112.5 -20.5t-95.5 -60.5t-66.5 -99t-24.5 -137zM449 1067l215 297l152 -70l-275 -276z" />
<glyph unicode="&#xf4;" horiz-adv-x="1073" d="M86 422q0 96 34 178t94 142.5t142 94t181 33.5q98 0 180 -33.5t142.5 -94t94 -142.5t33.5 -178t-33.5 -178t-94 -141.5t-143.5 -93.5t-179 -34t-179.5 34t-143.5 93.5t-94 141.5t-34 178zM238 422q0 -78 25.5 -137.5t67.5 -99.5t95 -59.5t111 -19.5q57 0 111 20.5 t95 60.5t67 98.5t26 136.5t-25 137t-67 99t-96 60.5t-111 20.5q-59 0 -112.5 -20.5t-95.5 -60.5t-66.5 -99t-24.5 -137zM254 1092l283 247l283 -247l-95 -74l-188 166l-188 -166z" />
<glyph unicode="&#xf5;" horiz-adv-x="1073" d="M86 422q0 96 34 178t94 142.5t142 94t181 33.5q98 0 180 -33.5t142.5 -94t94 -142.5t33.5 -178t-33.5 -178t-94 -141.5t-143.5 -93.5t-179 -34t-179.5 34t-143.5 93.5t-94 141.5t-34 178zM222 1087q14 23 33.5 49.5t35.5 43.5q29 29 56.5 39t60.5 10q41 0 75 -12.5 t68 -28.5q35 -18 60.5 -29.5t54.5 -11.5q18 0 31.5 4t27.5 20q10 12 23.5 32t19.5 32l84 -70q-16 -43 -53 -80q-35 -37 -70.5 -49t-64.5 -12q-37 0 -75 14.5t-66 28.5q-37 16 -63.5 27.5t-49.5 11.5q-18 0 -31.5 -7t-27.5 -22q-14 -14 -24.5 -29.5t-18.5 -29.5zM238 422 q0 -78 25.5 -137.5t67.5 -99.5t95 -59.5t111 -19.5q57 0 111 20.5t95 60.5t67 98.5t26 136.5t-25 137t-67 99t-96 60.5t-111 20.5q-59 0 -112.5 -20.5t-95.5 -60.5t-66.5 -99t-24.5 -137z" />
<glyph unicode="&#xf6;" horiz-adv-x="1073" d="M86 422q0 96 34 178t94 142.5t142 94t181 33.5q98 0 180 -33.5t142.5 -94t94 -142.5t33.5 -178t-33.5 -178t-94 -141.5t-143.5 -93.5t-179 -34t-179.5 34t-143.5 93.5t-94 141.5t-34 178zM238 422q0 -78 25.5 -137.5t67.5 -99.5t95 -59.5t111 -19.5q57 0 111 20.5 t95 60.5t67 98.5t26 136.5t-25 137t-67 99t-96 60.5t-111 20.5q-59 0 -112.5 -20.5t-95.5 -60.5t-66.5 -99t-24.5 -137zM256 1126q0 41 31 72t72 31t71.5 -31t30.5 -72t-30.5 -71.5t-71.5 -30.5t-72 30.5t-31 71.5zM613 1126q0 41 30.5 72t71.5 31t72 -31t31 -72t-31 -71.5 t-72 -30.5t-71.5 30.5t-30.5 71.5z" />
<glyph unicode="&#xf7;" d="M68 614v136h888v-136h-888zM412 309q0 41 29.5 71t70.5 30t70.5 -30t29.5 -71t-29.5 -70.5t-70.5 -29.5t-70.5 29.5t-29.5 70.5zM412 1055q0 41 29.5 70.5t70.5 29.5t70.5 -29.5t29.5 -70.5t-29.5 -71t-70.5 -30t-70.5 30t-29.5 71z" />
<glyph unicode="&#xf8;" horiz-adv-x="1073" d="M43 31l125 123q-23 33 -52.5 97t-29.5 171q0 98 34 180t94 141.5t143 93t180 33.5q106 0 170.5 -29.5t95.5 -52.5l125 123l90 -92l-121 -121q31 -39 60.5 -104.5t29.5 -171.5q0 -98 -33.5 -180t-94 -141.5t-143.5 -92.5t-179 -33q-109 0 -174.5 30t-100.5 56l-125 -122z M238 422q0 -53 11 -93t27 -75l424 438q-72 47 -163 47q-59 0 -112.5 -20.5t-95.5 -60.5t-66.5 -99t-24.5 -137zM367 160q33 -23 73.5 -38.5t96.5 -15.5q57 0 111 19.5t95 59.5t67 99.5t26 137.5q0 53 -11.5 95t-33.5 81z" />
<glyph unicode="&#xf9;" horiz-adv-x="954" d="M139 338v512h148v-496q0 -45 5 -93t36 -89q16 -23 52 -44.5t97 -21.5t97 22t53 44q31 41 36 89t5 93v496h147v-512q0 -78 -13.5 -139.5t-64.5 -116.5q-57 -59 -126.5 -83t-133.5 -24q-63 0 -133 24t-127 83q-51 55 -64.5 116.5t-13.5 139.5zM215 1294l152 70l215 -297 l-90 -49z" />
<glyph unicode="&#xfa;" horiz-adv-x="954" d="M139 338v512h148v-496q0 -45 5 -93t36 -89q16 -23 52 -44.5t97 -21.5t97 22t53 44q31 41 36 89t5 93v496h147v-512q0 -78 -13.5 -139.5t-64.5 -116.5q-57 -59 -126.5 -83t-133.5 -24q-63 0 -133 24t-127 83q-51 55 -64.5 116.5t-13.5 139.5zM373 1067l215 297l152 -70 l-275 -276z" />
<glyph unicode="&#xfb;" horiz-adv-x="954" d="M139 338v512h148v-496q0 -45 5 -93t36 -89q16 -23 52 -44.5t97 -21.5t97 22t53 44q31 41 36 89t5 93v496h147v-512q0 -78 -13.5 -139.5t-64.5 -116.5q-57 -59 -126.5 -83t-133.5 -24q-63 0 -133 24t-127 83q-51 55 -64.5 116.5t-13.5 139.5zM196 1092l283 247l283 -247 l-95 -74l-188 166l-188 -166z" />
<glyph unicode="&#xfc;" horiz-adv-x="954" d="M139 338v512h148v-496q0 -45 5 -93t36 -89q16 -23 52 -44.5t97 -21.5t97 22t53 44q31 41 36 89t5 93v496h147v-512q0 -78 -13.5 -139.5t-64.5 -116.5q-57 -59 -126.5 -83t-133.5 -24q-63 0 -133 24t-127 83q-51 55 -64.5 116.5t-13.5 139.5zM198 1126q0 41 31 72t72 31 t71.5 -31t30.5 -72t-30.5 -71.5t-71.5 -30.5t-72 30.5t-31 71.5zM555 1126q0 41 30.5 72t71.5 31t72 -31t31 -72t-31 -71.5t-72 -30.5t-71.5 30.5t-30.5 71.5z" />
<glyph unicode="&#xfd;" horiz-adv-x="942" d="M16 850h168l301 -608l277 608h164l-625 -1321h-164l271 551zM385 1067l215 297l152 -70l-275 -276z" />
<glyph unicode="&#xfe;" horiz-adv-x="1077" d="M139 -471v1964h148v-762q37 47 79 75t80.5 42t73.5 18t58 4q100 0 176.5 -37.5t129 -101t80 -144.5t27.5 -167q0 -88 -27.5 -168t-80 -141.5t-128 -98.5t-171.5 -37q-104 0 -177 41t-120 103v-590h-148zM279 422q0 -66 20 -123t57 -100t89 -68t118 -25q63 0 115.5 25 t87.5 68t54.5 100t19.5 121q0 78 -24.5 138t-63.5 100t-89.5 60.5t-101.5 20.5t-102 -20.5t-91 -61.5t-64.5 -100t-24.5 -135z" />
<glyph unicode="&#xff;" horiz-adv-x="942" d="M16 850h168l301 -608l277 608h164l-625 -1321h-164l271 551zM213 1126q0 41 31 72t72 31t71.5 -31t30.5 -72t-30.5 -71.5t-71.5 -30.5t-72 30.5t-31 71.5zM570 1126q0 41 30.5 72t71.5 31t72 -31t31 -72t-31 -71.5t-72 -30.5t-71.5 30.5t-30.5 71.5z" />
<glyph unicode="&#x152;" horiz-adv-x="2162" d="M102 680q0 145 56.5 274t153 225.5t226.5 153t277 56.5q160 0 304.5 -73t242.5 -218v268h698v-143h-547v-406h533v-143h-533v-531h547v-143h-698v262q-51 -78 -114.5 -132t-134.5 -88t-145.5 -50.5t-146.5 -16.5q-152 0 -282.5 56.5t-228 153t-153 224.5t-55.5 271z M258 680q0 -115 43 -216.5t118 -178t175 -121.5t215 -45t216 44t176 120.5t118 178t43 216.5q0 117 -43 220t-119 180t-176 122t-213 45q-115 0 -216 -45t-176 -122t-118 -180t-43 -218z" />
<glyph unicode="&#x153;" horiz-adv-x="1744" d="M86 422q0 96 35 178t95 142.5t143 94t180 33.5q135 0 225 -59t141 -143q37 70 85 110.5t96.5 61t91.5 25.5t69 5q94 0 171 -31.5t130.5 -89t82 -139.5t28.5 -182v-31h-670q2 -59 23.5 -111.5t57.5 -92t86 -63.5t112 -24q92 0 157.5 53.5t98.5 129.5l125 -72 q-27 -49 -64 -92t-86 -77t-108.5 -53.5t-128.5 -19.5q-16 0 -59.5 4.5t-96.5 25t-107.5 60t-93.5 113.5q-61 -94 -156.5 -148.5t-216.5 -54.5q-96 0 -177 35t-141 94.5t-94 141.5t-34 176zM238 422q0 -61 20.5 -118.5t58 -101.5t93 -70t122.5 -26q55 0 108.5 19.5t96.5 58.5 t68.5 97.5t25.5 136.5q0 68 -19 126t-57 101t-93 68.5t-127 25.5t-127.5 -26.5t-93.5 -71.5t-57 -101.5t-19 -117.5zM1001 520h506q-16 100 -85.5 159.5t-168.5 59.5q-92 0 -161.5 -57t-90.5 -162z" />
<glyph unicode="&#x178;" horiz-adv-x="1085" d="M16 1366h177l348 -610l352 610h176l-453 -778v-588h-151v588zM244 1606q0 43 30.5 73.5t73.5 30.5t74 -30.5t31 -73.5t-31 -74t-74 -31t-73.5 31t-30.5 74zM633 1606q0 43 31 73.5t74 30.5t73.5 -30.5t30.5 -73.5t-30.5 -74t-73.5 -31t-74 31t-31 74z" />
<glyph unicode="&#x2c6;" d="M229 1092l283 247l283 -247l-95 -74l-188 166l-188 -166z" />
<glyph unicode="&#x2dc;" d="M197 1087q14 23 33.5 49.5t35.5 43.5q29 29 56.5 39t60.5 10q41 0 75 -12.5t68 -28.5q35 -18 60.5 -29.5t54.5 -11.5q18 0 31.5 4t27.5 20q10 12 23.5 32t19.5 32l84 -70q-16 -43 -53 -80q-35 -37 -70.5 -49t-64.5 -12q-37 0 -75 14.5t-66 28.5q-37 16 -63.5 27.5 t-49.5 11.5q-18 0 -31.5 -7t-27.5 -22q-14 -14 -24.5 -29.5t-18.5 -29.5z" />
<glyph unicode="&#x2000;" horiz-adv-x="927" />
<glyph unicode="&#x2001;" horiz-adv-x="1855" />
<glyph unicode="&#x2002;" horiz-adv-x="927" />
<glyph unicode="&#x2003;" horiz-adv-x="1855" />
<glyph unicode="&#x2004;" horiz-adv-x="618" />
<glyph unicode="&#x2005;" horiz-adv-x="463" />
<glyph unicode="&#x2006;" horiz-adv-x="309" />
<glyph unicode="&#x2007;" horiz-adv-x="309" />
<glyph unicode="&#x2008;" horiz-adv-x="231" />
<glyph unicode="&#x2009;" horiz-adv-x="371" />
<glyph unicode="&#x200a;" horiz-adv-x="103" />
<glyph unicode="&#x2010;" horiz-adv-x="655" d="M102 360v152h451v-152h-451z" />
<glyph unicode="&#x2011;" horiz-adv-x="655" d="M102 360v152h451v-152h-451z" />
<glyph unicode="&#x2012;" horiz-adv-x="655" d="M102 360v152h451v-152h-451z" />
<glyph unicode="&#x2013;" horiz-adv-x="1187" d="M143 371v131h901v-131h-901z" />
<glyph unicode="&#x2014;" horiz-adv-x="1638" d="M143 371v131h1352v-131h-1352z" />
<glyph unicode="&#x2018;" horiz-adv-x="540" d="M119 942l207 463l96 -39l-170 -473z" />
<glyph unicode="&#x2019;" horiz-adv-x="540" d="M119 942l166 473l137 -49l-207 -463z" />
<glyph unicode="&#x201a;" horiz-adv-x="630" d="M119 -272l166 473l137 -49l-207 -463z" />
<glyph unicode="&#x201c;" horiz-adv-x="839" d="M119 942l207 463l96 -39l-170 -473zM418 942l207 463l96 -39l-166 -473z" />
<glyph unicode="&#x201d;" horiz-adv-x="839" d="M119 942l166 473l137 -49l-207 -463zM418 942l170 473l133 -49l-207 -463z" />
<glyph unicode="&#x201e;" horiz-adv-x="929" d="M119 -272l166 473l137 -49l-207 -463zM418 -272l170 473l133 -49l-207 -463z" />
<glyph unicode="&#x2022;" horiz-adv-x="2048" d="M737 696q0 59 22.5 111.5t61.5 91.5t91.5 61.5t111.5 22.5t111.5 -22.5t91.5 -61.5t61.5 -91t22.5 -112q0 -59 -22.5 -111.5t-61.5 -91t-91.5 -61t-111.5 -22.5t-111.5 22.5t-91.5 61t-61.5 91t-22.5 111.5z" />
<glyph unicode="&#x2026;" horiz-adv-x="1527" d="M154 82q0 41 30.5 71.5t71.5 30.5t71.5 -30.5t30.5 -71.5t-30.5 -71.5t-71.5 -30.5t-71.5 30.5t-30.5 71.5zM662 82q0 41 30.5 71.5t71.5 30.5t71.5 -30.5t30.5 -71.5t-30.5 -71.5t-71.5 -30.5t-71.5 30.5t-30.5 71.5zM1169 82q0 41 31 71.5t72 30.5t71.5 -30.5 t30.5 -71.5t-30.5 -71.5t-71.5 -30.5t-72 30.5t-31 71.5z" />
<glyph unicode="&#x202f;" horiz-adv-x="371" />
<glyph unicode="&#x2039;" horiz-adv-x="577" d="M74 434l307 385l94 -76l-246 -309l246 -299l-94 -74z" />
<glyph unicode="&#x203a;" horiz-adv-x="577" d="M102 137l246 309l-246 299l95 74l307 -373l-307 -385z" />
<glyph unicode="&#x205f;" horiz-adv-x="463" />
<glyph unicode="&#x20ac;" horiz-adv-x="1163" d="M-16 471l53 135h69q-10 84 3 160h-125l53 135h88q20 92 66.5 180t120 157t174 110t229.5 41q31 0 70.5 -3.5t87 -15.5t100.5 -34.5t108 -61.5l-67 -137q-80 68 -165 88t-144 20q-106 0 -180 -38t-122.5 -91t-75 -112.5t-38.5 -102.5h653l-53 -135h-625q-12 -80 -2 -160 h576l-54 -135h-499q14 -76 50 -140.5t90 -111.5t126 -73.5t158 -26.5q113 0 206 44t166 113v-188q-72 -47 -165 -80t-216 -33q-133 0 -234 41t-174 109t-115 158t-56 188h-137z" />
<glyph unicode="&#x2122;" horiz-adv-x="1478" d="M8 1272v94h471v-94h-184v-684h-102v684h-185zM553 588l133 827l293 -645l301 645l125 -827h-94l-72 526l-260 -565l-256 565l-76 -526h-94z" />
<glyph unicode="&#x25fc;" horiz-adv-x="849" d="M0 0v850h850v-850h-850z" />
</font>
</defs>
</svg>
