<?xml version="1.0" standalone="no"?>
<!DOCTYPE svg PUBLIC "-//W3C//DTD SVG 1.1//EN" "http://www.w3.org/Graphics/SVG/1.1/DTD/svg11.dtd" >
<svg xmlns="http://www.w3.org/2000/svg" xmlns:xlink="http://www.w3.org/1999/xlink" version="1.1">
<metadata>
Created by FontForge 20170731 at Tue Jun 14 13:57:49 2022
 By Aleksey,,,
Copyright (c) 1985, 1987, 1990, 1998, 2002 Adobe Systems Incorporated.  All Rights Reserved.
</metadata>
<defs>
<font id="GoudyStd-Bold" horiz-adv-x="1138" >
  <font-face 
    font-family="Goudy Oldstyle Std"
    font-weight="700"
    font-stretch="normal"
    units-per-em="2048"
    panose-1="2 2 6 2 5 3 5 2 3 3"
    ascent="1526"
    descent="-522"
    x-height="856"
    cap-height="1442"
    bbox="-311 -512 2048 1935"
    underline-thickness="102"
    underline-position="-307"
    unicode-range="U+0020-FB02"
  />
<missing-glyph horiz-adv-x="1024" 
d="M0 0v1434h1024v-1434h-1024zM512 809l348 522h-696zM573 717l349 -522v1044zM164 102h696l-348 523zM102 1239v-1044l349 522z" />
    <glyph glyph-name="f_i" unicode="fi" 
d="M33 852h76q63 0 63 31q0 109 57.5 243t135.5 209q79 75 180 121.5t203 46.5q46 0 86 -17.5t62.5 -41t35 -43.5t12.5 -29q0 -25 -52.5 -76t-78.5 -51q-15 0 -29.5 15.5t-28 38t-30 45t-41.5 38t-55 15.5q-89 0 -160.5 -115.5t-71.5 -251.5v-48q-1 -100 7 -116
q9 -14 36 -14h340q59 0 94 11t49 21.5t21 10.5q17 0 21 -8.5t4 -32.5v-690q0 -36 15.5 -58t37.5 -30t43.5 -13.5t37 -15.5t15.5 -29q0 -9 -5.5 -15t-18 -8.5t-19.5 -3t-23.5 0t-17.5 0.5q-33 0 -97 4t-97 4q-24 0 -75 -4t-77 -4q-4 0 -11.5 -0.5t-9.5 0t-6.5 1.5t-6 4
t-2.5 8.5t-1 14.5q0 17 16 26t34.5 13t34.5 22t16 50v524q-1 23 -3 34t-9.5 25.5t-26 20.5t-47.5 6h-238q-18 0 -24.5 -11t-6.5 -38v-497q0 -44 12.5 -72.5t32 -39t41.5 -17t41.5 -8.5t32 -12t12.5 -28q0 -16 -9 -21t-28 -5q-11 0 -88 4t-135 4q-45 0 -116 -4t-87 -4
t-22 5.5t-6 22.5q0 20 16 29t35 11.5t35 20.5t16 54v531q0 16 -0.5 25.5t-3.5 23t-11 20t-20 6.5h-112v111z" />
    <glyph glyph-name="f_l" unicode="fl" 
d="M45 852h76q63 0 63 31q0 109 57.5 243t135.5 209q79 75 180 121.5t203 46.5q39 0 77 -14t40 -14q22 0 54 25.5t50 25.5q8 0 11 -6.5t2 -21.5t-3 -33t-4 -49.5t-2 -61.5v-1174q0 -40 15.5 -67.5t38 -39.5t45 -19.5t38 -15.5t15.5 -20q0 -15 -8.5 -20.5t-34.5 -5.5
q-18 0 -107.5 4t-122.5 4q-24 0 -92.5 -4t-89.5 -4q-35 0 -35 20q0 17 12.5 23.5t30.5 10t35.5 13.5t30 41.5t12.5 85.5v1071q0 25 -5.5 47.5t-18.5 44.5t-39.5 35t-63.5 13q-89 0 -160 -115.5t-71 -251.5v-162q4 -16 14 -16h143q16 0 26 7t13 15.5t10 15.5t17 7
q12 0 12 -14q0 -6 -5 -20.5t-13 -33.5t-9 -22q-4 -9 -9.5 -28.5t-12 -28.5t-18.5 -9h-138q-18 0 -24 -10.5t-6 -38.5v-497q0 -44 12.5 -72.5t32 -39t41.5 -17t41.5 -8.5t32 -12t12.5 -28q0 -16 -9 -21t-28 -5q-11 0 -88 4t-135 4q-45 0 -116 -4t-87 -4t-22.5 5.5t-6.5 22.5
q0 20 16 29t35.5 11.5t35.5 20.5t16 54v531q0 16 -0.5 25.5t-3.5 23t-11 20t-20 6.5h-113v111z" />
    <glyph glyph-name=".notdef" horiz-adv-x="1024" 
d="M0 0v1434h1024v-1434h-1024zM512 809l348 522h-696zM573 717l349 -522v1044zM164 102h696l-348 523zM102 1239v-1044l349 522z" />
    <glyph glyph-name=".null" horiz-adv-x="0" 
 />
    <glyph glyph-name="nonmarkingreturn" horiz-adv-x="682" 
 />
    <glyph glyph-name="space" unicode=" " horiz-adv-x="569" 
 />
    <glyph glyph-name="exclam" unicode="!" horiz-adv-x="681" 
d="M504 1368l-121 -811q-7 -51 -35 -51q-6 0 -10.5 2.5t-8 7.5t-5.5 9.5t-3 12t-2 11.5t-1.5 12t-0.5 10l-94 752q0 3 -2 15t-2.5 17.5t-0.5 16.5t2 17t5 13.5t10 12t17 6.5q38 8 105 14.5t98 6.5q17 0 28 -4t16.5 -8t7.5 -15t2 -14.5t-2.5 -17.5t-2.5 -15zM346 369
q38 0 111 -73.5t73 -111.5t-73 -111t-111 -73t-111 73t-73 111t73 111.5t111 73.5z" />
    <glyph glyph-name="quotedbl" unicode="&#x22;" horiz-adv-x="1024" 
d="M332 770h-94l-91 490q-11 56 33 109.5t105 53.5t104.5 -53.5t32.5 -109.5zM786 770h-94l-90 490q-11 56 32.5 109.5t104.5 53.5t105 -53.5t33 -109.5z" />
    <glyph glyph-name="numbersign" unicode="#" 
d="M1020 598v-156h-215l-66 -442h-153l65 442h-221l-65 -442h-154l65 442h-210v156h235l33 219h-211v156h233l62 413h153l-61 -413h219l59 413h154l-59 -413h190v-156h-213l-33 -219h193zM707 817h-220l-32 -219h219z" />
    <glyph glyph-name="dollar" unicode="$" 
d="M522 887v438q-100 0 -164.5 -59.5t-64.5 -159.5q0 -48 18 -85t54 -62t70.5 -40.5t86.5 -31.5zM606 608v-551q116 0 190 78t74 193q0 66 -14.5 110.5t-54.5 75t-69 44.5t-97 39l-7.5 3t-6.5 2.5l-8 3t-7 2.5zM606 1319v-457q9 -3 29 -9q45 -14 70.5 -22.5t74 -29.5
t78.5 -41t68.5 -55t60.5 -74t37.5 -94.5t15.5 -120.5q0 -187 -122.5 -307t-311.5 -132v-194q0 -20 -0.5 -29t-4.5 -20.5t-12.5 -16t-23.5 -4.5q-16 0 -25 4.5t-12.5 16t-4.5 20.5t-1 29v194q-115 5 -256 56q-96 43 -129 71q-41 35 -41 70q0 66 21 167t49 101q8 0 14 -1
t10 -4.5t6.5 -5t3.5 -8.5t1.5 -9t1 -12t0.5 -13q9 -143 95.5 -237.5t223.5 -94.5v578q-159 52 -213 80q-129 65 -165 177q-17 52 -17 118q0 109 58.5 197t148 133.5t188.5 45.5v117q0 20 1 29t4.5 20.5t12.5 16t25 4.5q28 0 34.5 -16t6.5 -54v-117q84 -7 175 -35.5
t149 -72.5q50 -39 35 -98l-45 -164q-5 -19 -31 -19q-10 0 -16.5 4t-9.5 13t-4 16.5t-1.5 21t-1.5 19.5q-16 121 -93.5 184.5t-156.5 63.5z" />
    <glyph glyph-name="percent" unicode="%" horiz-adv-x="1820" 
d="M1331 684q-32 0 -57 -10t-41 -24t-27.5 -38.5t-17 -44.5t-8.5 -52.5t-3.5 -51t-0.5 -49.5q0 -58 10.5 -115.5t34 -115t69 -93t107.5 -35.5q32 0 57 10t41 24t27.5 39t17 45t8.5 52.5t3.5 50.5t0.5 50q0 58 -10.5 115.5t-34 114.5t-69 92.5t-107.5 35.5zM467 0l764 1386
h96l-764 -1386h-96zM1354 739q174 0 270 -106t96 -281q0 -153 -99.5 -252.5t-246.5 -99.5q-174 0 -270 106t-96 281q0 153 99.5 252.5t246.5 99.5zM438 1386q174 0 270.5 -106t96.5 -281q0 -153 -99.5 -252.5t-246.5 -99.5q-174 0 -270.5 106t-96.5 281q0 153 99.5 252.5
t246.5 99.5zM416 1331q-37 0 -65 -11.5t-44 -35t-26.5 -46.5t-14.5 -59.5t-5 -59t-1 -58.5q0 -58 10.5 -115.5t34 -115t69 -93t107.5 -35.5q32 0 57 10t41.5 24t27.5 39t17 45t9 52t3.5 51t0.5 50q0 58 -10.5 115.5t-34 114.5t-69 92.5t-107.5 35.5z" />
    <glyph glyph-name="ampersand" unicode="&#x26;" horiz-adv-x="1820" 
d="M889 98q68 0 159 25t91 51q0 12 -50 53.5t-129 104t-164.5 135t-169 166t-130.5 178.5q-33 61 -56 61q-17 0 -41 -12.5t-50 -36.5t-44 -67.5t-18 -96.5q0 -84 50.5 -182.5t131.5 -182.5t194 -140t226 -56zM100 475q0 73 17.5 137.5t45.5 109t61.5 81t67 60t61.5 39.5
l45.5 26t17.5 14q0 14 -11 38.5t-21.5 65.5t-10.5 95q0 142 100 230.5t244 88.5q59 0 125 -19t112 -38t56 -19q14 0 32.5 15.5t34.5 15.5q14 0 18.5 -8.5t4.5 -32.5q0 -37 3 -82.5t6 -71t10 -87t9 -74.5q4 -37 -30 -37q-24 0 -39 49q-19 63 -49 117t-71.5 98.5t-98.5 70
t-123 25.5q-71 0 -107.5 -40t-36.5 -111q0 -82 70.5 -201.5t173 -232t208.5 -213t185 -161.5t95 -61q6 0 24 25t36.5 77t18.5 107q0 60 -17.5 100t-43 56t-56 25t-56 11.5t-43 11.5t-17.5 28q0 28 39 28q6 0 70.5 -4t140.5 -4q58 0 110 4t60 4q33 0 33 -26q0 -15 -11 -23.5
t-25 -11t-27.5 -16t-16.5 -37.5q-11 -83 -28 -153.5t-33.5 -113t-31.5 -72.5t-24.5 -45t-9.5 -18q0 -55 112 -122.5t162 -67.5q45 0 71 7t34 7q28 0 28 -24q0 -13 -19 -35.5t-51 -45.5t-81.5 -40t-102.5 -17q-142 0 -333 160q-88 -79 -228 -119.5t-276 -40.5
q-132 0 -240.5 35t-176 88.5t-113.5 122t-64.5 131.5t-18.5 121z" />
    <glyph glyph-name="quotesingle" unicode="'" horiz-adv-x="569" 
d="M332 770h-94l-91 490q-11 56 33 109.5t105 53.5t104.5 -53.5t32.5 -109.5z" />
    <glyph glyph-name="parenleft" unicode="(" horiz-adv-x="796" 
d="M385 627q0 -143 25 -279.5t60.5 -233t71 -172t60.5 -123.5t25 -61t-8 -21.5t-19 -8.5q-22 0 -41 22q-174 182 -282.5 411t-108.5 466t108.5 465.5t282.5 410.5q20 23 45 23q10 0 16.5 -9t6.5 -18q0 -15 -25 -63.5t-60.5 -124t-71 -172t-60.5 -233t-25 -279.5z" />
    <glyph glyph-name="parenright" unicode=")" horiz-adv-x="796" 
d="M412 627q0 143 -25 279.5t-60.5 232.5t-71 171.5t-60.5 123.5t-25 61t8 22t19 9q21 0 41 -23q174 -182 282.5 -410.5t108.5 -465.5t-108.5 -466t-282.5 -411q-19 -22 -45 -22q-10 0 -16.5 8.5t-6.5 17.5q0 15 25 63.5t60.5 124.5t71 172.5t60.5 233t25 279.5z" />
    <glyph glyph-name="asterisk" unicode="*" horiz-adv-x="1024" 
d="M512 1386q20 0 41 -6.5t41 -28.5t20 -57q0 -34 -14 -70t-30 -63.5t-30 -73t-14 -94.5l17 -10q42 19 74 50.5t50.5 61t36.5 57t42 44t57 16.5q37 0 71.5 -30.5t34.5 -65.5q0 -41 -22.5 -73.5t-61.5 -32.5q-3 0 -20.5 0.5t-26 0t-28.5 -2t-37 -5t-41 -9t-52 -15.5t-59 -23
v-28q31 -13 59 -23t52 -15.5t41 -9t37 -5t28.5 -2t26 0t20.5 0.5q40 -7 62 -37t22 -69q0 -35 -34.5 -65.5t-71.5 -30.5q-33 0 -57 16.5t-42 44t-36.5 57t-50.5 61t-74 50.5l-17 -10q0 -49 14 -94.5t30 -73t30 -63.5t14 -70q0 -35 -20 -57t-41 -28.5t-41 -6.5t-41 6.5
t-41 28.5t-20 57q0 34 14 70t30 63.5t30 73t14 94.5l-17 10q-42 -19 -74 -50.5t-50.5 -61t-36.5 -57t-42 -44t-57 -16.5q-37 0 -71.5 30.5t-34.5 65.5q0 39 22 69t62 37q3 0 20.5 -0.5t26 0t28.5 2t37 5t41 9t52 15.5t59 23v28q-31 13 -59 23t-52 15.5t-41 9t-37 5t-28.5 2
t-26 0t-20.5 -0.5q-39 0 -61.5 32.5t-22.5 73.5q0 35 34.5 65.5t71.5 30.5q33 0 57 -16.5t42 -44t36.5 -57t50.5 -61t74 -50.5l17 10q0 49 -14 94.5t-30 73t-30 63.5t-14 70q0 35 20 57t41 28.5t41 6.5z" />
    <glyph glyph-name="plus" unicode="+" horiz-adv-x="1241" 
d="M532 610v424h177v-424h428v-176h-428v-434h-177v434h-428v176h428z" />
    <glyph glyph-name="comma" unicode="," horiz-adv-x="569" 
d="M291 369q56 0 105.5 -73.5t49.5 -162.5q0 -73 -37.5 -149.5t-90 -131.5t-108.5 -90.5t-95 -35.5q-25 0 -25 24q0 11 16 27t38.5 35t45 42.5t38.5 58.5t16 75q0 45 -23 81.5t-50 55.5t-50 38.5t-23 33.5q0 12 15 28.5t52 48.5q10 9 15 13l20 20t23.5 22.5t22 19t24 15.5
t21.5 5z" />
    <glyph glyph-name="hyphen" unicode="-" horiz-adv-x="681" 
d="M160 471l360 127q41 14 53 14q21 0 21 -26v-135q0 -17 -18 -28t-56 -24l-360 -127q-41 -14 -54 -14q-20 0 -20 27v135q0 12 12 22t24 15t38 14z" />
    <glyph glyph-name="period" unicode="." horiz-adv-x="569" 
d="M274 369q38 0 111.5 -73.5t73.5 -111.5t-73.5 -111t-111.5 -73t-111 73t-73 111t73 111.5t111 73.5z" />
    <glyph glyph-name="slash" unicode="/" horiz-adv-x="569" 
d="M471 1526h174l-545 -1792h-174z" />
    <glyph glyph-name="zero" unicode="0" 
d="M500 1280q-52 0 -93.5 -20.5t-67 -57t-43.5 -79t-26.5 -95t-12 -95.5t-3.5 -89q0 -205 52 -373t141.5 -263t197.5 -95q52 0 93.5 20.5t67 57t43.5 79t26.5 95t12 95.5t3.5 89q0 205 -52 373t-141.5 263t-197.5 95zM592 1386q63 0 126.5 -19t128.5 -66t114.5 -116.5
t80.5 -180.5t31 -248q0 -150 -27.5 -273t-69 -201.5t-97.5 -138.5t-106.5 -90t-103 -48.5t-79.5 -23t-43 -4.5q-63 0 -126.5 19t-128.5 66t-114.5 117t-80.5 181t-31 248q0 150 27.5 273t69 201.5t97.5 138t106.5 90t103 49t79.5 22.5t43 4z" />
    <glyph glyph-name="one" unicode="1" 
d="M682 1161v-944q0 -47 13 -79t34 -47t46.5 -23t51 -9t46.5 -3t34 -8.5t13 -20.5q0 -13 -5.5 -20.5t-16 -10.5t-26 -4t-35.5 0h-22q-30 0 -121 4t-131 4q-43 0 -157.5 -4t-135.5 -4q-16 0 -16 31q0 18 15.5 26.5t39 9.5t51 7.5t51 17t39 40t15.5 75.5v845q0 35 -4.5 59
t-10.5 35.5t-17 17.5t-17 6.5t-19 0.5q-29 0 -76.5 -10t-50.5 -10q-15 0 -21.5 13t-6.5 22q0 10 4 17.5t9.5 12.5t15 9t15.5 5.5t17 3.5t14 3q85 21 152 45t103 43t59 35t33.5 25t13.5 9q7 0 13.5 -4.5t6.5 -15.5q0 -13 -8 -87t-8 -118z" />
    <glyph glyph-name="two" unicode="2" 
d="M418 203h297q57 0 101.5 16t70 38.5t44 45.5t33 39t27.5 16q11 0 20 -9t9 -19q0 -26 -30.5 -91t-63.5 -122q-3 -5 -13 -26.5t-18 -34.5t-20.5 -30t-28 -25.5t-33.5 -8.5q-6 0 -153 4t-275 4q-75 0 -160.5 -4t-97.5 -4q-51 0 -51 20q0 18 18 43.5t98 123.5q95 117 168 208
q50 63 98 131.5t101 155t85 172t32 149.5q0 108 -65.5 170t-176.5 62q-58 0 -111 -21t-83 -45.5t-56 -45.5t-37 -21q-32 0 -32 26q0 15 19 45.5t58 68.5t90 72t123.5 57t149.5 23q144 0 241 -81t97 -222q0 -83 -56 -197t-135.5 -219.5t-159.5 -200t-136 -160.5t-56 -79
q0 -24 68 -24z" />
    <glyph glyph-name="three" unicode="3" 
d="M487 678q-35 0 -71 -5l-35 -5q-25 0 -25 26q0 10 21 26t53 34.5t68.5 48t68.5 62t53 81t21 101.5q0 97 -59.5 157t-157.5 60q-46 0 -96 -22t-83.5 -48t-60.5 -48t-32 -22q-15 0 -22 9.5t-7 17.5q0 22 33 61t84.5 78t127.5 67.5t150 28.5q82 0 152.5 -26t119 -85
t48.5 -142q0 -46 -19.5 -90.5t-47 -76t-54.5 -57.5t-46.5 -44.5t-19.5 -26.5q0 -2 17 -4.5t44 -9.5t59.5 -18.5t65.5 -36t60 -58t44 -88.5t17 -123q0 -145 -72.5 -265.5t-199 -189t-278.5 -68.5q-79 0 -150 17.5t-114 42.5t-68 50t-25 42q0 12 8.5 23.5t24.5 11.5
q14 0 38.5 -17t51.5 -37.5t78.5 -37.5t112.5 -17q156 0 256 106.5t100 264.5q0 124 -56 188t-178 64z" />
    <glyph glyph-name="four" unicode="4" 
d="M621 641v408q0 49 -9 49q-4 0 -11 -8t-16.5 -21.5t-13.5 -17.5l-317 -406q-2 -2 -5 -6q-27 -35 -28 -47q0 -7 9.5 -8.5t38.5 -1.5h5h5h6h280q39 0 47.5 10t8.5 49zM252 776l405 500q110 139 152 139q7 0 12.5 -3.5t8.5 -10.5t5 -14t2.5 -17.5t0.5 -16.5v-16v-12v-686
q0 -27 5 -38t21 -11h76q22 0 36 13t19 29t13.5 29t21.5 13q10 0 17.5 -7t7.5 -20q0 -256 -101 -256h-88q-19 0 -23.5 -8.5t-4.5 -36.5v-422q0 -21 -88.5 -38t-124.5 -17q-23 0 -23 14q0 17 9.5 45t9.5 68v334q0 51 -5 56q-5 6 -39 5h-10h-434h-15.5h-16.5t-15 0.5t-15.5 2
t-12.5 4t-11.5 6t-8 9t-6 13t-1.5 16.5q0 24 17 60t47.5 78.5t55.5 74t60 72.5t41 49z" />
    <glyph glyph-name="five" unicode="5" 
d="M199 768l96 596q1 11 17 16.5t30 5.5h453q24 0 41.5 12t26.5 26t21 26t25 12q25 0 25 -20q0 -1 -12 -41l-52 -164q-12 -42 -25.5 -49.5t-67.5 -7.5h-6.5h-6.5h-8h-310h-30t-23 -1t-20 -3t-13.5 -6.5t-11.5 -10t-7.5 -15.5t-7.5 -22l-5 -30l-27 -164q-7 -26 -5.5 -46
t19.5 -20q5 0 12.5 1t20 3t23.5 4q70 9 135 9q202 0 322 -92t120 -287q0 -62 -18 -129t-60.5 -138.5t-104.5 -127.5t-159.5 -92t-216.5 -36q-40 0 -113 10.5t-147 37.5t-74 61q0 23 31 23q12 0 47.5 -12.5t89 -25t109.5 -12.5q167 0 285 98.5t118 262.5q0 73 -26 125.5
t-72.5 82t-103.5 43t-127 13.5q-48 0 -104.5 -5t-82.5 -5q-24 0 -27 22t7 72z" />
    <glyph glyph-name="six" unicode="6" 
d="M848 367q0 68 -16 134t-48 124.5t-89 94.5t-130 36q-118 0 -188 -79.5t-70 -197.5q0 -55 11 -113t35 -115t58.5 -102t86.5 -72.5t114 -27.5q236 0 236 318zM932 1415q45 0 45 -26q0 -20 -24.5 -29.5t-89 -28t-124.5 -47.5q-80 -38 -151 -103.5t-116 -134t-71 -131.5
t-26 -104q0 -31 14 -31q9 0 20 6t30.5 20t35.5 23q90 50 225 50q170 0 268.5 -113t98.5 -285q0 -226 -141.5 -365t-368.5 -139q-119 0 -213 46t-153 125t-90 180t-31 217q0 127 35 242t93 201t134.5 158.5t158 121t164 82.5t153 49.5t124.5 15.5z" />
    <glyph glyph-name="seven" unicode="7" 
d="M754 1182h-375q-50 0 -84 -19.5t-49.5 -47t-25.5 -54.5t-20.5 -46.5t-25.5 -19.5q-33 0 -33 66q0 106 36.5 215.5t86.5 109.5h641q3 0 17 1.5t21.5 0.5t17.5 -6t15 -19.5t5 -37.5q0 -55 -11 -104.5t-62 -183.5t-158 -378q-119 -273 -119 -436q0 -65 18.5 -141.5
t18.5 -95.5q0 -26 -86 -45t-121 -19q-22 0 -38.5 8t-26 26t-15 32.5t-7.5 41t-2.5 38t-0.5 36.5q0 99 31 198t81.5 186t103 161.5t109.5 156.5t86 140q3 7 24.5 47.5t28.5 56.5t16 47t9 56q0 7 -4.5 12.5t-12.5 8.5t-16.5 5t-20.5 2.5t-19.5 1t-19 0t-13.5 -0.5z" />
    <glyph glyph-name="eight" unicode="8" 
d="M850 1053q0 129 -85 196.5t-218 67.5q-101 0 -173.5 -60.5t-72.5 -156.5q0 -58 45 -109.5t106.5 -82.5t116 -48.5t80.5 -17.5q92 0 146.5 59t54.5 152zM145 1004q0 89 38.5 163t102 121t144 72.5t166.5 25.5q71 0 141 -20t130 -57t97 -98.5t37 -137.5q0 -105 -69 -177
t-184 -99v-4q61 -27 102 -49.5t84 -57t68 -73.5t41 -95.5t16 -126.5q0 -105 -42.5 -186t-114.5 -130t-161.5 -73.5t-189.5 -24.5q-109 0 -195 25t-137 63.5t-84 90.5t-45 101t-12 101q0 125 78 223t159 124q-79 40 -124.5 119.5t-45.5 179.5zM676 551l-281 106
q-74 -16 -110.5 -81.5t-36.5 -147.5q0 -103 36.5 -188.5t113.5 -140t182 -54.5q80 0 148 24t114.5 80.5t46.5 137.5q0 101 -55.5 163.5t-157.5 100.5z" />
    <glyph glyph-name="nine" unicode="9" 
d="M289 999q0 -68 16 -134t47.5 -124.5t88.5 -94.5t130 -36q118 0 188 79.5t70 197.5q0 55 -11 113t-35 115t-58.5 102t-86.5 72.5t-114 27.5q-235 0 -235 -318zM205 -23q-45 0 -45 27q0 20 23 30.5t90 28.5t124 41q65 26 124 71.5t102 96t75 104t48 99.5t16 78q0 31 -14 31
q-9 0 -20 -6t-30.5 -20t-35.5 -23q-90 -50 -226 -50q-170 0 -268 113t-98 285q0 226 141.5 364.5t368.5 138.5q119 0 213 -45.5t153 -124.5t90 -180.5t31 -216.5q0 -127 -35 -240.5t-93 -197t-134.5 -153t-157.5 -115t-164.5 -77t-153 -45.5t-124.5 -14z" />
    <glyph glyph-name="colon" unicode=":" horiz-adv-x="681" 
d="M340 913q38 0 111 -73t73 -111t-73 -111t-111 -73t-111 73t-73 111t73 111t111 73zM340 369q38 0 111 -73.5t73 -111.5t-73 -111t-111 -73t-111 73t-73 111t73 111.5t111 73.5z" />
    <glyph glyph-name="semicolon" unicode=";" horiz-adv-x="681" 
d="M354 369q57 0 106.5 -73.5t49.5 -162.5q0 -73 -37.5 -149.5t-90.5 -131.5t-109 -90.5t-95 -35.5q-24 0 -24 24q0 11 16 27t38 35t44.5 42.5t38.5 58.5t16 75q0 36 -15 67t-36.5 50.5t-42.5 35.5t-36 30t-15 26t15 28.5t52 48.5q10 9 15 13q5 5 25 24.5t30.5 29t26.5 19
t28 9.5zM342 913q23 0 103.5 -80.5t80.5 -103.5t-80.5 -103.5t-103.5 -80.5t-103.5 80.5t-80.5 103.5t80.5 103.5t103.5 80.5z" />
    <glyph glyph-name="less" unicode="&#x3c;" horiz-adv-x="1241" 
d="M328 516l815 -375v-172l-1043 471v152l1043 471v-172z" />
    <glyph glyph-name="equal" unicode="=" horiz-adv-x="1241" 
d="M1137 811v-176h-1033v176h1033zM1137 410v-177h-1033v177h1033z" />
    <glyph glyph-name="greater" unicode="&#x3e;" horiz-adv-x="1241" 
d="M98 141l815 375l-815 375v172l1043 -471v-152l-1043 -471v172z" />
    <glyph glyph-name="question" unicode="?" horiz-adv-x="796" 
d="M365 1442q78 0 142 -23.5t108 -79t44 -135.5q0 -53 -33 -114.5t-79.5 -119t-93.5 -116.5t-80 -127.5t-33 -132.5q0 -9 5 -36t5 -40q0 -20 -20 -20q-32 0 -53 45.5t-21 107.5q0 63 79 268.5t79 266.5q0 60 -35 97.5t-94 37.5q-33 0 -63.5 -15.5t-48.5 -33.5t-35.5 -33.5
t-28.5 -15.5q-12 0 -17.5 10t-5.5 20q0 51 82 120t197 69zM334 369q38 0 111 -73.5t73 -111.5t-73 -111t-111 -73t-111 73t-73 111t73 111.5t111 73.5z" />
    <glyph glyph-name="at" unicode="@" horiz-adv-x="1529" 
d="M803 1012q-58 0 -111 -55.5t-86.5 -133.5t-53.5 -155.5t-20 -128.5q0 -42 7 -76t32.5 -63t67.5 -29q61 0 114 63.5t84 150t48.5 163.5t17.5 116q0 55 -25 101.5t-75 46.5zM948 930l29 129h203l-160 -588q-11 -42 1.5 -73t55.5 -31q61 0 127 90.5t107 207t41 199.5
q0 70 -21.5 137.5t-66.5 128.5t-107.5 107.5t-151 74t-190.5 27.5q-134 0 -252 -46t-203.5 -127t-134.5 -197.5t-49 -251.5q0 -186 90 -329t240 -216.5t334 -73.5q146 0 272.5 74.5t212.5 200.5h135q-91 -179 -266 -287.5t-377 -108.5q-155 0 -295 53.5t-243 147.5
t-163.5 230.5t-60.5 293.5q0 210 97 383.5t269 274t382 100.5q144 0 270.5 -49.5t213 -131.5t136.5 -189t50 -222q0 -34 -6 -77.5t-22 -99t-39 -109.5t-61.5 -106t-85.5 -91.5t-114.5 -63.5t-145.5 -24q-70 0 -108 50.5t-43 123.5q-63 -85 -115.5 -123.5t-134.5 -38.5
q-127 0 -197.5 83t-70.5 216q0 114 59.5 221.5t162 176.5t216.5 69q70 0 116 -38.5t60 -106.5h4z" />
    <glyph glyph-name="A" unicode="A" horiz-adv-x="1593" 
d="M575 606h279h5q17 0 25 0.5t18 2t14 5.5t4 11q0 10 -2.5 21t-5 17.5t-8 19t-7.5 17.5l-168 371q-3 4 -5 7t-2.5 4.5t-1 2.5t-1.5 1.5t-2 0.5h-4q-13 0 -23 -24l-158 -363q-1 -4 -7 -17.5t-8 -19.5t-4.5 -17t-2.5 -21q0 -13 14.5 -16t50.5 -3zM918 496h-404
q-16 0 -28.5 -4t-29 -17t-33.5 -44t-34 -79q-2 -5 -9.5 -26.5t-12 -35t-10 -33t-8.5 -36.5t-3 -31q0 -41 23 -68.5t55.5 -39.5t64.5 -20t55 -17.5t23 -24.5q0 -12 -6.5 -19t-19 -9t-24 -2.5t-29.5 1t-27 1.5q-33 0 -96.5 4t-96.5 4q-31 0 -91 -4t-89 -4h-12.5h-12.5t-11 0.5
t-10.5 1.5t-7.5 3.5t-5.5 6.5t-1.5 10q0 15 17.5 27.5t40.5 22t51.5 35.5t45.5 65l555 1239q2 5 8 19.5t9 20.5t8.5 15.5t11.5 13t14 3.5q14 0 22 -10.5t28 -55.5l553 -1253q18 -40 43.5 -62.5t47.5 -28t42 -7.5t31.5 -9t11.5 -26q0 -12 -2.5 -18.5t-11.5 -9t-16.5 -3
t-28.5 -0.5h-15q-29 0 -109 4t-155 4q-49 0 -124 -4t-101 -4h-15h-14t-11.5 0.5t-10.5 2t-6.5 4t-5 7t-1.5 10.5q0 16 15 27t36 20t42.5 20.5t36.5 35.5t15 59q0 51 -36 137q-53 124 -72.5 152.5t-58.5 28.5z" />
    <glyph glyph-name="B" unicode="B" horiz-adv-x="1366" 
d="M473 1159v-237q0 -73 23.5 -92t115.5 -25h123q115 0 165 56t50 173q0 139 -97.5 229.5t-236.5 90.5q-41 0 -68.5 -10t-42 -24t-22 -43t-9 -52t-1.5 -66zM221 236v905q0 58 -12 98.5t-31 61.5t-42 33.5t-46.5 18t-42.5 10.5t-31 16.5t-12 31.5q0 31 35 31q4 0 7.5 -0.5
l10.5 -1.5t13 -2q36 -4 92 -4q88 0 260 4q176 4 260 4q103 0 185.5 -17.5t134 -43t89 -63t55.5 -68.5t28 -69.5t11 -55t1 -35.5q0 -99 -58 -176.5t-165 -112.5v-4q181 -46 254 -130.5t73 -228.5q0 -205 -137.5 -325.5t-384.5 -120.5q-176 0 -332 4q-152 4 -178 4
q-22 0 -76 -4q-50 -4 -69 -4q-38 0 -53 6t-15 27q0 16 13 26t32.5 14.5t42.5 16t42.5 26.5t32.5 48t13 80zM473 555v-229q0 -147 52 -199.5t200 -52.5t226.5 89.5t78.5 242.5q0 42 -8.5 79.5t-36.5 81t-73.5 74.5t-126 51.5t-187.5 20.5q-45 0 -70.5 -8.5t-37.5 -32
t-14.5 -47t-2.5 -70.5z" />
    <glyph glyph-name="C" unicode="C" horiz-adv-x="1478" 
d="M1339 1391l37 -390q5 -15 1.5 -41t-25.5 -26q-9 0 -17 4t-15.5 13.5t-11 15.5t-10.5 20t-8 17q-84 163 -218.5 268.5t-301.5 105.5q-109 0 -199.5 -49t-147.5 -129t-88.5 -179.5t-31.5 -203.5q0 -90 19.5 -183.5t63.5 -185.5t107 -164t157.5 -116.5t207.5 -44.5
q88 0 168.5 27.5t134 67t95.5 79t70.5 67t41.5 27.5q8 0 18.5 -7t10.5 -15q0 -22 -18.5 -58t-53.5 -80t-92 -88.5t-126 -82t-164.5 -60.5t-199.5 -23q-123 0 -226.5 30t-173.5 77.5t-124 112t-85 128.5t-50.5 132t-26 117.5t-6.5 89.5q0 107 25.5 215t82.5 213.5
t139.5 186.5t206.5 131t273 50q85 0 168.5 -19.5t135.5 -43t98.5 -43t64.5 -19.5q17 0 28 17t20.5 34t21.5 17q24 0 24 -12z" />
    <glyph glyph-name="D" unicode="D" horiz-adv-x="1593" 
d="M229 205v987q0 49 -16 83t-40.5 49.5t-53 26t-53 15t-40.5 15.5t-16 28q0 14 12.5 23.5t24.5 9.5t41.5 -2t91 -4t150.5 -2q53 0 158.5 4t158.5 4q55 0 102.5 -2t117.5 -9.5t128 -20.5t127 -38t123.5 -59t107 -85.5t87.5 -115.5t56.5 -152t21.5 -192q0 -122 -30.5 -229
t-80.5 -184t-117 -140.5t-137.5 -104t-143.5 -68t-134 -39t-111 -11.5q-140 0 -275 4t-153 4q-32 0 -95 -4t-94 -4q-5 0 -21 -0.5t-23 0t-17.5 2.5t-15 8.5t-4.5 17.5q0 21 17 31t41 15.5t47.5 16t40.5 41t17 81.5zM481 1171v-952q0 -39 17 -67.5t41 -43.5t58 -24
t60.5 -11.5t55.5 -2.5q248 0 397.5 162t149.5 470q0 46 -7 98.5t-25.5 118t-47.5 126t-77.5 120t-110 103t-150.5 70t-195 26.5q-46 0 -76.5 -7t-48.5 -19.5t-27 -38.5t-11.5 -53t-2.5 -75z" />
    <glyph glyph-name="E" unicode="E" horiz-adv-x="1251" 
d="M483 1202v-287q0 -39 1 -54t10 -29t26 -16.5t51 -2.5h129q49 0 86.5 19.5t57.5 47t33.5 55t24.5 47t22 19.5q23 0 30 -12q8 -12 9 -39l14 -364l1 -14q1 -13 1.5 -18.5t0 -18.5t-2.5 -19.5t-6 -15t-11.5 -12t-17.5 -3.5q-15 0 -24.5 16t-14.5 40t-16.5 52.5t-28 52.5
t-52 40t-85.5 16h-152q-27 0 -42.5 -4t-25 -8.5t-13.5 -23t-4.5 -31.5t-0.5 -50v-26v-262q0 -102 8 -131q17 -56 86 -67q20 -3 46 -3q104 0 186.5 15t133 38.5t88 52t58 57.5t35.5 52.5t28 38.5t28 15q22 0 22 -46q0 -80 -36.5 -155t-104 -123.5t-148.5 -48.5
q-182 0 -346.5 4t-189.5 4t-112 -4t-150 -4q-39 0 -39 22t11.5 33t28.5 13.5t37.5 12t37.5 24.5t28.5 53.5t11.5 97.5v958q0 51 -24 83t-57.5 44.5t-67.5 20t-58 19.5t-24 34q0 14 12 24.5t33 10.5q13 0 186.5 -4t358.5 -4q68 0 220.5 4t246.5 4q19 0 30 -12t11 -27l8 -203
q0 -1 1 -10t1 -13t0.5 -13t-0.5 -14.5t-2.5 -13t-4 -12t-6.5 -9.5t-10 -7t-14 -2q-19 0 -27.5 13t-11.5 34.5t-7 47t-20 51t-44 47t-85 34.5t-137 13h-68t-53.5 -1.5t-43.5 -2.5t-32 -6t-24.5 -9t-15.5 -13.5t-11 -18t-5 -25t-3 -30.5v-38z" />
    <glyph glyph-name="F" unicode="F" 
d="M477 1202v-287q0 -39 1 -54t10 -29t26 -16.5t51 -2.5h129q49 0 86.5 19.5t57.5 47t33.5 55t24.5 47t22 19.5q22 0 30 -12q7 -14 8 -39l15 -364l1 -14q1 -13 1.5 -18.5t0 -18.5t-2.5 -19.5t-6 -15t-11.5 -12t-17.5 -3.5q-15 0 -24.5 16t-14.5 40t-16.5 52.5t-28 52.5
t-52 40t-85.5 16h-152q-27 0 -42.5 -4t-25 -8.5t-13.5 -23t-4.5 -31.5t-0.5 -50v-26v-303q0 -63 24 -105t58 -59t68 -26.5t58 -18t24 -22.5q0 -9 -2.5 -15t-8 -9.5t-10.5 -5.5t-15.5 -3t-17 -1t-20.5 0.5t-21 0.5q-38 0 -117 4t-126 4q-25 0 -112 -4t-150 -4q-39 0 -39 22
t11.5 33t28.5 13.5t37.5 12t37.5 24.5t28.5 53.5t11.5 97.5v958q0 51 -24 83t-57.5 44.5t-67.5 20t-58 19.5t-24 34q0 14 12 24.5t33 10.5q13 0 186.5 -4t358.5 -4q68 0 220.5 4t246.5 4q19 0 30 -12t11 -27l8 -203q0 -1 1 -10t1 -13t0.5 -13t-0.5 -14.5t-2.5 -13t-4 -12
t-6.5 -9.5t-10 -7t-14 -2q-19 0 -27.5 13t-11.5 34.5t-7 47t-20 51t-44 47t-85 34.5t-137 13h-68t-53.5 -1.5t-43.5 -2.5t-32 -6t-24.5 -9t-15.5 -13.5t-11 -18t-5 -25t-3 -30.5v-38z" />
    <glyph glyph-name="G" unicode="G" horiz-adv-x="1593" 
d="M1403 1307v-342q0 -21 -11 -29t-40 -8q-8 0 -17.5 24.5t-24 64t-37 87t-64 95t-97.5 87t-145 64t-199 24.5q-51 0 -100.5 -12t-103 -39t-98.5 -76.5t-81.5 -118t-57 -170.5t-20.5 -227q0 -87 17 -176t55 -175t92 -153t134.5 -108t176.5 -41q60 0 110 6.5t86 16.5t65 26.5
t47.5 32.5t31.5 39.5t19.5 41t10.5 44t4.5 43t0.5 41.5q0 75 -18 124t-45 67.5t-59 27.5t-59 8.5t-45 6t-18 24.5q0 17 6.5 27t20 13.5t23.5 4.5t28 -0.5t23 -1.5q48 0 143 -4t143 -4q38 0 111.5 4t110.5 4q8 0 15 -7.5t7 -21.5q0 -20 -10.5 -30.5t-26 -12.5t-34 -12
t-34 -26t-26 -56.5t-10.5 -102.5q0 -49 3 -105.5t3 -64.5q0 -26 -3.5 -36t-16.5 -17q-370 -201 -646 -201q-123 0 -226.5 30t-173.5 77.5t-124 112t-85 128.5t-50.5 132t-26 117.5t-6.5 89.5q0 107 25.5 215t82.5 213.5t139.5 186.5t206.5 131t273 50q97 0 191.5 -21
t151.5 -45.5t105 -45.5t64 -21q24 0 45.5 28.5t36.5 28.5q11 0 18 -6.5t9.5 -20.5t3 -23.5t0.5 -26.5z" />
    <glyph glyph-name="H" unicode="H" horiz-adv-x="1705" 
d="M1479 1227v-946q0 -72 22 -118.5t53.5 -64.5t62.5 -28t53 -21.5t22 -32.5q0 -4 -0.5 -7.5t-2 -6t-2.5 -4.5t-4 -3t-4.5 -2t-6.5 -1h-6.5h-8h-8.5q-32 0 -130.5 4t-142.5 4q-33 0 -117.5 -4t-140.5 -4q-41 0 -41 22q0 19 15.5 30t37.5 20t44 23.5t37.5 50.5t15.5 91v369
v15q0 34 -1 47t-9 26.5t-25 17t-49 3.5h-547q-68 0 -84 -20t-16 -91v-322q0 -60 19 -102t47 -60.5t61 -31.5t61 -18t47 -15t19 -27q0 -9 -1 -13t-16 -9.5t-45 -5.5q-34 0 -126 4t-173 4q-41 0 -131 -4t-143 -4q-45 0 -45 31q0 22 18 33.5t43.5 21.5t51 28t43.5 63t18 116
v913q0 45 -13 77.5t-33.5 48.5t-45 26t-49 14t-45 8t-33.5 12.5t-13 24.5q0 33 101 33q25 0 97.5 -4t131.5 -4q70 0 156 4t108 4q47 0 47 -31q0 -14 -11.5 -23t-29 -12.5t-38 -13t-38 -22.5t-29 -42.5t-11.5 -72.5v-326q0 -44 10 -63t41 -19h608q72 0 72 92v289
q0 63 -23.5 102t-56.5 53t-66 20.5t-56.5 13.5t-23.5 22q0 7 1 12t2 8.5t5 6t5 4t7.5 2t7.5 0.5h9.5h10.5q37 0 116 -4t148 -4q55 0 141.5 4t128.5 4q25 0 34 -5.5t9 -19.5q0 -18 -11 -27.5t-27 -11.5t-35.5 -10t-35.5 -20t-27 -43t-11 -78z" />
    <glyph glyph-name="I" unicode="I" horiz-adv-x="796" 
d="M524 1223v-977q0 -59 17 -99t42.5 -56.5t55.5 -26t55.5 -11t42.5 -8.5t17 -22q0 -17 -15 -24t-51 -7q-28 0 -124 4t-187 4q-48 0 -128 -4t-102 -4t-22 24q0 16 11 27t27 16.5t35.5 17t35.5 26.5t27 47.5t11 78.5v983q0 44 -17 74.5t-43 44.5t-55.5 24t-55.5 15t-43 16
t-17 27q0 7 2.5 12.5t8 8.5t11 5t13.5 2.5t13 0.5h12.5h9.5q41 0 118.5 -4t112.5 -4q32 0 116 4t148 4q46 0 59 -5t13 -24t-16 -27.5t-38.5 -14t-45 -17t-38.5 -44.5t-16 -87z" />
    <glyph glyph-name="J" unicode="J" horiz-adv-x="796" 
d="M547 1253v-1028q0 -164 -57 -304.5t-154 -222t-211 -81.5q-44 0 -76 11t-46 27.5t-20 28.5t-6 21q0 26 8.5 73t28 92.5t43.5 45.5q13 0 30.5 -22.5t33.5 -49t42 -49t54 -22.5q79 0 78 212v7v1171q0 59 -13 99t-34 58.5t-46.5 28.5t-51 13t-46.5 7t-34 15.5t-13 34.5
q0 24 72 23h18q12 0 89.5 -4t146.5 -4q65 0 131.5 4t85.5 4h14.5h15.5t13.5 -0.5t13 -2.5t10 -5.5t7.5 -9t2 -13.5q0 -14 -13.5 -23t-32 -16t-37.5 -18t-32.5 -36.5t-13.5 -64.5z" />
    <glyph glyph-name="K" unicode="K" horiz-adv-x="1478" 
d="M1194 1233l-360 -334q-46 -38 -46 -59q0 -18 50 -84l391 -527q44 -60 87 -100t70.5 -54t50 -22.5t32.5 -14.5t10 -20q0 -13 -5 -19.5t-22 -6.5q-21 0 -73 4t-81 4q-17 0 -61.5 -4t-75.5 -4q-32 0 -51.5 10t-48.5 49l-408 559q-7 8 -14.5 19t-12 17t-9 11.5t-8.5 8t-7 2.5
q-20 0 -96 -86q-6 -7 -10 -13l-7 -10.5t-5 -11.5l-3 -10.5t-1.5 -12t-0.5 -12.5v-15v-16v-268q0 -44 15 -74.5t37 -44t48.5 -23t48.5 -13.5t37 -14.5t15 -27.5q0 -14 -11 -19t-46 -5q-20 0 -91 4t-137 4q-53 0 -147 -4t-121 -4q-64 0 -64 16q0 23 12 34.5t30.5 14t39.5 13.5
t39.5 29.5t30.5 66.5t12 121v891q0 58 -16 97t-40 54t-51.5 24.5t-51.5 12.5t-40 13.5t-16 31.5q0 31 41 31q7 0 85.5 -4t160.5 -4q67 0 170.5 4t114.5 4q43 0 43 -25q0 -19 -11 -27.5t-27.5 -9.5t-35.5 -7.5t-35.5 -18.5t-27.5 -46t-11 -87v-469v-6.5v-7.5v-7.5v-7t0.5 -6
t1.5 -5.5l2 -4t2.5 -2.5t3.5 -0.5q15 -3 52 34l270 265q4 4 61 58t91 89t69 85.5t35 82.5q0 21 -19.5 33t-43 15t-43 12t-19.5 24q0 25 11.5 32t35.5 7q5 0 96 -4t127 -4q21 0 82.5 4t110.5 4h12t13 -1.5t14.5 -5t9 -10.5t4.5 -18q0 -18 -14.5 -26t-41.5 -13.5t-84 -40
t-124 -94.5z" />
    <glyph glyph-name="L" unicode="L" horiz-adv-x="1251" 
d="M487 1257v-960q0 -102 8 -131q17 -56 86 -67q20 -3 46 -3q104 0 186.5 15t133 38.5t88 52t58 57.5t35.5 52.5t28 38.5t28 15q22 0 22 -46q0 -81 -36 -155.5t-103.5 -123t-148.5 -48.5q-182 0 -347 4t-190 4t-112 -4t-150 -4q-39 0 -39 22t11.5 33t29 13.5t37.5 12
t37.5 24.5t29 53.5t11.5 97.5v969q0 48 -24 79t-58 43t-68 19.5t-58 18.5t-24 30q0 14 17.5 24.5t48.5 10.5q42 0 141 -4t137 -4q76 0 126.5 2t73 4t32.5 2q34 0 43.5 -4.5t9.5 -22.5q0 -21 -15 -31t-36.5 -14t-43 -12t-36.5 -33t-15 -68z" />
    <glyph glyph-name="M" unicode="M" horiz-adv-x="1820" 
d="M322 913l-21 -573q-3 -82 11.5 -138.5t38.5 -80.5t52 -38t53 -17t41.5 -12.5t16.5 -28.5v-4q1 -4 0.5 -6l-1.5 -6t-4.5 -6.5t-8.5 -5t-14 -4t-21 -1.5q-35 0 -98 4t-113 4q-59 0 -127.5 -4t-75.5 -4q-39 0 -39 28q0 20 17.5 32t42.5 22.5t50.5 27.5t44.5 56.5t21 99.5
l29 823q3 80 -11 135.5t-37 81t-51 42.5t-52 22.5t-40 18t-16 32.5q0 10 7.5 19.5t17.5 9.5q9 0 47 -4t76 -4q21 0 87 4t103 4q15 0 23 -2t21.5 -15.5t27.5 -42.5l450 -983q14 -32 27 -32q8 0 19 17.5t14 25.5l475 991q4 8 7 17t14.5 16.5t29.5 7.5q27 0 66.5 -4t52.5 -4
q16 0 59 4t74 4q38 0 48.5 -5.5t10.5 -19.5q0 -20 -20.5 -29t-49.5 -16.5t-57.5 -22t-47.5 -55t-17 -106.5l35 -907q2 -63 18 -106.5t38 -62t47 -30.5t46 -15.5t35 -13t14 -26.5q0 -13 -4 -20t-19 -10.5t-28.5 -4t-46.5 -0.5q-30 0 -88 4t-88 4q-77 0 -146.5 -4t-82.5 -4
h-18.5h-19.5t-17 0.5t-16.5 2.5t-12 5.5t-9 9t-2.5 13.5q0 16 12 25.5t29.5 14t37 16t36.5 28.5t26.5 54.5t6.5 90.5l-31 620q-3 93 -16 93q-14 0 -64 -109l-387 -809q-1 -2 -5.5 -13t-6 -14t-6.5 -11t-9 -10.5t-11 -5.5t-15 -3q-6 0 -11.5 1.5t-10.5 6t-8 7.5t-6.5 10
t-5.5 10.5t-5 11.5t-4 10l-398 883l-6 12q-5 13 -8.5 18t-7.5 5q-14 0 -14 -52z" />
    <glyph glyph-name="N" unicode="N" horiz-adv-x="1705" 
d="M242 270v779q0 80 -12.5 138t-33 88t-45 48.5t-49 25.5t-45 12.5t-33 16t-12.5 29.5q0 35 35 35q19 0 57 -4t58 -4q19 0 86.5 4t128.5 4q24 0 35 -3.5t14.5 -8t10.5 -17t18 -24.5l823 -904q49 -53 63 -53q17 0 17 76v682q0 44 -18.5 76t-46.5 48t-60 28.5t-60 19.5
t-46.5 18t-18.5 27q0 35 33 35q3 0 76 -4t157 -4q57 0 107 2t79 4t33 2q39 0 39 -27q0 -14 -13 -23.5t-32 -14.5t-42 -17.5t-42 -30t-32 -54t-13 -87.5v-1149q0 -49 -8 -57q-5 -5 -16 -5q-29 0 -54 29l-985 1065q-24 27 -37 27q-16 0 -16 -33v-696q0 -80 14.5 -137.5
t37.5 -87.5t51 -47.5t56 -24t51 -11.5t37.5 -14.5t14.5 -28.5q0 -27 -71 -26h-7q-54 0 -131 4t-110 4q-34 0 -92 -4t-84 -4q-4 0 -15 -1t-18 -0.5t-15 2t-12 7.5t-4 16q0 22 20.5 37t49.5 28t57.5 32t49 59t20.5 98z" />
    <glyph glyph-name="O" unicode="O" horiz-adv-x="1593" 
d="M51 670q0 169 51 312.5t146 249.5t240 166.5t325 61.5q149 1 278.5 -46.5t224 -135.5t148.5 -220.5t54 -291.5q0 -67 -8.5 -134.5t-32 -147t-60 -150t-98 -137t-140 -114.5t-192 -77t-248.5 -29q-309 0 -498.5 190.5t-189.5 502.5zM303 786q0 -94 16 -190.5t53.5 -193.5
t93 -171.5t141.5 -120.5t192 -44q103 2 183.5 34.5t133 88t87 134.5t49 168t14.5 195q0 164 -43 298t-115.5 217.5t-164 128t-191.5 42.5q-101 -2 -179.5 -35.5t-128.5 -87.5t-82.5 -130.5t-45.5 -157.5t-13 -175z" />
    <glyph glyph-name="P" unicode="P" horiz-adv-x="1251" 
d="M479 1223v-951q0 -52 11.5 -90.5t29.5 -58.5t40 -33.5t44.5 -19.5t40.5 -11t29.5 -13.5t11.5 -22.5q0 -6 -1 -11t-2 -8.5t-5 -5.5t-5.5 -3.5t-7.5 -2t-8 -0.5h-10h-10q-84 0 -176.5 4t-102.5 4q-36 0 -96 -2t-106.5 -4t-49.5 -2q-43 0 -43 31q0 15 17 25.5t41 22.5t48 33
t41 69.5t17 119.5v901q0 60 -22 97t-53.5 49t-62.5 18t-53 15.5t-22 29.5q0 14 13 26.5t45 12.5q2 0 41 -2t105.5 -4t135.5 -2q11 0 60 1.5t123 3.5t137 3q81 1 154.5 -11t140.5 -41.5t115.5 -74.5t77 -114.5t28.5 -156.5q0 -188 -123 -299.5t-311 -111.5q-57 0 -99 5.5
t-62.5 13t-32.5 16.5t-14.5 14.5t-2.5 9.5q0 39 28 39q4 0 37.5 -6t59.5 -6q51 0 92.5 13.5t68.5 33.5t47.5 49t31 54.5t17.5 55.5t8.5 46.5t2.5 32.5q1 19 -2.5 45t-12.5 69t-32.5 82.5t-58 75.5t-94 58t-134.5 22q-68 0 -96.5 -31.5t-28.5 -101.5z" />
    <glyph glyph-name="Q" unicode="Q" horiz-adv-x="1593" 
d="M303 786q0 -95 16 -192t54 -195t93.5 -173.5t141.5 -123t191 -47.5q88 0 160 25t120 64t83.5 96t54.5 112t31 121t15 113.5t3 99.5q0 164 -43 298t-115.5 217.5t-164 128t-191.5 42.5q-101 -2 -179.5 -35.5t-128.5 -87.5t-82.5 -130.5t-45.5 -157.5t-13 -175zM897 -276
l-401 256q-2 1 -9.5 6t-12 7t-13.5 4.5t-19 2.5q-50 0 -86.5 -28t-55 -68t-31 -80t-22.5 -68t-22 -28q-21 0 -32 12t-13 25.5t-2 37.5q0 59 14 107.5t34 77t39.5 48.5t33.5 32.5t14 19.5q0 10 -27 37.5t-65.5 72.5t-77 106t-65.5 157.5t-27 208.5q0 169 51 312.5t146 249.5
t240 166.5t325 61.5q149 1 278.5 -46.5t224 -135.5t148.5 -220.5t54 -291.5q0 -104 -18 -197t-49 -162t-71 -128t-84 -100t-88.5 -74.5t-84.5 -55t-71 -36.5t-49 -24t-18 -14q0 -20 65 -63t153 -79t143 -36q40 0 74 14.5t56 29t33 14.5q19 0 19 -27q0 -13 -29.5 -45t-75 -67
t-110.5 -62t-125 -27q-40 0 -71.5 4.5t-92 27t-127.5 65.5z" />
    <glyph glyph-name="R" unicode="R" horiz-adv-x="1478" 
d="M487 1231v-414q0 -18 11.5 -29.5t36 -15.5t42 -5t48.5 -1q57 0 103 5t78.5 15t57 22t39.5 30.5t24.5 34.5t14 40.5t5.5 42.5t1 45q0 156 -85 254.5t-236 98.5q-30 0 -44.5 -1t-36.5 -7t-32.5 -18.5t-18.5 -36.5t-8 -60zM236 283v901q0 54 -16.5 91t-41.5 53.5t-54 27
t-54 14.5t-41.5 14t-16.5 27q0 15 13 23t32 8q43 0 107 -4t133 -4t207 4t207 4q92 0 168 -16.5t125.5 -42.5t87 -62.5t57.5 -71t32 -74t15.5 -65.5t3.5 -51q0 -157 -119 -256q-23 -19 -55 -37.5t-47.5 -29t-15.5 -19.5q0 -5 42.5 -81t138 -241t140.5 -245q18 -33 74 -33
q10 0 30.5 6t30.5 6q13 0 22 -8.5t9 -20.5q0 -44 -74 -76t-143 -32q-47 0 -87.5 16t-66 35.5t-55 59.5t-43 63.5t-39.5 73.5l-172 323q-35 67 -72 88t-114 21h-32t-24 -2.5t-17.5 -3.5t-11.5 -6.5t-7.5 -7.5t-3.5 -12t-1 -13.5v-18.5v-22v-355q0 -61 21 -98t50.5 -49
t59.5 -18t51 -14.5t21 -28.5q0 -31 -63 -31q-11 0 -69 4t-107 4q-57 0 -161.5 -4t-154.5 -4h-10.5h-12.5t-12 1t-12 3t-9 6t-7 10.5t-2 14.5q0 17 17 26.5t41.5 19t49 27.5t41.5 64.5t17 118.5z" />
    <glyph glyph-name="S" unicode="S" 
d="M172 131l-63 281q-1 3 -3.5 13.5t-3.5 16.5t-2 16.5t0.5 16.5t4.5 12.5t10 9.5t18 3q16 0 25 -6.5t12 -13.5t8 -25q26 -79 62 -144t86.5 -120.5t120 -87t151.5 -31.5q123 0 203 71t80 191q0 29 -4 52.5t-16.5 45t-24.5 37t-38.5 34t-47.5 30.5t-63.5 31.5t-73 33
t-89.5 38.5t-102 44q-74 33 -122 62t-91 72t-63.5 102t-20.5 137q0 178 112 292.5t291 114.5q73 0 138.5 -20t110.5 -40t67 -20q14 0 52 16.5t52 16.5q9 0 14.5 -3t8 -11.5t3.5 -15t1.5 -23t1.5 -25.5l22 -274q3 -37 -6 -53.5t-41 -16.5q-9 0 -20 21t-25 54.5t-33 74.5
t-50 81.5t-70.5 74t-99.5 54.5t-132 21q-103 0 -165 -57t-62 -158q0 -23 3.5 -41.5t14.5 -36t21 -30t33 -28t40.5 -25.5t53 -27t61.5 -28t75.5 -32.5t84.5 -36.5q73 -32 121.5 -58.5t96.5 -64t75.5 -80.5t44 -103.5t16.5 -137.5q0 -200 -127 -325.5t-329 -125.5
q-56 0 -113 12t-127.5 33.5t-108.5 30.5q-9 2 -15.5 4t-11.5 5.5t-8.5 5t-6.5 7t-5 7.5t-4 9.5t-2.5 11t-2.5 13.5z" />
    <glyph glyph-name="T" unicode="T" horiz-adv-x="1478" 
d="M614 260v950q0 71 -19.5 90t-84.5 19h-172q-64 0 -106 -27.5t-60 -67t-29.5 -79t-26.5 -67t-40 -27.5q-28 0 -31 25.5t4 45.5l33 271q0 1 0.5 7t1 7.5t1 7t1.5 7.5l3 6t4 6t5.5 4t7.5 3t9 1q81 0 272 -4t354 -4t354.5 4t272.5 4q5 0 9 -1t7.5 -3t5.5 -4t4 -6l3 -6
t1.5 -7.5t1 -7t1 -7.5t0.5 -7l22 -189q0 -3 2.5 -13.5t3.5 -18.5t2 -19.5t-0.5 -19.5t-4.5 -16.5t-10.5 -12.5t-18.5 -4q-19 0 -31 17t-18 42t-19.5 53.5t-31.5 53t-57 40t-95 13.5h-174q-65 0 -85 -19t-20 -90v-925q0 -59 19.5 -101.5t48.5 -62.5t63 -33.5t63 -18.5
t48.5 -13t19.5 -21q0 -8 -1 -14.5t-5 -11t-6.5 -7.5t-10 -5t-11.5 -3t-14 -1.5t-15 -0.5h-18h-19q-34 0 -123 4t-164 4t-163.5 -4t-122.5 -4h-22.5t-18 2t-17.5 6.5t-9.5 13t-4.5 21.5q0 18 17 27.5t43 12t55.5 12t55.5 24.5t43 53.5t17 95.5z" />
    <glyph glyph-name="U" unicode="U" horiz-adv-x="1705" 
d="M1497 1202v-463q0 -94 -8 -173.5t-28.5 -159t-54 -142.5t-86 -118t-123 -91t-167 -57t-215.5 -21q-291 0 -439.5 141t-148.5 435v668q0 49 -22 79t-53.5 41t-62.5 18t-53 18t-22 32q0 33 43 33q4 0 113.5 -4t169.5 -4t169 4t120 4q22 0 22 -29q0 -14 -9.5 -20.5
t-24.5 -10.5t-33.5 -9.5t-37 -21t-33.5 -41.5t-24.5 -76t-9.5 -118v-444q0 -100 11 -180.5t41.5 -156t79.5 -126t129.5 -81t187.5 -30.5q85 0 153.5 19.5t116.5 52t83 83.5t55.5 105.5t32.5 126t16 137t4 146.5v406q0 56 -18.5 95t-46.5 57t-61 31t-61 18.5t-46.5 16
t-18.5 27.5q0 9 3.5 15t10.5 7.5t13 2t17.5 -0.5t16.5 -1q118 -8 172 -8q30 0 234 8q20 0 28 -5.5t8 -21.5q0 -12 -10.5 -19t-26.5 -9.5t-34.5 -12.5t-34.5 -26t-26.5 -54t-10.5 -92z" />
    <glyph glyph-name="V" unicode="V" horiz-adv-x="1593" 
d="M1417 1255l-557 -1230q-18 -41 -28 -53.5t-27 -12.5q-16 0 -34 23t-44 84l-510 1191q-26 60 -55 84t-92 39q-9 3 -21 11.5t-12 17.5q0 14 6.5 22t18.5 10.5t22 3t25.5 -1t21.5 -1.5q34 0 103 -4t104 -4q78 0 148.5 4t74.5 4h10q45 0 55.5 -4.5t10.5 -28.5
q0 -18 -19 -28.5t-42.5 -15t-42.5 -21.5t-19 -46q0 -91 78 -282l266 -660q18 -43 29 -43q3 0 6.5 3t6.5 8.5t5 10t4.5 11.5t3.5 10l281 623q66 148 66 242q0 45 -15.5 75.5t-38.5 43t-49.5 20.5t-49.5 11t-38.5 12.5t-15.5 25.5q0 8 3 14t9.5 9.5t12.5 6t16 3t15 0.5h15.5
h12.5q29 0 88 -4t88 -4t86 4t86 4h17.5h16t12.5 -0.5t11 -2.5t7 -5t5.5 -8.5t1.5 -12.5q0 -15 -14.5 -27.5t-34 -23t-46 -38.5t-44.5 -69z" />
    <glyph glyph-name="W" unicode="W" horiz-adv-x="2048" 
d="M467 1198l268 -801q18 -57 29 -57q13 0 22 18l215 455q4 10 14 31t14.5 33t4.5 18q0 9 -6 27t-14.5 41.5t-12.5 35.5l-102 297q-12 32 -36.5 50.5t-47 22.5t-40 13.5t-17.5 26.5t14.5 25t28.5 8q5 0 65 -4t135 -4q79 0 132 2t77.5 4t34.5 2q47 0 47 -27q0 -21 -18 -34
t-39 -19t-39 -21.5t-18 -40.5q0 -26 24 -102l238 -717q3 -11 9.5 -32.5t10 -31.5t8.5 -23t10 -18t11 -5q1 0 2.5 1.5t3.5 4.5t3.5 6.5t4 9.5t5 11.5t5.5 14.5t6 17t7 19.5t8 21.5l209 606q20 59 20 158q0 44 -19.5 71.5t-47 38t-55 16.5t-47 13.5t-19.5 22.5q0 20 11 29.5
t40 9.5q6 0 68 -4t100 -4q79 0 131.5 4t61.5 4q36 0 36 -25q0 -16 -11 -25t-26.5 -15t-37.5 -33.5t-39 -73.5l-461 -1270q-8 -23 -16.5 -32t-26.5 -9q-19 0 -28.5 12.5t-22.5 48.5l-262 723q-6 15 -17 15t-16 -15l-350 -743q-8 -23 -16.5 -32t-26.5 -9q-19 0 -29 12.5
t-23 48.5l-450 1276q-12 32 -36.5 50.5t-47 22.5t-40 13.5t-17.5 26.5t14.5 25t28.5 8q5 0 65 -4t135 -4q79 0 132 2t77.5 4t34.5 2q47 0 47 -27q0 -21 -18 -34t-39.5 -19t-39.5 -21.5t-18 -40.5q0 -22 25 -102z" />
    <glyph glyph-name="X" unicode="X" horiz-adv-x="1478" 
d="M223 164l340 420q6 8 16 20.5t16 20.5t13 17t10 15.5t3 10.5q0 15 -64 110l-219 334q-57 87 -111.5 144t-89.5 77t-62 31t-39.5 20t-12.5 29q0 16 10 22.5t37 6.5q12 0 96.5 -4t175.5 -4t168 4t92 4q21 0 31 -5t11 -8.5t1 -11.5q0 -17 -18.5 -29.5t-40 -20t-40 -25
t-18.5 -42.5q0 -21 27 -69l195 -316q22 -36 36 -36q4 0 8.5 3t10 9t9.5 11t10.5 13.5t9.5 12.5l167 215q48 62 64 92t16 59q0 30 -24 48.5t-53.5 24.5t-53.5 16t-24 26q0 33 41 33q53 0 121 -4t92 -4q26 0 97 4t126 4q26 0 35.5 -7.5t9.5 -25.5q0 -13 -14.5 -20t-42 -16.5
t-60.5 -25t-78.5 -52.5t-87.5 -91l-243 -311q-7 -8 -19.5 -23t-19 -23.5t-14.5 -19.5t-11.5 -19t-3.5 -15q0 -8 2 -16t4.5 -13.5t9.5 -16.5t10.5 -16t14.5 -20.5t16 -22.5l312 -448q44 -64 91 -107t76.5 -56.5t48.5 -26.5t19 -27q0 -20 -20.5 -25.5t-85.5 -5.5
q-14 0 -76 4.5t-119 3.5q-208 -8 -235 -8h-12h-12.5t-11 0.5t-10.5 2.5t-7 5t-5.5 8t-1.5 12q0 20 17.5 32t39 17t39 20.5t17.5 41.5q0 49 -49 117l-187 264q-7 10 -17 24t-15.5 21.5t-11 15.5t-9.5 11.5t-6 3.5t-5.5 -3t-9.5 -11.5t-12 -16.5t-18 -23.5t-21 -27.5
l-168 -221q-69 -94 -69 -144q0 -30 19 -47.5t46 -23.5t54 -10t46 -14t19 -30q0 -24 -53 -24q-55 0 -123.5 4t-91.5 4q-34 0 -100 -4t-99 -4q-7 0 -17.5 -0.5t-16 -0.5t-13.5 0.5t-12 2t-8 3.5t-5.5 6.5t-1.5 10.5q0 16 20 28.5t48 23t67 36.5t68 62z" />
    <glyph glyph-name="Y" unicode="Y" horiz-adv-x="1366" 
d="M551 649l-324 606q-22 41 -51.5 66.5t-55 35.5t-48.5 16.5t-36 16t-13 27.5q0 17 15 21t56 4q10 0 70 -4t119 -4q174 0 299 8q34 2 34 -27q0 -15 -17.5 -25.5t-38.5 -16t-38.5 -20t-17.5 -38.5q0 -37 28 -94l185 -381q27 -56 39.5 -75.5t23.5 -19.5q17 0 51 62l187 338
q37 66 37 112q0 37 -20.5 61t-50 34t-58.5 16t-49.5 16t-20.5 27q0 31 39 31q4 0 58.5 -4t117.5 -4q90 0 155 4t81 4q36 0 36 -23q0 -17 -17 -29.5t-43.5 -25.5t-69 -60.5t-83.5 -123.5l-268 -508q-16 -33 -21 -55t-5 -74v-305q0 -52 14 -87.5t36 -51.5t48.5 -24t53.5 -9.5
t49 -4.5t36 -13.5t14 -31.5q0 -11 -10 -16.5t-21.5 -6.5t-33.5 -1l-24 2q-25 2 -96.5 4t-184.5 2q-108 0 -198 -4t-103 -4q-56 0 -56 22q0 21 16.5 32t41.5 13.5t54 12t54 25t41.5 56t16.5 101.5v266q0 48 -6 70t-27 59z" />
    <glyph glyph-name="Z" unicode="Z" horiz-adv-x="1251" 
d="M121 1178l33 264q8 0 154.5 -4t230.5 -4q106 2 270 4t268 4q68 0 75 -3q9 -4 9 -18q0 -11 -14.5 -39t-54.5 -98q-11 -19 -17 -29l-608 -1056q0 -1 -6 -11t-10.5 -19t-8.5 -19.5t-4 -16.5q0 -37 189 -37q104 0 186.5 15t133 38.5t88 52t58 57.5t35.5 52.5t28 38.5t28 15
q22 0 22 -46q0 -81 -36 -155.5t-103.5 -123t-148.5 -48.5q-182 0 -347 4t-190 4q-48 0 -148 -4t-122 -4q-23 0 -31 2t-8 12t13 35.5t36.5 63t28.5 47.5l602 1038q41 67 41 94q0 20 -15 31.5t-53 16t-60.5 5t-80.5 0.5h-12.5h-11.5h-13q-90 0 -155.5 -13.5t-100 -35
t-56.5 -47.5t-30 -52.5t-14.5 -48t-17 -35t-30.5 -13.5q-23 0 -25.5 30.5t3.5 55.5z" />
    <glyph glyph-name="bracketleft" unicode="[" horiz-adv-x="681" 
d="M129 -274v1800h479v-76h-176q-71 0 -94 -13.5t-23 -66.5v-1489q0 -53 23 -66.5t94 -13.5h176v-75h-479z" />
    <glyph glyph-name="backslash" unicode="\" horiz-adv-x="1241" 
d="M137 1526h205l762 -1792h-205z" />
    <glyph glyph-name="bracketright" unicode="]" horiz-adv-x="681" 
d="M541 1526v-1800h-480v75h177q70 0 93 13.5t23 66.5v1489q0 53 -23 66.5t-93 13.5h-177v76h480z" />
    <glyph glyph-name="asciicircum" unicode="^" horiz-adv-x="1241" 
d="M301 608h-195l422 826h185l422 -826h-195l-319 602z" />
    <glyph glyph-name="underscore" unicode="_" horiz-adv-x="1024" 
d="M0 -154h1024v-102h-1024v102z" />
    <glyph glyph-name="grave" unicode="`" horiz-adv-x="681" 
d="M496 985h-95l-284 180q-3 2 -14 8.5t-15 9.5t-13.5 9t-13 10t-10.5 11t-10.5 13t-7 13.5t-5 16t-1.5 18.5q0 17 22.5 44.5t59.5 27.5t116 -82q14 -13 21 -21z" />
    <glyph glyph-name="a" unicode="a" horiz-adv-x="909" 
d="M526 168v199v25q1 30 -1.5 39t-12.5 9q-32 0 -72 -13.5t-78.5 -38t-65 -66t-26.5 -89.5q0 -135 109 -135q44 0 95.5 19.5t51.5 50.5zM743 578v-353q0 -81 9 -104t47 -23q14 0 36.5 5.5t28.5 5.5q10 0 16.5 -5.5t6.5 -13.5q0 -31 -72 -72t-127 -41q-34 0 -60 13t-40 34
t-21.5 39.5t-11.5 38.5q-68 -55 -153 -90t-166 -35q-85 0 -139 54t-54 139q0 37 8.5 69.5t21 57.5t35.5 47.5t43.5 38.5t54 31.5t58.5 25.5t65 21t65 17t67.5 16.5t64.5 15.5q0 50 -2 84t-7.5 71.5t-17.5 61.5t-31 44.5t-48.5 30t-69.5 9.5q-58 0 -76 -22t-18 -93
q0 -27 -14.5 -46.5t-32 -29t-42 -14.5t-35.5 -5.5t-21 -0.5q-54 0 -54 43q0 51 25.5 92.5t65 67.5t91 44t99.5 25t94 7q159 0 235 -73t76 -228z" />
    <glyph glyph-name="b" unicode="b" horiz-adv-x="1024" 
d="M354 627v-365q0 -49 16.5 -88t41 -61t55 -37t54.5 -20t44 -5q49 0 87 18.5t61 48t37.5 70.5t20 80.5t5.5 83.5q0 49 -9 100t-30 102.5t-51 92t-75.5 65.5t-100.5 25q-53 0 -104.5 -30.5t-51.5 -79.5zM137 166v1073q0 36 -9.5 57.5t-23.5 28.5t-30.5 10.5t-30.5 4t-23.5 8
t-9.5 24.5q0 16 11 24t36.5 15t57 15.5t83 30.5t103.5 54q25 15 35 15q5 0 8.5 -2.5t5.5 -6.5t3 -9t1 -11v-10.5v-10v-6.5v-729q138 138 275 138q101 0 176.5 -54t112 -138.5t36.5 -184.5q0 -242 -121 -383.5t-311 -141.5q-64 0 -117.5 13.5t-80.5 29.5t-49 29.5t-31 13.5
q-13 0 -28 -21.5t-33.5 -43t-37.5 -21.5q-22 0 -22 23q0 4 3.5 24.5t7 58t3.5 83.5z" />
    <glyph glyph-name="c" unicode="c" horiz-adv-x="909" 
d="M51 387q0 206 141 349t347 143q31 0 70.5 -8t84 -24t74 -48t29.5 -74q0 -27 -62 -76t-90 -49q-18 0 -27 31q-22 85 -57 126.5t-112 41.5q-56 0 -96 -24.5t-60 -66.5t-28.5 -86.5t-8.5 -97.5q0 -102 34 -195.5t104.5 -158t162.5 -64.5q41 0 85.5 17t74.5 37.5t57 37.5
t37 17q20 0 20 -25q0 -20 -31 -55t-80 -70.5t-123 -61.5t-148 -26q-174 0 -286 117t-112 293z" />
    <glyph glyph-name="d" unicode="d" horiz-adv-x="1024" 
d="M647 258v410q-38 62 -96.5 98.5t-128.5 36.5q-58 0 -99 -29.5t-61.5 -78.5t-29.5 -98.5t-9 -102.5q0 -52 16 -114.5t46 -122t80.5 -99t111.5 -39.5q90 0 144 45q10 8 15.5 16t8 19t3 15.5t0 21.5t-0.5 22zM647 827v412q0 36 -10 57.5t-25.5 28.5t-33 10.5t-33 4t-25.5 8
t-10 24.5q0 23 31 32t110.5 33.5t159.5 73.5q25 15 35 15q5 0 8.5 -1t5.5 -4.5t3 -6t1 -8.5v-10.5v-12.5v-13v-1245q0 -47 14 -73.5t34 -33t40.5 -8.5t34.5 -8t14 -24t-35.5 -28.5t-102 -22.5t-105.5 -25q-77 -25 -84 -25q-19 0 -23 25t-4 111q-133 -136 -289 -136
q-68 0 -123 24t-90.5 65t-59.5 94t-33.5 112t-8 118t13.5 114q16 75 51 142t86 119.5t120.5 83t146.5 30.5q49 0 104.5 -13t81.5 -39z" />
    <glyph glyph-name="e" unicode="e" horiz-adv-x="909" 
d="M819 494h-504q-6 0 -16 1t-12.5 0.5t-7.5 -2.5t-6 -8t-2 -16t-1 -27q0 -136 86.5 -236t216.5 -100q41 0 85.5 17t74.5 37.5t57 37.5t37 17q21 0 21 -25q0 -20 -31 -55t-80.5 -70.5t-123.5 -61.5t-148 -26q-78 0 -149 25t-129 74t-92 129t-34 182q0 72 15.5 142
t48.5 133.5t79.5 111.5t112 76.5t142.5 28.5q78 0 144.5 -25.5t109.5 -64t73.5 -85.5t44 -89t13.5 -76q0 -21 -4.5 -31.5t-8.5 -12t-12 -1.5zM279 565h296q17 0 23 1t13.5 6t9.5 16.5t2 32.5q0 43 -19 86.5t-63.5 77.5t-104.5 34q-84 0 -126 -66t-42 -149q0 -39 11 -39z" />
    <glyph glyph-name="f" unicode="f" horiz-adv-x="681" 
d="M45 852h76q63 0 63 31q0 7 2 40.5t3 45.5l3.5 42t6 47t8 42.5t11 47.5t15.5 44q21 55 53 107t74.5 99.5t98 76t114.5 28.5q109 0 109 -67q0 -36 -20.5 -97t-47.5 -61q-11 0 -20 16.5t-15.5 36.5t-25 36.5t-47.5 16.5q-20 0 -36 -8t-26 -18t-17 -29.5t-10 -33t-5 -38.5
t-2 -35.5v-33.5v-301q0 -4 -0.5 -10.5t-0.5 -10t1.5 -7.5t4.5 -5.5t9 -1.5h143q16 0 26 7t13 15.5t10 15.5t17 7q12 0 12 -14q0 -6 -5 -20.5t-13 -33.5t-9 -22q-4 -9 -9.5 -28.5t-12 -28.5t-18.5 -9h-138q-18 0 -24 -10.5t-6 -38.5v-497q0 -44 12.5 -72.5t32 -39t41.5 -17
t41.5 -8.5t32 -12t12.5 -28q0 -16 -9 -21t-28 -5q-11 0 -88 4t-135 4q-45 0 -116 -4t-87 -4t-22.5 5.5t-6.5 22.5q0 20 16 29t35.5 11.5t35.5 20.5t16 54v531q0 16 -0.5 25.5t-3.5 23t-11 20t-20 6.5h-113v111z" />
    <glyph glyph-name="g" unicode="g" horiz-adv-x="909" 
d="M723 -193q0 68 -74 83.5t-350 15.5q-39 0 -60.5 -31t-21.5 -72q0 -48 21.5 -81t58.5 -48.5t72.5 -21.5t76.5 -6q47 0 89 6t88 22t73 50t27 83zM592 563q0 47 -8.5 89t-27.5 81.5t-55 62.5t-85 23q-15 0 -31 -3t-41 -17t-43 -38t-31.5 -71t-13.5 -110q0 -41 9 -82
t27.5 -79t53 -61.5t78.5 -23.5q47 0 81 19.5t52.5 53.5t26.5 72.5t8 83.5zM377 -416q-32 0 -66.5 3t-83 14t-86 29.5t-64 53t-26.5 80.5q0 35 14 64t34 46t43 29t39 16.5t24 4.5q-1 0 -9.5 8t-13 12t-14 14.5t-15 20t-13.5 24.5t-12.5 30.5t-7.5 36t-3 43.5q0 119 108 196
q-62 39 -94.5 69t-53 77.5t-20.5 113.5q0 143 104.5 226.5t262.5 83.5q61 0 118.5 -18t101 -36t69.5 -18q41 0 69 20t38.5 44.5t20.5 44.5t19 20q23 0 23 -55q0 -47 -5 -83t-10 -56t-18 -36.5t-18 -21t-21.5 -13t-17.5 -9.5q1 -12 1 -17v-7v-11.5t1 -26.5q1 -42 -8.5 -83.5
t-36 -85t-68 -76.5t-110 -54.5t-156.5 -21.5q-14 0 -48.5 2t-56.5 2q-43 0 -64.5 -25t-21.5 -65q0 -23 2 -35t13 -24t28.5 -17t55.5 -9t86 -5t127 -1q105 0 175 -15t106.5 -44.5t50.5 -65t14 -86.5q0 -87 -54 -155.5t-137 -100.5q-85 -33 -147 -42t-168 -9z" />
    <glyph glyph-name="h" unicode="h" 
d="M967 522v-356q0 -33 9.5 -55t23.5 -31.5t30.5 -16.5t30.5 -11.5t23.5 -14.5t9.5 -27q0 -8 -6 -13t-13 -5q-37 0 -111.5 4t-111.5 4q-23 0 -78 -4t-92 -4q-1 0 -7 -0.5t-9 0t-8 2t-7 6t-2 12.5q0 12 16 25.5t34.5 25.5t34.5 40.5t16 66.5v299q0 45 -4 82t-17 75.5
t-34.5 64.5t-58.5 42.5t-87 16.5q-70 0 -139 -58q-4 -3 -12 -10t-10 -8.5t-6.5 -6.5t-5.5 -8t-2.5 -8.5t-2 -11t-0.5 -14.5v-443q0 -39 16.5 -65.5t40.5 -38t47.5 -19.5t40 -18t16.5 -25q0 -7 -2 -11.5t-6.5 -7.5t-9.5 -4.5t-14 -1.5h-16.5t-20.5 0.5t-23 0.5q-30 0 -91 4
t-118 4q-33 0 -70 -4t-55 -4h-6h-8h-8.5t-9.5 1t-9 1.5t-8 2.5l-6 4t-4.5 5.5t-1.5 7.5q0 17 17 28.5t37.5 17.5t37.5 24.5t17 48.5v1124q0 41 -21 60.5t-47 20.5t-47 8t-21 26q0 11 3.5 16.5t16.5 11t27.5 9.5t48 14t66.5 21q53 15 90 31.5t50 26.5t24.5 17t22.5 7
q8 0 11 -6.5t2 -21.5t-3 -33t-4 -49.5t-2 -61.5v-625h4q54 68 127.5 109t154.5 41q151 0 230.5 -90t79.5 -267z" />
    <glyph glyph-name="i" unicode="i" horiz-adv-x="569" 
d="M176 131v524q0 33 -20.5 48.5t-45 16.5t-45 8t-20.5 26q0 6 1 10t4 8t5.5 6.5t8.5 5.5t10.5 4.5t14 4t16.5 4t20 5t22 5.5q58 13 103 30t64 29t33.5 20.5t21.5 8.5q12 0 17.5 -5.5t6 -12t0.5 -23.5v-690q0 -36 15.5 -58t37.5 -30t44 -13.5t37.5 -15.5t15.5 -29
q0 -9 -5.5 -15t-18 -8.5t-19.5 -3t-23.5 0t-17.5 0.5q-33 0 -97.5 4t-97.5 4q-24 0 -74.5 -4t-76.5 -4q-5 0 -16 -0.5t-15 0t-11 1.5t-9.5 4t-4.5 8.5t-2 14.5q0 17 19 26t41.5 13t41.5 22t19 50zM422 1212q0 -25 -55 -93t-80 -68q-24 0 -79.5 68.5t-55.5 92.5
q0 25 55.5 94.5t79.5 69.5q25 0 80 -69.5t55 -94.5z" />
    <glyph glyph-name="j" unicode="j" horiz-adv-x="569" 
d="M180 -117v772q0 33 -20.5 48.5t-45 16.5t-45 8t-20.5 26q0 5 1 9.5t4 8.5t5.5 6.5t8.5 5.5t11 4.5t14.5 4t16.5 4t20 5t22 5.5q58 13 102.5 30t63.5 29t33.5 20.5t21.5 8.5q12 0 17.5 -5.5t6 -12t0.5 -23.5v-762q0 -91 -24 -174.5t-62.5 -142.5t-85 -103.5t-92.5 -66
t-84 -21.5q-85 0 -104 37q-11 32 -11 70q0 47 9.5 91t33.5 44q11 0 27.5 -19t32 -42.5t39 -42.5t45.5 -19q21 0 34 14.5t18 45t6 51t1 57.5v12zM426 1212q0 -25 -55 -93t-80 -68q-24 0 -79.5 68.5t-55.5 92.5q0 25 55.5 94.5t79.5 69.5q25 0 80 -69.5t55 -94.5z" />
    <glyph glyph-name="k" unicode="k" 
d="M162 186v1071q0 41 -21 60.5t-46.5 20.5t-46.5 8t-21 26q0 11 3.5 16.5t16.5 11t27 9.5t47.5 14t66.5 21q53 15 90 31.5t50 26.5t24.5 17t22.5 7q8 0 11 -6.5t2 -21.5t-3 -33t-4 -49.5t-2 -61.5v-889l287 248q9 8 15 14t8 11t2 8t-0.5 7t-0.5 5q0 12 -15.5 20t-33.5 12
t-33.5 12.5t-15.5 22.5q0 9 2 15t3.5 9.5t7.5 5t8.5 2t12.5 0t13 -0.5q29 0 85 -4t85 -4q27 0 83.5 4t84.5 4q47 0 47 -20q0 -29 -55 -43q-71 -18 -154.5 -67.5t-134.5 -94t-51 -58.5q0 -48 106 -197t203 -261q25 -29 66 -43.5t67.5 -22.5t26.5 -24t-10 -23.5t-21 -8.5
t-36 -1h-7q-17 0 -53.5 4t-55.5 4q-12 0 -49.5 -4t-64.5 -4h-1q-6 0 -10.5 0.5t-17.5 8.5t-28 23t-40.5 47t-56.5 76l-192 281l-76 -63v-185q0 -40 15.5 -67.5t37.5 -39.5t44.5 -19.5t38 -15.5t15.5 -20q0 -15 -8.5 -20.5t-34.5 -5.5q-18 0 -107 4t-122 4q-24 0 -92.5 -4
t-89.5 -4q-35 0 -35 20q0 17 12.5 23.5t30.5 10t35.5 13.5t30 41.5t12.5 85.5z" />
    <glyph glyph-name="l" unicode="l" horiz-adv-x="569" 
d="M168 186v1071q0 41 -21 60.5t-46.5 20.5t-46.5 8t-21 26q0 11 3.5 16.5t16.5 11t27.5 9.5t48 14t66.5 21q53 15 90 31.5t50 26.5t24 17t22 7q8 0 11 -6.5t2 -21.5t-3 -33t-4 -49.5t-2 -61.5v-1174q0 -40 15.5 -67.5t38 -39.5t45 -19.5t38 -15.5t15.5 -20
q0 -15 -8.5 -20.5t-34.5 -5.5q-18 0 -107.5 4t-122.5 4q-24 0 -92.5 -4t-89.5 -4q-35 0 -35 20q0 17 12.5 23.5t30.5 10t35.5 13.5t30 41.5t12.5 85.5z" />
    <glyph glyph-name="m" unicode="m" horiz-adv-x="1593" 
d="M905 547v-379q0 -46 21 -71t45.5 -30t45.5 -14.5t21 -27.5q0 -33 -30 -33q-13 0 -68.5 4t-108.5 4q-68 0 -125 -4t-61 -4q-37 0 -37 26q0 15 12.5 25.5t27.5 18t27.5 30.5t12.5 60v362q0 71 -12 119.5t-35 73t-50 34t-65 9.5q-43 0 -75 -14.5t-47 -36t-22 -39.5t-7 -31
v-465q0 -36 14 -58t34 -30t40.5 -13.5t34.5 -15.5t14 -29q0 -9 -4.5 -15t-14.5 -8.5t-16 -3t-21 0t-16 0.5q-33 0 -97 4t-97 4q-26 0 -74 -4t-68 -4q-6 0 -15.5 -0.5t-12.5 0t-8.5 1.5t-6.5 4t-2.5 8.5t-1.5 14.5q0 17 16 26t34.5 13t34.5 22t16 50v524q0 33 -20.5 48.5
t-45 16.5t-45 8t-20.5 26q0 6 1 10t4 8t5.5 6.5t8.5 5.5t10.5 4.5t14 4t16.5 4t20 5t22 5.5q58 13 102.5 30t63.5 29t33.5 20.5t21.5 8.5q17 0 21 -8.5t4 -32.5v-102q123 127 262 127q141 0 240 -142q43 58 114.5 100t161.5 42q69 0 120 -18t82 -48.5t49.5 -78.5t25 -101
t6.5 -123v-346q0 -33 13.5 -54t32 -29.5t37.5 -14.5t32.5 -15t13.5 -24q0 -6 -1 -11.5t-3.5 -9t-4.5 -6t-7.5 -4t-8 -2.5t-9 -1.5t-9 -0.5h-10h-9.5q-21 0 -62 4t-61 4q-42 0 -113.5 -4t-82.5 -4q-27 0 -37 6t-10 25q0 11 13 22t28 19t28 23t13 34v368q0 40 -1 63t-5.5 59.5
t-15 58.5t-28 44.5t-46.5 33t-68 10.5q-24 0 -45 -5.5t-35.5 -14t-26 -21.5t-19 -26t-12.5 -29.5t-7.5 -29t-4 -29t-1.5 -25v-20.5z" />
    <glyph glyph-name="n" unicode="n" 
d="M162 188v467q0 33 -20.5 48.5t-45 16.5t-45 8t-20.5 26q0 6 1 10t4 8t5.5 6.5t8.5 5.5t10.5 4.5t14 4t16.5 4t20 5t22 5.5q58 13 102.5 30t63.5 29t33.5 20.5t21.5 8.5q17 0 21 -8.5t4 -32.5v-117h4q41 67 114.5 104.5t164.5 37.5q64 0 117 -20.5t88.5 -56t59.5 -84.5
t35 -104t11 -116v-332q0 -44 20 -70t43.5 -33t43.5 -16.5t20 -23.5q0 -18 -10 -24.5t-37 -6.5q-36 0 -95.5 4t-78.5 4q-29 0 -85 -4t-65 -4q-7 0 -18 -0.5t-17 -1t-13 0.5t-10.5 4t-6 8.5t-2.5 14.5q0 11 14.5 24.5t32.5 24.5t32.5 32.5t14.5 47.5v349q0 53 -10 95.5
t-32.5 78.5t-62.5 55.5t-96 19.5q-96 0 -136 -50t-40 -146v-379q0 -33 17 -55.5t41.5 -33.5t49 -18.5t41.5 -17t17 -22.5q0 -31 -64 -31q-1 0 -69.5 4t-130.5 4q-37 0 -106.5 -4t-98.5 -4q-23 0 -23 22q0 16 11 24t27.5 14.5t32.5 17.5t27 41t11 77z" />
    <glyph glyph-name="o" unicode="o" horiz-adv-x="1024" 
d="M483 813q-52 0 -90 -17t-60.5 -43.5t-36.5 -67.5t-19 -79t-7 -88q-2 -44 5.5 -101t28 -122.5t52 -119.5t84 -90t117.5 -36q207 0 207 258q0 54 -7.5 116t-28 133t-51 126.5t-81 93t-113.5 37.5zM971 451q0 -210 -132.5 -342t-344.5 -132q-189 0 -315 118.5t-126 305.5
q0 203 131 340.5t334 137.5q195 0 324 -118.5t129 -309.5z" />
    <glyph glyph-name="p" unicode="p" horiz-adv-x="1024" 
d="M360 662v-486q0 -3 8.5 -15.5t26.5 -31t42 -36t60 -30t74 -12.5q59 0 102.5 26t66 71t32.5 93.5t10 104.5q0 45 -9 95t-30.5 103t-52 95t-77 69t-101.5 27q-40 0 -81.5 -20.5t-70.5 -52.5zM360 16v-252q0 -41 17.5 -66t42 -34t49 -14t42 -13.5t17.5 -25.5q0 -27 -43 -27
q-38 0 -90.5 4t-93.5 4q-76 0 -133.5 -4t-63.5 -4h-15.5t-12 1.5t-11.5 4.5t-5 9t-3 16q0 15 13.5 23.5t29.5 12t29.5 19t13.5 41.5v897q0 36 -9.5 57.5t-23.5 28.5t-30.5 10.5t-30.5 4t-23.5 8t-9.5 24.5q0 16 11 24.5t36.5 15.5t57 15.5t83 30.5t103.5 54q23 14 35 14
q5 0 8.5 -2.5t5.5 -6.5t3 -8.5t1 -10.5v-10.5v-10v-6.5v-103q124 142 275 142q81 0 145.5 -32t103.5 -85.5t59 -120t20 -139.5q0 -79 -14.5 -152t-48.5 -141.5t-84.5 -119.5t-127.5 -81.5t-172 -30.5q-80 0 -156 39z" />
    <glyph glyph-name="q" unicode="q" horiz-adv-x="1024" 
d="M649 184v504q-51 57 -102.5 87t-118.5 30q-21 0 -44 -7t-52 -28t-51.5 -54t-38 -92t-15.5 -135q0 -53 16 -115t46 -120.5t81 -97.5t113 -39q102 0 166 67zM649 -236v345q-129 -129 -293 -132q-78 -1 -139.5 33.5t-97 92t-54 125t-18.5 137.5q0 102 27.5 193t79 163.5
t135 115t186.5 42.5q67 0 132.5 -20.5t150.5 -59.5q8 11 16.5 23t14 19t11 15.5t9 12.5t7.5 9t6.5 7.5t5.5 4.5t6 3t5.5 1.5t6.5 0.5q10 0 15 -5t6 -10t0 -16.5t-1 -13.5v-1139q0 -26 14 -41.5t30 -19t30 -12t14 -23.5t-8 -22.5t-15 -8t-26 -0.5q-6 0 -63 4t-133 4
q-41 0 -94 -4t-91 -4q-43 0 -43 27q0 17 17.5 25.5t42 13.5t49 14t42 34t17.5 66z" />
    <glyph glyph-name="r" unicode="r" horiz-adv-x="796" 
d="M393 485v-272q0 -52 19.5 -85t48 -45t56.5 -18.5t47.5 -14t19.5 -23.5q0 -12 -8 -23.5t-23 -11.5q-22 0 -110 4t-124 4q-54 0 -120 -4t-86 -4t-27.5 4t-7.5 16q0 17 10 26t24.5 15t29 16t24.5 36.5t10 68.5v481q0 33 -20.5 48.5t-45 16.5t-45 8t-20.5 26q0 6 1 10t4 8
t5.5 6.5t8.5 5.5t10.5 4.5t14 4t16.5 4t20 5t22 5.5q58 13 103 30t64 29t33.5 20.5t21.5 8.5q12 0 17.5 -5.5t6 -12t0.5 -23.5v-158q77 91 128.5 137t86.5 46q38 0 100 -50.5t62 -80.5q0 -55 -38.5 -114t-67.5 -59q-13 0 -27.5 13t-27.5 28t-42 28t-67 13q-107 0 -107 -172z
" />
    <glyph glyph-name="s" unicode="s" horiz-adv-x="796" 
d="M641 827l14 -170q0 -12 -5.5 -16t-20.5 -4q-11 0 -23 18.5t-29 44.5t-40.5 52t-65.5 44.5t-96 18.5q-56 0 -92.5 -26t-36.5 -78q0 -24 8 -42t18 -30t37 -25.5t45.5 -21t64.5 -24.5t75 -29q73 -29 117 -60t72 -84.5t28 -128.5q0 -63 -21.5 -114t-56.5 -83t-81.5 -53
t-94 -30t-97.5 -9q-62 0 -141 12.5t-115 33.5q-9 5 -12 8t-5.5 10.5t-2.5 21.5l6 211q2 35 37 35q8 0 18 -20.5t20.5 -51t31 -66.5t46.5 -66.5t68.5 -51t94.5 -20.5q65 0 106 39.5t41 103.5q0 29 -15 52t-64 51.5t-77.5 42.5t-118.5 53q-7 4 -12 6l-10 4q-88 38 -124 87
t-36 140q0 70 27.5 123.5t75.5 84t106 45t125 14.5q35 0 122.5 -15t88.5 -37z" />
    <glyph glyph-name="t" unicode="t" horiz-adv-x="681" 
d="M164 207v532h-64q-26 0 -39.5 10t-13.5 21q0 21 8.5 33t37 33t46.5 38q42 40 78 80.5t55.5 67.5t35.5 49t27 32.5t21 10.5q11 0 18 -7.5t7 -14.5v-220q0 -9 7.5 -14t15 -5.5t22.5 -0.5h141q16 0 26 7t13 15.5t10 15.5t17 7q12 0 12 -14q0 -6 -5 -20.5t-13 -33.5t-9 -22
q-4 -9 -9.5 -28.5t-12 -28.5t-18.5 -9h-197v-534q0 -59 19 -86t75 -27q45 0 80.5 12.5t56 24.5t27.5 12q23 0 23 -30q0 -14 -21.5 -36t-57.5 -45t-91.5 -39t-114.5 -16q-34 0 -62.5 5.5t-49 13t-37 21.5t-27 25t-18 30.5t-11.5 30t-6 31.5t-2.5 28t0.5 26v19z" />
    <glyph glyph-name="u" unicode="u" 
d="M952 834v-674q0 -43 24.5 -62.5t54.5 -19.5t54.5 -5.5t24.5 -23.5q0 -10 -2 -16t-8.5 -9t-10.5 -4t-15 -2t-15 -2l-309 -39q-15 30 -15 138q-3 -2 -38.5 -34t-61.5 -49.5t-80.5 -36t-114.5 -18.5q-71 0 -122.5 19.5t-81.5 50.5t-47.5 79t-23 94.5t-5.5 107.5v348
q0 33 -20.5 48.5t-45 16t-45 7.5t-20.5 26q0 25 37 33.5t108.5 17.5t122.5 29q12 5 24.5 12t19 10t11.5 3q17 0 21 -10t4 -35v-519q0 -105 38.5 -157t139.5 -52q67 0 123.5 36.5t56.5 97.5v436q0 33 -20.5 48.5t-45 16t-45 7.5t-20.5 26q0 25 37 33.5t108.5 17.5t122.5 29
q10 4 20 9.5t15.5 8.5t11 5t9.5 2q12 0 17.5 -6.5t6 -13.5t0.5 -25z" />
    <glyph glyph-name="v" unicode="v" horiz-adv-x="1024" 
d="M377 719l176 -418q0 -1 5.5 -13t12 -21t13.5 -9q10 0 34 49l123 244q58 108 58 158q0 33 -20.5 51t-45 21.5t-45 12.5t-20.5 27q0 23 14 29t51 6q22 0 64.5 -4t62.5 -4q14 0 47.5 4t55.5 4q43 0 43 -25q0 -13 -10 -23t-23 -17t-30 -23t-28 -39l-374 -731q-2 -3 -5.5 -11
t-4.5 -10.5t-4 -7t-5.5 -6t-6.5 -3t-9 -1.5q-4 0 -7 1t-5.5 3t-4.5 3.5t-4.5 6t-3 6.5t-3 7.5t-3.5 7.5l-338 706q-18 39 -40 62.5t-37 29.5t-25 14.5t-10 22.5q0 10 5.5 15.5t20.5 8t27 3t37 0.5q17 0 59 -4t84 -4q26 0 90 4t84 4q2 0 9.5 0.5t12 0t12 -1t12 -2t9 -4
t7 -7.5t2.5 -11q0 -18 -23.5 -29.5t-49.5 -16.5t-42 -21.5t-4 -44.5z" />
    <glyph glyph-name="w" unicode="w" horiz-adv-x="1478" 
d="M915 659l129 -329q1 -3 7.5 -20.5t12 -26.5t11.5 -9q11 0 31 45l113 265q1 1 7.5 17t7 18.5t6 16t6.5 17.5t4 15.5t4 18t2 16t1 18.5q0 37 -18.5 53t-41.5 16t-41.5 8.5t-18.5 32.5q0 25 39 25q8 0 46.5 -4t80.5 -4q30 0 64 4t36 4h7.5h7.5t6.5 -0.5t6.5 -1t5 -2
t4.5 -3.5t2.5 -5.5t1 -7.5q0 -16 -12 -25.5t-31 -23t-29 -35.5l-325 -729q-3 -7 -8.5 -20.5t-8 -19t-7.5 -13t-10.5 -10.5t-13.5 -3q-6 0 -11.5 2.5t-10 8t-8 11t-8 15.5t-7.5 17t-8 19.5t-8 20.5l-162 383q-12 29 -22 29q-8 0 -23 -31l-213 -409q-4 -9 -12.5 -30.5
t-15.5 -28.5t-19 -7q-6 0 -11.5 2.5t-10 8t-8 11t-8 15.5t-7.5 17t-8 19.5t-8 20.5l-289 684q-8 19 -26.5 31.5t-34.5 17.5t-29 15t-13 26q0 9 3 15t5.5 9.5t10.5 5t11 1.5h14.5h13.5t50.5 -4t111.5 -4q48 0 99.5 4t59.5 4q2 0 12.5 0.5t13.5 0t10.5 -2t10.5 -4.5t6 -9
t3 -14q0 -16 -13.5 -25.5t-30.5 -13.5t-30.5 -16t-13.5 -31q0 -25 28 -104l121 -326q18 -55 31 -55q3 0 7.5 4.5t9 12t8.5 14.5t8.5 14.5t5.5 9.5l108 205q19 36 19 64q0 42 -26.5 100.5t-57.5 89.5q-9 9 -28 15.5t-31.5 15t-12.5 24.5q0 14 8.5 21.5t16.5 8.5t24 1
q3 0 57 -4t115 -4q66 0 114.5 4t51.5 4q31 0 44 -5.5t13 -23.5q0 -15 -16 -25.5t-35 -16t-35 -20t-16 -38.5q0 -14 18 -68z" />
    <glyph glyph-name="x" unicode="x" horiz-adv-x="1024" 
d="M551 543l166 170q18 18 18 41q0 17 -15.5 27t-33.5 12.5t-33.5 10t-15.5 21.5q0 6 1 10.5t3 7.5t4 5.5t6.5 4t7 2t8 1t8.5 0.5h9.5h9.5q16 0 55.5 -4t65.5 -4q19 0 65 4t64 4h9.5h9.5t8 -0.5t8 -1.5t5.5 -3t5 -5.5t2.5 -8t1 -10.5q0 -16 -11.5 -22.5t-31.5 -10.5
t-60.5 -29t-86.5 -71l-207 -207l276 -354q29 -36 57 -56t43 -23t24.5 -9.5t9.5 -21.5q0 -11 -6 -18t-18.5 -9.5t-21.5 -3t-26 -0.5q-51 0 -114 4t-83 4q-44 0 -98.5 -4t-67.5 -4h-11.5h-11h-9.5t-8 0.5t-6.5 1.5t-6 3t-4.5 4t-3.5 5t-1.5 7.5t-1 9.5q0 20 14.5 30.5
t31.5 13.5t31.5 15t14.5 35q0 5 -1 10.5t-2 9.5t-4.5 10t-6 10.5t-8.5 12.5t-10 13.5t-13.5 17.5t-15.5 20l-88 117l-123 -127q-68 -72 -68 -100q0 -14 16.5 -25.5t37 -19t37 -19t16.5 -24.5q0 -10 -8.5 -20.5t-26.5 -10.5q-22 0 -86 4t-86 4q-23 0 -61.5 -4t-53.5 -4
q-27 0 -27 28q0 12 7 18.5t20.5 12.5t44.5 30t68 62l248 252l-277 346q-14 17 -35.5 30.5t-38.5 19.5t-29 15.5t-12 22.5q0 17 10.5 22t32.5 5q2 0 67.5 -4t123.5 -4q44 0 126.5 4t110.5 4q19 0 28 -8.5t9 -20.5q0 -20 -16 -29.5t-36 -11.5t-36 -14.5t-16 -36.5
q0 -32 53 -96z" />
    <glyph glyph-name="y" unicode="y" horiz-adv-x="1024" 
d="M457 80l-318 627q-14 28 -34 48t-35.5 27.5t-27 18t-11.5 24.5q0 20 17.5 25.5t53.5 5.5q9 0 57 -4t103 -4q59 0 112.5 4t65.5 4h6q20 0 28.5 -1t16 -7t7.5 -19q0 -18 -17.5 -30.5t-39 -18.5t-39 -19.5t-17.5 -33.5t37 -100l168 -338q2 -5 5.5 -12l5.5 -11l4.5 -9t4.5 -8
t5 -6t6 -4t6 -1q10 0 28 51l101 258q32 81 32 131q0 42 -21.5 67.5t-47 32.5t-47 17.5t-21.5 27.5q0 23 15 28t52 5h7q7 0 44 -4t71 -4q32 0 68 4t44 4q15 0 20.5 -0.5t15 -2t13 -6.5t3.5 -13q0 -13 -13 -25t-29.5 -21t-35 -27t-27.5 -40l-436 -1098q-5 -15 -8 -21t-9.5 -12
t-15.5 -6h-96q-19 0 -19 17t19 47l127 202q47 74 47 107q0 24 -51 123z" />
    <glyph glyph-name="z" unicode="z" horiz-adv-x="796" 
d="M96 94l410 541q10 13 10 22q0 11 -31 11h-249q-18 0 -34.5 -20t-27.5 -43.5t-28 -43.5t-35 -20q-9 0 -16 8t-7 24q0 37 29 138t30 110q7 35 19 35q14 0 151.5 -4t186.5 -4q35 0 104.5 4t104.5 4q32 0 32 -12q0 -6 -34 -53l-408 -539q-29 -38 -29 -55q0 -21 45 -21h293
q28 0 50 15t37 30t28 15q21 0 21 -29q0 -55 -75.5 -142.5t-135.5 -87.5q-35 0 -150 13q-127 10 -223 10q-30 0 -62 -4q-28 -4 -34 -4q-10 0 -18.5 7t-8.5 13q0 4 2 8.5t7 12.5t10 14.5t16.5 21t19.5 25.5z" />
    <glyph glyph-name="braceleft" unicode="{" horiz-adv-x="681" 
d="M197 872v336q0 82 14.5 138t41.5 92t77 55t109.5 26t150.5 7v-4q-106 -21 -150.5 -81.5t-44.5 -166.5v-359q0 -50 -4 -84.5t-16 -69.5t-33.5 -58t-58 -42.5t-88.5 -31.5v-4q52 -12 88.5 -31.5t58 -43t33.5 -58t16 -69.5t4 -85v-358q0 -106 44.5 -166.5t150.5 -81.5v-4
q-91 0 -150.5 7t-109.5 26t-77 54.5t-41.5 91.5t-14.5 138v336q0 111 -36.5 163.5t-150.5 80.5v4q114 28 150.5 80t36.5 163z" />
    <glyph glyph-name="bar" unicode="|" horiz-adv-x="1241" 
d="M530 1536h179v-2048h-179v2048z" />
    <glyph glyph-name="braceright" unicode="}" horiz-adv-x="681" 
d="M485 1208v-336q0 -111 36.5 -163t150.5 -80v-4q-114 -28 -150.5 -80.5t-36.5 -163.5v-336q0 -82 -14.5 -138t-41.5 -91.5t-77 -54.5t-109.5 -26t-150.5 -7v4q106 21 150.5 81.5t44.5 166.5v358q0 50 4 85t16 69.5t33.5 58t58 43t88.5 31.5v4q-52 12 -88.5 31.5t-58 42.5
t-33.5 58t-16 69.5t-4 84.5v359q0 106 -44.5 166.5t-150.5 81.5v4q91 0 150.5 -7t109.5 -26t77 -55t41.5 -92t14.5 -138z" />
    <glyph glyph-name="asciitilde" unicode="~" horiz-adv-x="1241" 
d="M1038 700l99 -112q-27 -49 -53 -85t-62.5 -72t-82 -55.5t-97.5 -19.5q-41 0 -87.5 14t-113.5 44t-72 32q-12 5 -39.5 16.5t-44.5 17.5t-41 12t-45 6q-33 0 -62.5 -14.5t-52.5 -42.5t-39 -52.5t-35 -58.5l-3.5 -7t-3.5 -6l-99 113q28 51 53.5 89t62.5 77t83 59.5t98 20.5
q78 0 238 -70q56 -25 82 -36.5t63.5 -23t61.5 -11.5q103 0 192 165z" />
    <glyph glyph-name="uni00A0" unicode="&#xa0;" horiz-adv-x="569" 
 />
    <glyph glyph-name="exclamdown" unicode="&#xa1;" horiz-adv-x="681" 
d="M330 1053q38 0 111 -73.5t73 -111.5t-73 -111t-111 -73t-111.5 73t-73.5 111t73.5 111.5t111.5 73.5zM166 -342l121 811q7 51 35 51q6 0 10.5 -2.5t7.5 -7t5 -9.5t3.5 -12t2 -12t1 -12.5t0.5 -9.5l94 -752q0 -2 2.5 -17t3 -21t-0.5 -19t-4 -19t-10.5 -13t-18.5 -9
q-38 -8 -105 -14.5t-98 -6.5q-17 0 -28 4t-16.5 8t-7.5 15t-2 14.5t2.5 17.5t2.5 15z" />
    <glyph glyph-name="cent" unicode="&#xa2;" 
d="M483 207l189 553q-22 25 -38 32t-65 7q-46 0 -80.5 -16.5t-55.5 -43t-34 -64t-17.5 -74t-4.5 -77.5q0 -79 27.5 -172.5t78.5 -144.5zM711 879l90 264h80l-97 -287q50 -10 92 -41.5t42 -83.5q0 -31 -62 -79t-90 -48q-10 0 -15.5 5.5t-7.5 12.5l-7 24.5t-11 31.5l-170 -535
q41 -37 123 -37q49 0 95.5 17.5t74.5 38t53.5 38t36.5 17.5q25 0 25 -22q0 -39 -56.5 -89.5t-151 -89.5t-186.5 -39q-59 0 -77 7l-99 -295h-84l107 319q-240 102 -240 395q0 29 4 61t17.5 80.5t35.5 92t63.5 89t95.5 78.5t136.5 54t182.5 21z" />
    <glyph glyph-name="sterling" unicode="&#xa3;" 
d="M152 119q0 -32 18.5 -50t48.5 -18q54 0 89.5 35.5t35.5 63.5q0 17 -41 32t-82 15q-69 0 -69 -78zM324 702h-136q-20 0 -30 1t-23 4.5t-18.5 13t-5.5 24.5q0 16 5.5 26t18 14t23.5 5t30 1h107q-35 126 -35 225q0 85 25.5 164.5t72 142t119 100t158.5 37.5q145 0 234 -59.5
t89 -124.5q0 -36 -54.5 -102t-84.5 -66q-24 0 -24 45q0 47 -3 78.5t-13 65t-28.5 53.5t-52 32.5t-80.5 12.5q-85 0 -134.5 -60t-49.5 -147q0 -47 9.5 -104t19 -93.5t30.5 -106t27 -93.5h119q20 0 30.5 -1t23.5 -5t18.5 -14t5.5 -26q0 -15 -5.5 -24.5t-19 -13t-23.5 -4.5
t-30 -1h-94q2 -10 7 -38t7.5 -45.5t5 -47.5t2.5 -59q0 -64 -21.5 -153t-53.5 -148q73 -22 113.5 -28.5t109.5 -6.5q125 0 180.5 46.5t83.5 168.5q1 3 3 15t3 17.5t5 15t8 14t11.5 8.5t16.5 4q15 0 23 -11.5t8 -47.5q0 -47 -10 -100t-36 -112.5t-64.5 -107t-101 -78.5
t-138.5 -31q-73 0 -155 34.5t-134 88.5q-71 -123 -170 -123q-17 0 -33 1.5t-42 9.5t-44.5 22t-32.5 41.5t-14 65.5q0 74 37.5 115.5t109.5 41.5q14 0 28 -1.5t24 -3t25.5 -6t23 -6.5t27 -8.5t26.5 -8.5q16 26 16 120q0 156 -75 342z" />
    <glyph glyph-name="currency" unicode="&#xa4;" 
d="M51 309l99 99q-87 134 -87 276q0 165 87 285l-99 96l135 139l101 -98q125 88 291 88q149 0 274 -88l98 98l135 -139l-98 -96q90 -118 90 -283q0 -163 -88 -278l98 -99l-135 -137l-98 98q-126 -90 -281 -90q-164 0 -288 90l-99 -98zM578 979q-125 0 -212 -85t-87 -210
q0 -122 86.5 -205.5t209.5 -83.5q119 0 203 87t84 206q0 117 -84 204t-200 87z" />
    <glyph glyph-name="yen" unicode="&#xa5;" 
d="M459 618l-287 611q-21 45 -51 66.5t-52.5 23t-38.5 10t-16 31.5q0 12 8 18.5t16 7t26 0.5h8q11 0 63.5 -4t95.5 -4q102 0 177 4t77 4q29 0 29 -28q0 -21 -15 -29t-33 -8.5t-33 -14.5t-15 -44q0 -37 24 -93l158 -354q39 -83 49 -91q3 -3 6 -3q14 0 41 55l158 316
q29 56 29 118q0 46 -26 71t-57 30t-57 15t-26 30q0 11 8 20.5t25 9.5q7 0 52.5 -4t96.5 -4q78 0 138 4t63 4q26 0 26 -20q1 -20 -6.5 -29.5t-24 -18t-37.5 -23t-51 -57t-59 -108.5l-221 -491q-15 -32 -18.5 -50.5t-3.5 -72.5h174v-106h-174v-84h174v-107h-174
q0 -50 15.5 -82t39 -44t50.5 -19t50.5 -9.5t39 -13.5t15.5 -33q0 -7 -2.5 -12.5t-4.5 -8t-8.5 -4t-9 -1.5h-11h-9.5q-10 0 -97 4t-169 4q-93 0 -172 -4t-96 -4q-13 0 -19.5 1t-14 9t-7.5 23q0 12 10.5 19.5t27.5 12t37.5 9t41 14.5t37.5 25.5t27.5 44.5t10.5 69h-176v107
h176v84h-176v106h176q0 30 -5.5 49t-22.5 53z" />
    <glyph glyph-name="brokenbar" unicode="&#xa6;" horiz-adv-x="1241" 
d="M530 1382h179v-716h-179v716zM530 358h179v-716h-179v716z" />
    <glyph glyph-name="section" unicode="&#xa7;" horiz-adv-x="1024" 
d="M766 508q0 40 -45.5 101t-107.5 114t-127.5 92t-102.5 39q-47 0 -86 -32.5t-39 -96.5q0 -40 45.5 -101.5t106.5 -114.5t126 -91.5t101 -38.5q57 0 93 42.5t36 86.5zM494 -186q23 0 48.5 6t55.5 21t49 47.5t19 78.5q0 36 -15 66.5t-33 49t-49 44.5q-7 5 -10 8
q-17 14 -69.5 53t-92.5 70t-93.5 81.5t-89 95.5t-60.5 101.5t-25 110.5q0 121 70.5 190t201.5 70v4q-10 8 -35.5 27t-35.5 27t-30.5 26.5t-29 30.5t-22 33t-19 41.5t-10 48t-4.5 59.5q0 27 7 57.5t28 67t52 65t85.5 47.5t122.5 19q74 0 132 -22t88.5 -55t45.5 -63t15 -54
q0 -129 -115 -129q-54 0 -84.5 35t-30.5 67q0 31 21 57t42 44.5t21 31.5q0 6 -13.5 17.5t-44.5 22.5t-69 11q-64 0 -115 -39t-51 -92q0 -43 12 -76t39.5 -61.5t53.5 -48.5t74.5 -54t82.5 -61q140 -112 211.5 -207.5t71.5 -201.5q0 -57 -20.5 -103.5t-51 -73.5t-66 -45.5
t-64.5 -24.5t-48 -5l-4 -4q172 -135 172 -285q0 -89 -49 -151t-121.5 -88.5t-159.5 -26.5q-45 0 -93.5 12.5t-92.5 36t-72 64t-28 89.5q0 127 127 127q40 0 74 -26.5t34 -77.5q0 -27 -13 -48.5t-28 -32t-28 -20.5t-13 -18q0 -24 42 -45.5t100 -21.5z" />
    <glyph glyph-name="dieresis" unicode="&#xa8;" horiz-adv-x="681" 
d="M156 1245q18 0 57 -48t39 -73t-39 -72.5t-57 -47.5t-57.5 47.5t-39.5 72.5t39.5 73t57.5 48zM526 1245q18 0 57.5 -48t39.5 -73t-39.5 -72.5t-57.5 -47.5t-57 47.5t-39 72.5t39 73t57 48z" />
    <glyph glyph-name="copyright" unicode="&#xa9;" horiz-adv-x="1529" 
d="M762 -23q-145 0 -277 57.5t-227.5 155.5t-152 234t-56.5 285q0 200 95.5 368.5t260 266.5t357.5 98q146 0 278.5 -57.5t228.5 -155.5t153 -234t57 -286q0 -149 -57 -285t-153 -234t-228.5 -155.5t-278.5 -57.5zM1366 711q0 126 -48 240.5t-129 197t-193 131.5t-234 49
q-162 0 -300.5 -83t-219 -225.5t-80.5 -309.5q0 -125 48 -240t128.5 -198.5t191.5 -133t232 -49.5q122 0 233.5 49.5t192.5 133t129.5 198.5t48.5 240zM1063 1055v-213h-64q-13 88 -62.5 143t-135.5 55q-80 0 -137 -46t-82 -113.5t-25 -147.5q0 -50 9 -99.5t29.5 -96.5
t50.5 -82.5t75 -57.5t100 -22q29 0 54 4.5t44 12t35 17.5t27 21t20 22t14.5 21t9.5 17.5t6 11.5t3 4l53 -23q-25 -61 -78 -105t-116.5 -64.5t-130.5 -20.5q-171 0 -275 114.5t-104 290.5q0 183 111 299.5t290 116.5q60 0 140 -17.5t139 -41.5z" />
    <glyph glyph-name="ordfeminine" unicode="&#xaa;" horiz-adv-x="569" 
d="M328 1034v135q0 24 -6 26q-2 1 -5 1q-50 0 -102.5 -36.5t-52.5 -94.5q0 -9 2 -19t8.5 -24.5t21.5 -23.5t37 -9q42 0 69.5 16t27.5 29zM469 1278v-234q0 -55 33 -55q3 0 14 4t14 4q31 0 31 -16q0 -29 -38 -47.5t-74 -18.5q-43 0 -70.5 23.5t-32.5 52.5q-43 -34 -99 -55
t-108 -21q-55 0 -91 33t-36 84q0 32 10 57.5t32.5 45.5t46 34t65.5 27.5t74.5 22t87.5 20.5v36t-2 34t-6 35t-12.5 29t-20.5 25t-31 14.5t-43 6.5q-32 0 -46.5 -10.5t-14.5 -40.5q0 -37 -9 -49q-20 -25 -82 -25q-25 0 -31.5 6.5t-6.5 18.5q0 38 24 66.5t62.5 44t78.5 23
t78 7.5q101 0 152 -42.5t51 -139.5z" />
    <glyph glyph-name="guillemotleft" unicode="&#xab;" horiz-adv-x="1024" 
d="M483 446l357 304q8 8 22 8q15 0 15 -15q0 -24 -82.5 -139t-120.5 -158q39 -43 121 -157.5t82 -138.5q0 -15 -15 -15q-14 0 -22 8zM152 446l356 304q8 8 22 8q15 0 15 -15q0 -24 -82.5 -139t-120.5 -158q39 -43 121 -157.5t82 -138.5q0 -15 -15 -15q-14 0 -22 8z" />
    <glyph glyph-name="logicalnot" unicode="&#xac;" horiz-adv-x="1241" 
d="M961 233v402h-857v176h1033v-578h-176z" />
    <glyph glyph-name="uni00AD" unicode="&#xad;" horiz-adv-x="681" 
d="M160 471l360 127q41 14 53 14q21 0 21 -26v-135q0 -17 -18 -28t-56 -24l-360 -127q-41 -14 -54 -14q-20 0 -20 27v135q0 12 12 22t24 15t38 14z" />
    <glyph glyph-name="registered" unicode="&#xae;" horiz-adv-x="1529" 
d="M762 -23q-145 0 -277 57.5t-227.5 155.5t-152 234t-56.5 285q0 200 95.5 368.5t260 266.5t357.5 98q146 0 278.5 -57.5t228.5 -155.5t153 -234t57 -286q0 -149 -57 -285t-153 -234t-228.5 -155.5t-278.5 -57.5zM1366 711q0 126 -48 240.5t-129 197t-193 131.5t-234 49
q-162 0 -300.5 -83t-219 -225.5t-80.5 -309.5q0 -125 48 -240t128.5 -198.5t191.5 -133t232 -49.5q122 0 233.5 49.5t192.5 133t129.5 198.5t48.5 240zM653 688v-258q0 -39 14 -47t62 -8h12v-41h-321v41q58 0 72 8q20 12 20 47v586q0 42 -13 50.5t-65 8.5h-12v43h436
q59 0 121.5 -60.5t62.5 -129.5q0 -86 -57.5 -141.5t-142.5 -69.5v-4q28 -5 51.5 -21t42 -42t31 -48.5t27.5 -54.5q5 -10 7 -15q6 -12 18 -37t17 -35t15 -28t17 -25t17.5 -16.5t22 -12.5t25.5 -3v-41h-142q-32 0 -66 45.5t-58 100.5t-48.5 110.5t-36.5 68.5q-9 11 -20.5 17.5
t-27.5 9t-24.5 3t-30.5 0t-26 -0.5zM653 993v-252q49 0 76.5 1.5t64 10.5t56 26t33.5 49.5t14 80.5q0 82 -43 123t-123 41q-56 0 -67 -13t-11 -67z" />
    <glyph glyph-name="macron" unicode="&#xaf;" horiz-adv-x="681" 
d="M666 1067h-650v121h650v-121z" />
    <glyph glyph-name="degree" unicode="&#xb0;" horiz-adv-x="819" 
d="M717 1135q0 -127 -90.5 -217.5t-216.5 -90.5q-128 0 -218 90.5t-90 217.5q-1 126 89.5 216.5t218.5 90.5q126 0 216.5 -90.5t90.5 -216.5zM590 1135q0 73 -53 126.5t-127 53.5q-73 0 -127 -54t-54 -126q0 -75 53.5 -128t127.5 -53q75 0 127.5 53t52.5 128z" />
    <glyph glyph-name="plusminus" unicode="&#xb1;" horiz-adv-x="1241" 
d="M532 743v291h177v-291h428v-176h-428v-301h-177v301h-428v176h428zM104 0v176h1033v-176h-1033z" />
    <glyph glyph-name="two.superior" unicode="&#xb2;" horiz-adv-x="681" 
d="M256 676h193q45 0 79 14.5t49 32.5t28.5 32.5t23.5 14.5q7 0 12.5 -6t5.5 -12q0 -16 -20 -56t-41 -71l-6.5 -13l-8.5 -17t-10 -16t-13.5 -15.5t-16 -10t-19.5 -4.5q-4 0 -99 3t-177 3q-49 0 -104.5 -3t-63.5 -3q-35 0 -35 12q0 4 1 7.5t4 8.5t7 10.5t12 15t17 19.5t24 27
t31 35t40.5 45.5t49.5 56.5q205 245 205 365q0 65 -42.5 102t-115.5 37q-38 0 -72 -12.5t-53.5 -27.5t-36.5 -27.5t-24 -12.5q-21 0 -21 17q0 12 20.5 37t55 53t91.5 48.5t118 20.5q95 0 158 -48.5t63 -133.5q0 -61 -55.5 -150.5t-121.5 -162t-121.5 -132.5t-55.5 -69
q0 -14 45 -14z" />
    <glyph glyph-name="three.superior" unicode="&#xb3;" horiz-adv-x="681" 
d="M260 954q-14 0 -14 17q0 8 29 26t63 39t63 60.5t29 85.5q0 59 -38.5 95t-102.5 36q-38 0 -79.5 -21t-68 -42t-28.5 -21q-10 0 -14.5 5.5t-4.5 10.5q0 19 34 51.5t96.5 61t125.5 28.5q83 0 145 -39t62 -112q0 -34 -19 -67t-41.5 -52.5t-41.5 -36t-19 -22.5q0 -1 20.5 -3.5
t50 -13t59.5 -29.5t50.5 -60t20.5 -97q0 -132 -103.5 -222.5t-254.5 -90.5q-68 0 -124 18t-82 38.5t-26 35.5q0 7 5.5 13.5t15.5 6.5q9 0 25 -10t33.5 -22.5t51 -22.5t72.5 -10q101 0 166 64t65 159q0 74 -35.5 112t-115.5 38q-23 0 -46 -3z" />
    <glyph glyph-name="acute" unicode="&#xb4;" horiz-adv-x="681" 
d="M276 985h-94l250 258q75 77 91 88q21 15 46 15q37 0 59.5 -27.5t22.5 -44.5q0 -10 -1.5 -18.5t-5 -16t-7 -13.5t-10.5 -13t-10.5 -11t-13 -10t-13.5 -9t-15 -9.5t-14 -8.5z" />
    <glyph glyph-name="mu" unicode="&#xb5;" 
d="M952 834v-674q0 -43 24.5 -62.5t54.5 -19.5t54.5 -5.5t24.5 -23.5q0 -10 -2 -16t-8.5 -9t-10.5 -4t-15 -2t-15 -2l-309 -39q-15 30 -15 138q-3 -2 -38.5 -34t-61.5 -49.5t-80.5 -36t-114.5 -18.5q-114 0 -170 43q0 -66 22.5 -185.5t22.5 -151.5q0 -99 -100 -99t-100 99
q0 21 11.5 88.5t22.5 210t11 346.5v348q0 33 -20.5 48.5t-45 16t-45 7.5t-20.5 26q0 25 37 33.5t108.5 17.5t122.5 29q12 5 24.5 12t19 10t11.5 3q17 0 21 -10t4 -35v-519q0 -105 38.5 -157t139.5 -52q67 0 123.5 36.5t56.5 97.5v436q0 33 -20.5 48.5t-45 16t-45 7.5
t-20.5 26q0 25 37 33.5t108.5 17.5t122.5 29q10 4 20 9.5t15.5 8.5t11 5t9.5 2q12 0 17.5 -6.5t6 -13.5t0.5 -25z" />
    <glyph glyph-name="paragraph" unicode="&#xb6;" horiz-adv-x="1286" 
d="M1038 1368v-1425h131v-84h-743v84h162v776q-28 -2 -49.5 -3t-61 -0.5t-70.5 5.5t-71.5 16t-71.5 28t-63 46t-52.5 65.5t-33.5 89.5t-13 117q0 66 13.5 119.5t36.5 90t55 64.5t69.5 42.5t79 25.5t83.5 13t83.5 4t78.5 0h13.5h11.5h13h530v-74h-131zM895 1368h-164v-1425
h164v1425zM588 780v588q-46 1 -77.5 -11t-50.5 -32.5t-29 -58.5t-13.5 -78t-3.5 -101q0 -97 11.5 -162.5t34.5 -99t53 -44t71 -1.5h4z" />
    <glyph glyph-name="periodcentered" unicode="&#xb7;" horiz-adv-x="569" 
d="M285 707q38 0 111 -73.5t73 -111.5t-73 -111t-111 -73t-111.5 73t-73.5 111t73.5 111.5t111.5 73.5z" />
    <glyph glyph-name="cedilla" unicode="&#xb8;" horiz-adv-x="681" 
d="M217 -199l88 199h76l-55 -131q33 10 77 10q21 0 45.5 -7t50.5 -22.5t43 -47t17 -74.5q0 -168 -274 -168q-67 0 -156 34l27 66q56 -22 120 -22q123 0 123 81q0 37 -24 58.5t-72 21.5q-34 0 -57 -10z" />
    <glyph glyph-name="one.superior" unicode="&#xb9;" horiz-adv-x="681" 
d="M408 1251v-567q0 -38 16 -60t38.5 -27t44.5 -6.5t38 -5t16 -14.5q0 -8 -3 -13t-12 -7t-15.5 -2h-24.5h-12q-20 0 -79 3t-85 3q-28 0 -103 -3t-88 -3q-10 0 -10 18q0 13 14 17.5t34 6.5t40.5 7t34.5 24t14 52v508q0 25 -4 41t-12.5 22t-13.5 7t-15 1q-18 0 -49.5 -6
t-32.5 -6q-9 0 -13.5 7.5t-4.5 13.5q0 7 3 12t9.5 8t12 4.5t13.5 3t11 2.5q56 13 99.5 27t66.5 25.5t37.5 21t21 15t8.5 5.5q15 0 15 -12q0 -8 -5 -52t-5 -71z" />
    <glyph glyph-name="ordmasculine" unicode="&#xba;" horiz-adv-x="614" 
d="M150 1243q0 -44 11 -91.5t32 -92t59 -73t86 -28.5q69 0 102 42t33 114q0 44 -9.5 93t-29 99t-57 82.5t-86.5 32.5q-141 0 -141 -178zM10 1171q0 127 87.5 208t215.5 81q126 0 209.5 -71.5t83.5 -186.5q0 -127 -86 -207t-223 -80q-119 0 -203 70t-84 186z" />
    <glyph glyph-name="guillemotright" unicode="&#xbb;" horiz-adv-x="1024" 
d="M862 446l-356 -303q-8 -8 -23 -8q-14 0 -14 15q0 24 82 138.5t121 157.5q-38 43 -120.5 158t-82.5 139q0 15 14 15q15 0 23 -8zM530 446l-356 -303q-8 -8 -22 -8q-15 0 -15 15q0 24 82 138.5t121 157.5q-38 43 -120.5 158t-82.5 139q0 15 15 15q14 0 22 -8z" />
    <glyph glyph-name="onequarter" unicode="&#xbc;" horiz-adv-x="1708" 
d="M1063 414l262 299q18 23 50 53.5t48 30.5q5 0 8.5 -2t5.5 -6.5t3 -9t1.5 -10.5t0.5 -10v-9.5v-6.5v-411q0 -31 18 -31h49q15 0 24 8t12 17.5t9 17.5t15 8q5 0 9.5 -4.5t4.5 -11.5q0 -154 -63 -154h-58q-13 0 -16.5 -5t-3.5 -21v-254q0 -12 -58 -22.5t-79 -10.5
q-15 0 -15 8q0 10 6.5 27t6.5 41v200q0 30 -3.5 33.5t-31.5 3.5h-283h-10.5h-10.5t-10 0.5t-10 1t-8 2t-7.5 4l-5.5 5.5t-4 7.5t-1 10.5q0 14 10.5 35t32 48t35 43.5t40 45t27.5 29.5zM1303 340v238q0 30 -6 28l-3 -2l-247 -291q-4 -3 -0.5 -9.5t12.5 -6.5h182q53 0 59 5
q3 9 3 38zM502 0h-119l844 1386h119zM408 1251v-567q0 -38 16 -60t38.5 -27t44.5 -6.5t38 -5t16 -14.5q0 -8 -3 -13t-12 -7t-15.5 -2h-24.5h-12q-20 0 -79 3t-85 3q-28 0 -103 -3t-88 -3q-10 0 -10 18q0 13 14 17.5t34 6.5t40.5 7t34.5 24t14 52v508q0 25 -4 41t-12.5 22
t-13.5 7t-15 1q-18 0 -49.5 -6t-32.5 -6q-9 0 -13.5 7.5t-4.5 13.5q0 7 3 12t9.5 8t12 4.5t13.5 3t11 2.5q56 13 99.5 27t66.5 25.5t37.5 21t21 15t8.5 5.5q15 0 15 -12q0 -8 -5 -52t-5 -71z" />
    <glyph glyph-name="onehalf" unicode="&#xbd;" horiz-adv-x="1708" 
d="M477 0h-119l844 1386h119zM1196 121h193q45 0 79 14.5t49 32.5t28.5 32.5t23.5 14.5q7 0 12.5 -6t5.5 -12q0 -16 -20 -56t-41 -71l-6.5 -13l-8.5 -17t-10 -16t-13.5 -15.5t-16 -10t-19.5 -4.5q-4 0 -99 3t-177 3q-49 0 -104.5 -3t-63.5 -3q-35 0 -35 12q0 4 1 7.5t4 8.5
t7 10.5t12 15t17 19.5t24 27t31 35t40.5 45.5t49.5 56.5q205 245 205 365q0 65 -42.5 102t-115.5 37q-38 0 -72 -12.5t-53.5 -27.5t-36.5 -27.5t-24 -12.5q-21 0 -21 17q0 12 20.5 37t55 53t91.5 48.5t118 20.5q95 0 158 -48.5t63 -133.5q0 -61 -55.5 -150.5t-121.5 -162
t-121.5 -132.5t-55.5 -69q0 -14 45 -14zM408 1251v-567q0 -38 16 -60t38.5 -27t44.5 -6.5t38 -5t16 -14.5q0 -8 -3 -13t-12 -7t-15.5 -2h-24.5h-12q-20 0 -79 3t-85 3q-28 0 -103 -3t-88 -3q-10 0 -10 18q0 13 14 17.5t34 6.5t40.5 7t34.5 24t14 52v508q0 25 -4 41t-12.5 22
t-13.5 7t-15 1q-18 0 -49.5 -6t-32.5 -6q-9 0 -13.5 7.5t-4.5 13.5q0 7 3 12t9.5 8t12 4.5t13.5 3t11 2.5q56 13 99.5 27t66.5 25.5t37.5 21t21 15t8.5 5.5q15 0 15 -12q0 -8 -5 -52t-5 -71z" />
    <glyph glyph-name="threequarters" unicode="&#xbe;" horiz-adv-x="1708" 
d="M1063 414l262 299q18 23 50 53.5t48 30.5q5 0 8.5 -2t5.5 -6.5t3 -9t1.5 -10.5t0.5 -10v-9.5v-6.5v-411q0 -31 18 -31h49q15 0 24 8t12 17.5t9 17.5t15 8q5 0 9.5 -4.5t4.5 -11.5q0 -154 -63 -154h-58q-13 0 -16.5 -5t-3.5 -21v-254q0 -12 -58 -22.5t-79 -10.5
q-15 0 -15 8q0 10 6.5 27t6.5 41v200q0 30 -3.5 33.5t-31.5 3.5h-283h-10.5h-10.5t-10 0.5t-10 1t-8 2t-7.5 4l-5.5 5.5t-4 7.5t-1 10.5q0 14 10.5 35t32 48t35 43.5t40 45t27.5 29.5zM1303 340v238q0 30 -6 28l-3 -2l-247 -291q-4 -3 -0.5 -9.5t12.5 -6.5h182q53 0 59 5
q3 9 3 38zM502 0h-119l844 1386h119zM260 954q-14 0 -14 17q0 8 29 26t63 39t63 60.5t29 85.5q0 59 -38.5 95t-102.5 36q-38 0 -79.5 -21t-68 -42t-28.5 -21q-10 0 -14.5 5.5t-4.5 10.5q0 19 34 51.5t96.5 61t125.5 28.5q83 0 145 -39t62 -112q0 -34 -19 -67t-41.5 -52.5
t-41.5 -36t-19 -22.5q0 -1 20.5 -3.5t50 -13t59.5 -29.5t50.5 -60t20.5 -97q0 -132 -103.5 -222.5t-254.5 -90.5q-68 0 -124 18t-82 38.5t-26 35.5q0 7 5.5 13.5t15.5 6.5q9 0 25 -10t33.5 -22.5t51 -22.5t72.5 -10q101 0 166 64t65 159q0 74 -35.5 112t-115.5 38
q-23 0 -46 -3z" />
    <glyph glyph-name="questiondown" unicode="&#xbf;" horiz-adv-x="796" 
d="M418 -416q-78 0 -142.5 23.5t-108.5 79t-44 135.5q0 53 33 114.5t79.5 119t93.5 116.5t80 127.5t33 132.5q0 9 -5 36t-5 40q0 20 21 20q31 0 52 -45.5t21 -107.5q0 -63 -78.5 -268.5t-78.5 -266.5q0 -60 35 -97.5t94 -37.5q33 0 63.5 15.5t48.5 33.5t35.5 33.5t28.5 15.5
q22 0 22 -30q0 -51 -81.5 -120t-196.5 -69zM471 1053q38 0 111 -73.5t73 -111.5t-73 -111t-111 -73t-111 73t-73 111t73 111.5t111 73.5z" />
    <glyph glyph-name="Agrave" unicode="&#xc0;" horiz-adv-x="1593" 
d="M575 606h279h5q17 0 25 0.5t18 2t14 5.5t4 11q0 10 -2.5 21t-5 17.5t-8 19t-7.5 17.5l-168 371q-3 4 -5 7t-2.5 4.5t-1 2.5t-1.5 1.5t-2 0.5h-4q-13 0 -23 -24l-158 -363q-1 -4 -7 -17.5t-8 -19.5t-4.5 -17t-2.5 -21q0 -13 14.5 -16t50.5 -3zM918 496h-404
q-16 0 -28.5 -4t-29 -17t-33.5 -44t-34 -79q-2 -5 -9.5 -26.5t-12 -35t-10 -33t-8.5 -36.5t-3 -31q0 -41 23 -68.5t55.5 -39.5t64.5 -20t55 -17.5t23 -24.5q0 -12 -6.5 -19t-19 -9t-24 -2.5t-29.5 1t-27 1.5q-33 0 -96.5 4t-96.5 4q-31 0 -91 -4t-89 -4h-12.5h-12.5t-11 0.5
t-10.5 1.5t-7.5 3.5t-5.5 6.5t-1.5 10q0 15 17.5 27.5t40.5 22t51.5 35.5t45.5 65l555 1239q2 5 8 19.5t9 20.5t8.5 15.5t11.5 13t14 3.5q14 0 22 -10.5t28 -55.5l553 -1253q18 -40 43.5 -62.5t47.5 -28t42 -7.5t31.5 -9t11.5 -26q0 -12 -2.5 -18.5t-11.5 -9t-16.5 -3
t-28.5 -0.5h-15q-29 0 -109 4t-155 4q-49 0 -124 -4t-101 -4h-15h-14t-11.5 0.5t-10.5 2t-6.5 4t-5 7t-1.5 10.5q0 16 15 27t36 20t42.5 20.5t36.5 35.5t15 59q0 51 -36 137q-53 124 -72.5 152.5t-58.5 28.5zM952 1571h-94l-285 180q-3 2 -14 8.5t-15 9.5t-13.5 9t-13 10
t-10.5 11t-10.5 13t-7 13.5t-5 16t-1.5 18.5q0 17 22.5 44t59.5 27q27 0 46.5 -14.5t73.5 -70.5q4 -3 6 -5.5t5 -5.5l6 -6z" />
    <glyph glyph-name="Aacute" unicode="&#xc1;" horiz-adv-x="1593" 
d="M575 606h279h5q17 0 25 0.5t18 2t14 5.5t4 11q0 10 -2.5 21t-5 17.5t-8 19t-7.5 17.5l-168 371q-3 4 -5 7t-2.5 4.5t-1 2.5t-1.5 1.5t-2 0.5h-4q-13 0 -23 -24l-158 -363q-1 -4 -7 -17.5t-8 -19.5t-4.5 -17t-2.5 -21q0 -13 14.5 -16t50.5 -3zM918 496h-404
q-16 0 -28.5 -4t-29 -17t-33.5 -44t-34 -79q-2 -5 -9.5 -26.5t-12 -35t-10 -33t-8.5 -36.5t-3 -31q0 -41 23 -68.5t55.5 -39.5t64.5 -20t55 -17.5t23 -24.5q0 -12 -6.5 -19t-19 -9t-24 -2.5t-29.5 1t-27 1.5q-33 0 -96.5 4t-96.5 4q-31 0 -91 -4t-89 -4h-12.5h-12.5t-11 0.5
t-10.5 1.5t-7.5 3.5t-5.5 6.5t-1.5 10q0 15 17.5 27.5t40.5 22t51.5 35.5t45.5 65l555 1239q2 5 8 19.5t9 20.5t8.5 15.5t11.5 13t14 3.5q14 0 22 -10.5t28 -55.5l553 -1253q18 -40 43.5 -62.5t47.5 -28t42 -7.5t31.5 -9t11.5 -26q0 -12 -2.5 -18.5t-11.5 -9t-16.5 -3
t-28.5 -0.5h-15q-29 0 -109 4t-155 4q-49 0 -124 -4t-101 -4h-15h-14t-11.5 0.5t-10.5 2t-6.5 4t-5 7t-1.5 10.5q0 16 15 27t36 20t42.5 20.5t36.5 35.5t15 59q0 51 -36 137q-53 124 -72.5 152.5t-58.5 28.5zM733 1571h-94l250 258q74 76 92 88q20 14 45 14q37 0 59.5 -27
t22.5 -44q0 -10 -1.5 -18.5t-5 -16t-7 -13.5t-10.5 -13t-10.5 -11t-13 -10t-13.5 -9t-15 -9.5t-14 -8.5z" />
    <glyph glyph-name="Acircumflex" unicode="&#xc2;" horiz-adv-x="1593" 
d="M575 606h279h5q17 0 25 0.5t18 2t14 5.5t4 11q0 10 -2.5 21t-5 17.5t-8 19t-7.5 17.5l-168 371q-3 4 -5 7t-2.5 4.5t-1 2.5t-1.5 1.5t-2 0.5h-4q-13 0 -23 -24l-158 -363q-1 -4 -7 -17.5t-8 -19.5t-4.5 -17t-2.5 -21q0 -13 14.5 -16t50.5 -3zM918 496h-404
q-16 0 -28.5 -4t-29 -17t-33.5 -44t-34 -79q-2 -5 -9.5 -26.5t-12 -35t-10 -33t-8.5 -36.5t-3 -31q0 -41 23 -68.5t55.5 -39.5t64.5 -20t55 -17.5t23 -24.5q0 -12 -6.5 -19t-19 -9t-24 -2.5t-29.5 1t-27 1.5q-33 0 -96.5 4t-96.5 4q-31 0 -91 -4t-89 -4h-12.5h-12.5t-11 0.5
t-10.5 1.5t-7.5 3.5t-5.5 6.5t-1.5 10q0 15 17.5 27.5t40.5 22t51.5 35.5t45.5 65l555 1239q2 5 8 19.5t9 20.5t8.5 15.5t11.5 13t14 3.5q14 0 22 -10.5t28 -55.5l553 -1253q18 -40 43.5 -62.5t47.5 -28t42 -7.5t31.5 -9t11.5 -26q0 -12 -2.5 -18.5t-11.5 -9t-16.5 -3
t-28.5 -0.5h-15q-29 0 -109 4t-155 4q-49 0 -124 -4t-101 -4h-15h-14t-11.5 0.5t-10.5 2t-6.5 4t-5 7t-1.5 10.5q0 16 15 27t36 20t42.5 20.5t36.5 35.5t15 59q0 51 -36 137q-53 124 -72.5 152.5t-58.5 28.5zM868 1917l254 -346h-88l-235 211l-238 -211h-88l254 346h141z
" />
    <glyph glyph-name="Atilde" unicode="&#xc3;" horiz-adv-x="1593" 
d="M575 606h279h5q17 0 25 0.5t18 2t14 5.5t4 11q0 10 -2.5 21t-5 17.5t-8 19t-7.5 17.5l-168 371q-3 4 -5 7t-2.5 4.5t-1 2.5t-1.5 1.5t-2 0.5h-4q-13 0 -23 -24l-158 -363q-1 -4 -7 -17.5t-8 -19.5t-4.5 -17t-2.5 -21q0 -13 14.5 -16t50.5 -3zM918 496h-404
q-16 0 -28.5 -4t-29 -17t-33.5 -44t-34 -79q-2 -5 -9.5 -26.5t-12 -35t-10 -33t-8.5 -36.5t-3 -31q0 -41 23 -68.5t55.5 -39.5t64.5 -20t55 -17.5t23 -24.5q0 -12 -6.5 -19t-19 -9t-24 -2.5t-29.5 1t-27 1.5q-33 0 -96.5 4t-96.5 4q-31 0 -91 -4t-89 -4h-12.5h-12.5t-11 0.5
t-10.5 1.5t-7.5 3.5t-5.5 6.5t-1.5 10q0 15 17.5 27.5t40.5 22t51.5 35.5t45.5 65l555 1239q2 5 8 19.5t9 20.5t8.5 15.5t11.5 13t14 3.5q14 0 22 -10.5t28 -55.5l553 -1253q18 -40 43.5 -62.5t47.5 -28t42 -7.5t31.5 -9t11.5 -26q0 -12 -2.5 -18.5t-11.5 -9t-16.5 -3
t-28.5 -0.5h-15q-29 0 -109 4t-155 4q-49 0 -124 -4t-101 -4h-15h-14t-11.5 0.5t-10.5 2t-6.5 4t-5 7t-1.5 10.5q0 16 15 27t36 20t42.5 20.5t36.5 35.5t15 59q0 51 -36 137q-53 124 -72.5 152.5t-58.5 28.5zM1094 1853h69q-56 -229 -229 -229q-68 0 -160 49l-13 6.5l-14 7
l-13 6.5t-13.5 6.5t-12.5 5.5t-14 5.5t-13 4t-13.5 3t-12.5 1.5t-14 1q-14 0 -27 -3t-23 -8t-18 -11.5t-14 -14.5t-10.5 -15t-8 -15.5t-5 -13.5t-3.5 -11l-2 -6h-67q6 38 22.5 75t42.5 72t68 56.5t92 21.5q56 0 156 -49t147 -49q18 0 33.5 7.5t25.5 17.5t19 24t13 24.5
t8 20.5z" />
    <glyph glyph-name="Adieresis" unicode="&#xc4;" horiz-adv-x="1593" 
d="M575 606h279h5q17 0 25 0.5t18 2t14 5.5t4 11q0 10 -2.5 21t-5 17.5t-8 19t-7.5 17.5l-168 371q-3 4 -5 7t-2.5 4.5t-1 2.5t-1.5 1.5t-2 0.5h-4q-13 0 -23 -24l-158 -363q-1 -4 -7 -17.5t-8 -19.5t-4.5 -17t-2.5 -21q0 -13 14.5 -16t50.5 -3zM918 496h-404
q-16 0 -28.5 -4t-29 -17t-33.5 -44t-34 -79q-2 -5 -9.5 -26.5t-12 -35t-10 -33t-8.5 -36.5t-3 -31q0 -41 23 -68.5t55.5 -39.5t64.5 -20t55 -17.5t23 -24.5q0 -12 -6.5 -19t-19 -9t-24 -2.5t-29.5 1t-27 1.5q-33 0 -96.5 4t-96.5 4q-31 0 -91 -4t-89 -4h-12.5h-12.5t-11 0.5
t-10.5 1.5t-7.5 3.5t-5.5 6.5t-1.5 10q0 15 17.5 27.5t40.5 22t51.5 35.5t45.5 65l555 1239q2 5 8 19.5t9 20.5t8.5 15.5t11.5 13t14 3.5q14 0 22 -10.5t28 -55.5l553 -1253q18 -40 43.5 -62.5t47.5 -28t42 -7.5t31.5 -9t11.5 -26q0 -12 -2.5 -18.5t-11.5 -9t-16.5 -3
t-28.5 -0.5h-15q-29 0 -109 4t-155 4q-49 0 -124 -4t-101 -4h-15h-14t-11.5 0.5t-10.5 2t-6.5 4t-5 7t-1.5 10.5q0 16 15 27t36 20t42.5 20.5t36.5 35.5t15 59q0 51 -36 137q-53 124 -72.5 152.5t-58.5 28.5zM612 1831q18 0 57.5 -48t39.5 -73t-39.5 -73t-57.5 -48t-57 48
t-39 73t39 73t57 48zM983 1831q18 0 57 -48t39 -73t-39 -73t-57 -48t-57 48t-39 73t39 73t57 48z" />
    <glyph glyph-name="Aring" unicode="&#xc5;" horiz-adv-x="1593" 
d="M575 606h279h5q17 0 25 0.5t18 2t14 5.5t4 11q0 10 -2.5 21t-5 17.5t-8 19t-7.5 17.5l-168 371q-3 4 -5 7t-2.5 4.5t-1 2.5t-1.5 1.5t-2 0.5h-4q-13 0 -23 -24l-158 -363q-1 -4 -7 -17.5t-8 -19.5t-4.5 -17t-2.5 -21q0 -13 14.5 -16t50.5 -3zM918 496h-404
q-16 0 -28.5 -4t-29 -17t-33.5 -44t-34 -79q-2 -5 -9.5 -26.5t-12 -35t-10 -33t-8.5 -36.5t-3 -31q0 -41 23 -68.5t55.5 -39.5t64.5 -20t55 -17.5t23 -24.5q0 -12 -6.5 -19t-19 -9t-24 -2.5t-29.5 1t-27 1.5q-33 0 -96.5 4t-96.5 4q-31 0 -91 -4t-89 -4h-12.5h-12.5t-11 0.5
t-10.5 1.5t-7.5 3.5t-5.5 6.5t-1.5 10q0 15 17.5 27.5t40.5 22t51.5 35.5t45.5 65l555 1239q2 5 8 19.5t9 20.5t8.5 15.5t11.5 13t14 3.5q14 0 22 -10.5t28 -55.5l553 -1253q18 -40 43.5 -62.5t47.5 -28t42 -7.5t31.5 -9t11.5 -26q0 -12 -2.5 -18.5t-11.5 -9t-16.5 -3
t-28.5 -0.5h-15q-29 0 -109 4t-155 4q-49 0 -124 -4t-101 -4h-15h-14t-11.5 0.5t-10.5 2t-6.5 4t-5 7t-1.5 10.5q0 16 15 27t36 20t42.5 20.5t36.5 35.5t15 59q0 51 -36 137q-53 124 -72.5 152.5t-58.5 28.5zM782 1843q-47 0 -81.5 -33.5t-34.5 -80.5t34.5 -82t81.5 -35
q46 0 81.5 35t35.5 82t-35.5 80.5t-81.5 33.5zM782 1520q-86 0 -147.5 61.5t-61.5 147.5t62 146t147 60t147 -60t62 -146t-61.5 -147.5t-147.5 -61.5z" />
    <glyph glyph-name="AE" unicode="&#xc6;" horiz-adv-x="2048" 
d="M1057 606v662q0 41 -15 41q-3 0 -6 -1t-6.5 -3t-6 -4t-5.5 -6t-5 -7t-5.5 -8.5t-5 -8.5t-5.5 -10t-6 -10l-407 -626q-9 -14 17 -18q8 -1 30 -1h426zM1057 248v248h-482q-48 0 -67 -9t-43 -45q-113 -175 -128 -209q-11 -25 -11 -45q0 -40 22.5 -65.5t55 -35.5t64.5 -16
t54.5 -16t22.5 -28q0 -23 -11 -29t-42 -6q-59 0 -140 4t-114 4q-49 0 -110.5 -4t-76.5 -4q-27 0 -37 6.5t-10 21.5q0 16 11.5 25t29.5 15t46.5 31t55.5 65l695 1071q63 93 63 108q0 14 -20.5 22.5t-45 12t-45 14.5t-20.5 29q0 29 72 29q11 0 68.5 -2t186.5 -4t314 -2
q68 0 220.5 4t246.5 4q19 0 30 -12t11 -27l8 -203q0 -1 1 -10t1 -13t0.5 -13t-0.5 -14.5t-2.5 -13t-4 -12t-6.5 -9.5t-10 -7t-14 -2q-19 0 -27.5 13t-11.5 34.5t-7 47t-19.5 51t-43.5 47t-85 34.5t-137 13h-68t-53.5 -1.5t-43.5 -2.5t-32 -6t-24.5 -9t-15.5 -13.5t-11 -18
t-5 -25t-3 -30.5v-38v-287q0 -39 1 -54t10 -29t26 -16.5t51 -2.5h129q49 0 86 19.5t57 47t34 55t24.5 47t21.5 19.5q23 0 30 -12q8 -12 9 -39l14 -364l1 -14q1 -13 1.5 -18.5t0 -18.5t-2.5 -19.5t-6 -15t-11.5 -12t-17.5 -3.5q-15 0 -24.5 16t-14.5 40t-16.5 52.5t-28 52.5
t-52 40t-85.5 16h-151q-27 0 -42.5 -4t-25 -8.5t-13.5 -23t-4.5 -31.5t-0.5 -50v-26v-262q0 -102 8 -130q15 -56 80 -67q22 -4 51 -4q104 0 186.5 15t133 38.5t88 52t58 57.5t35.5 52.5t28 38.5t28 15q23 0 23 -46q0 -80 -36.5 -155t-104 -123.5t-148.5 -48.5q-182 0 -347 4
t-190 4t-112 -4t-150 -4q-39 0 -39 22t11.5 33t29 13.5t37.5 12t37.5 24.5t29 53.5t11.5 97.5z" />
    <glyph glyph-name="Ccedilla" unicode="&#xc7;" horiz-adv-x="1478" 
d="M616 -199l78 179q-115 6 -211 39t-160.5 81.5t-115 111.5t-79 125t-47 127.5t-24.5 113t-6 86.5q0 107 25.5 215t82.5 213.5t139.5 186.5t206.5 131t273 50q85 0 168.5 -19.5t135.5 -43t98.5 -43t64.5 -19.5q17 0 28 17t20.5 34t21.5 17q24 0 24 -12l37 -390
q5 -15 1.5 -41t-25.5 -26q-9 0 -17 4t-15.5 13.5t-11 15.5t-10.5 20t-8 17q-84 163 -218.5 268.5t-301.5 105.5q-109 0 -199.5 -49t-147.5 -129t-88.5 -179.5t-31.5 -203.5q0 -90 19.5 -183.5t63.5 -185.5t107 -164t157.5 -116.5t207.5 -44.5q88 0 168.5 27.5t134 67
t95.5 79t70.5 67t41.5 27.5q8 0 18.5 -7t10.5 -15q0 -26 -24 -70t-76.5 -98t-123.5 -102t-177.5 -82t-225.5 -37l-45 -111q33 10 78 10q21 0 45 -7t50 -22.5t43 -47t17 -74.5q0 -168 -274 -168q-67 0 -156 34l27 66q56 -22 121 -22q123 0 123 81q0 37 -24.5 58.5t-72.5 21.5
q-34 0 -57 -10z" />
    <glyph glyph-name="Egrave" unicode="&#xc8;" horiz-adv-x="1251" 
d="M483 1202v-287q0 -39 1 -54t10 -29t26 -16.5t51 -2.5h129q49 0 86.5 19.5t57.5 47t33.5 55t24.5 47t22 19.5q23 0 30 -12q8 -12 9 -39l14 -364l1 -14q1 -13 1.5 -18.5t0 -18.5t-2.5 -19.5t-6 -15t-11.5 -12t-17.5 -3.5q-15 0 -24.5 16t-14.5 40t-16.5 52.5t-28 52.5
t-52 40t-85.5 16h-152q-27 0 -42.5 -4t-25 -8.5t-13.5 -23t-4.5 -31.5t-0.5 -50v-26v-262q0 -102 8 -131q17 -56 86 -67q20 -3 46 -3q104 0 186.5 15t133 38.5t88 52t58 57.5t35.5 52.5t28 38.5t28 15q22 0 22 -46q0 -80 -36.5 -155t-104 -123.5t-148.5 -48.5
q-182 0 -346.5 4t-189.5 4t-112 -4t-150 -4q-39 0 -39 22t11.5 33t28.5 13.5t37.5 12t37.5 24.5t28.5 53.5t11.5 97.5v958q0 51 -24 83t-57.5 44.5t-67.5 20t-58 19.5t-24 34q0 14 12 24.5t33 10.5q13 0 186.5 -4t358.5 -4q68 0 220.5 4t246.5 4q19 0 30 -12t11 -27l8 -203
q0 -1 1 -10t1 -13t0.5 -13t-0.5 -14.5t-2.5 -13t-4 -12t-6.5 -9.5t-10 -7t-14 -2q-19 0 -27.5 13t-11.5 34.5t-7 47t-20 51t-44 47t-85 34.5t-137 13h-68t-53.5 -1.5t-43.5 -2.5t-32 -6t-24.5 -9t-15.5 -13.5t-11 -18t-5 -25t-3 -30.5v-38zM780 1571h-94l-285 180
q-3 2 -14 8.5t-15 9.5t-13.5 9t-13 10t-10.5 11t-10.5 13t-7 13.5t-5 16t-1.5 18.5q0 17 22.5 44t59.5 27q27 0 46.5 -14.5t73.5 -70.5q4 -3 6 -5.5t5 -5.5l6 -6z" />
    <glyph glyph-name="Eacute" unicode="&#xc9;" horiz-adv-x="1251" 
d="M483 1202v-287q0 -39 1 -54t10 -29t26 -16.5t51 -2.5h129q49 0 86.5 19.5t57.5 47t33.5 55t24.5 47t22 19.5q23 0 30 -12q8 -12 9 -39l14 -364l1 -14q1 -13 1.5 -18.5t0 -18.5t-2.5 -19.5t-6 -15t-11.5 -12t-17.5 -3.5q-15 0 -24.5 16t-14.5 40t-16.5 52.5t-28 52.5
t-52 40t-85.5 16h-152q-27 0 -42.5 -4t-25 -8.5t-13.5 -23t-4.5 -31.5t-0.5 -50v-26v-262q0 -102 8 -131q17 -56 86 -67q20 -3 46 -3q104 0 186.5 15t133 38.5t88 52t58 57.5t35.5 52.5t28 38.5t28 15q22 0 22 -46q0 -80 -36.5 -155t-104 -123.5t-148.5 -48.5
q-182 0 -346.5 4t-189.5 4t-112 -4t-150 -4q-39 0 -39 22t11.5 33t28.5 13.5t37.5 12t37.5 24.5t28.5 53.5t11.5 97.5v958q0 51 -24 83t-57.5 44.5t-67.5 20t-58 19.5t-24 34q0 14 12 24.5t33 10.5q13 0 186.5 -4t358.5 -4q68 0 220.5 4t246.5 4q19 0 30 -12t11 -27l8 -203
q0 -1 1 -10t1 -13t0.5 -13t-0.5 -14.5t-2.5 -13t-4 -12t-6.5 -9.5t-10 -7t-14 -2q-19 0 -27.5 13t-11.5 34.5t-7 47t-20 51t-44 47t-85 34.5t-137 13h-68t-53.5 -1.5t-43.5 -2.5t-32 -6t-24.5 -9t-15.5 -13.5t-11 -18t-5 -25t-3 -30.5v-38zM561 1571h-94l250 258
q74 76 92 88q20 14 45 14q37 0 59.5 -27t22.5 -44q0 -10 -1.5 -18.5t-5 -16t-7 -13.5t-10.5 -13t-10.5 -11t-13 -10t-13.5 -9t-15 -9.5t-14 -8.5z" />
    <glyph glyph-name="Ecircumflex" unicode="&#xca;" horiz-adv-x="1251" 
d="M483 1202v-287q0 -39 1 -54t10 -29t26 -16.5t51 -2.5h129q49 0 86.5 19.5t57.5 47t33.5 55t24.5 47t22 19.5q23 0 30 -12q8 -12 9 -39l14 -364l1 -14q1 -13 1.5 -18.5t0 -18.5t-2.5 -19.5t-6 -15t-11.5 -12t-17.5 -3.5q-15 0 -24.5 16t-14.5 40t-16.5 52.5t-28 52.5
t-52 40t-85.5 16h-152q-27 0 -42.5 -4t-25 -8.5t-13.5 -23t-4.5 -31.5t-0.5 -50v-26v-262q0 -102 8 -131q17 -56 86 -67q20 -3 46 -3q104 0 186.5 15t133 38.5t88 52t58 57.5t35.5 52.5t28 38.5t28 15q22 0 22 -46q0 -80 -36.5 -155t-104 -123.5t-148.5 -48.5
q-182 0 -346.5 4t-189.5 4t-112 -4t-150 -4q-39 0 -39 22t11.5 33t28.5 13.5t37.5 12t37.5 24.5t28.5 53.5t11.5 97.5v958q0 51 -24 83t-57.5 44.5t-67.5 20t-58 19.5t-24 34q0 14 12 24.5t33 10.5q13 0 186.5 -4t358.5 -4q68 0 220.5 4t246.5 4q19 0 30 -12t11 -27l8 -203
q0 -1 1 -10t1 -13t0.5 -13t-0.5 -14.5t-2.5 -13t-4 -12t-6.5 -9.5t-10 -7t-14 -2q-19 0 -27.5 13t-11.5 34.5t-7 47t-20 51t-44 47t-85 34.5t-137 13h-68t-53.5 -1.5t-43.5 -2.5t-32 -6t-24.5 -9t-15.5 -13.5t-11 -18t-5 -25t-3 -30.5v-38zM696 1917l254 -346h-88l-235 211
l-238 -211h-88l254 346h141z" />
    <glyph glyph-name="Edieresis" unicode="&#xcb;" horiz-adv-x="1251" 
d="M483 1202v-287q0 -39 1 -54t10 -29t26 -16.5t51 -2.5h129q49 0 86.5 19.5t57.5 47t33.5 55t24.5 47t22 19.5q23 0 30 -12q8 -12 9 -39l14 -364l1 -14q1 -13 1.5 -18.5t0 -18.5t-2.5 -19.5t-6 -15t-11.5 -12t-17.5 -3.5q-15 0 -24.5 16t-14.5 40t-16.5 52.5t-28 52.5
t-52 40t-85.5 16h-152q-27 0 -42.5 -4t-25 -8.5t-13.5 -23t-4.5 -31.5t-0.5 -50v-26v-262q0 -102 8 -131q17 -56 86 -67q20 -3 46 -3q104 0 186.5 15t133 38.5t88 52t58 57.5t35.5 52.5t28 38.5t28 15q22 0 22 -46q0 -80 -36.5 -155t-104 -123.5t-148.5 -48.5
q-182 0 -346.5 4t-189.5 4t-112 -4t-150 -4q-39 0 -39 22t11.5 33t28.5 13.5t37.5 12t37.5 24.5t28.5 53.5t11.5 97.5v958q0 51 -24 83t-57.5 44.5t-67.5 20t-58 19.5t-24 34q0 14 12 24.5t33 10.5q13 0 186.5 -4t358.5 -4q68 0 220.5 4t246.5 4q19 0 30 -12t11 -27l8 -203
q0 -1 1 -10t1 -13t0.5 -13t-0.5 -14.5t-2.5 -13t-4 -12t-6.5 -9.5t-10 -7t-14 -2q-19 0 -27.5 13t-11.5 34.5t-7 47t-20 51t-44 47t-85 34.5t-137 13h-68t-53.5 -1.5t-43.5 -2.5t-32 -6t-24.5 -9t-15.5 -13.5t-11 -18t-5 -25t-3 -30.5v-38zM440 1831q18 0 57.5 -48t39.5 -73
t-39.5 -73t-57.5 -48t-57 48t-39 73t39 73t57 48zM811 1831q18 0 57 -48t39 -73t-39 -73t-57 -48t-57 48t-39 73t39 73t57 48z" />
    <glyph glyph-name="Igrave" unicode="&#xcc;" horiz-adv-x="796" 
d="M524 1223v-977q0 -59 17 -99t42.5 -56.5t55.5 -26t55.5 -11t42.5 -8.5t17 -22q0 -17 -15 -24t-51 -7q-28 0 -124 4t-187 4q-48 0 -128 -4t-102 -4t-22 24q0 16 11 27t27 16.5t35.5 17t35.5 26.5t27 47.5t11 78.5v983q0 44 -17 74.5t-43 44.5t-55.5 24t-55.5 15t-43 16
t-17 27q0 7 2.5 12.5t8 8.5t11 5t13.5 2.5t13 0.5h12.5h9.5q41 0 118.5 -4t112.5 -4q32 0 116 4t148 4q46 0 59 -5t13 -24t-16 -27.5t-38.5 -14t-45 -17t-38.5 -44.5t-16 -87zM553 1571h-94l-285 180q-3 2 -14 8.5t-15 9.5t-13.5 9t-13 10t-10.5 11t-10.5 13t-7 13.5t-5 16
t-1.5 18.5q0 17 22.5 44t59.5 27q27 0 46.5 -14.5t73.5 -70.5q4 -3 6 -5.5t5 -5.5l6 -6z" />
    <glyph glyph-name="Iacute" unicode="&#xcd;" horiz-adv-x="796" 
d="M524 1223v-977q0 -59 17 -99t42.5 -56.5t55.5 -26t55.5 -11t42.5 -8.5t17 -22q0 -17 -15 -24t-51 -7q-28 0 -124 4t-187 4q-48 0 -128 -4t-102 -4t-22 24q0 16 11 27t27 16.5t35.5 17t35.5 26.5t27 47.5t11 78.5v983q0 44 -17 74.5t-43 44.5t-55.5 24t-55.5 15t-43 16
t-17 27q0 7 2.5 12.5t8 8.5t11 5t13.5 2.5t13 0.5h12.5h9.5q41 0 118.5 -4t112.5 -4q32 0 116 4t148 4q46 0 59 -5t13 -24t-16 -27.5t-38.5 -14t-45 -17t-38.5 -44.5t-16 -87zM334 1571h-94l249 258q49 50 64 64.5t34.5 26t39.5 11.5q37 0 59.5 -27t22.5 -44q0 -11 -2.5 -21
t-5.5 -17t-10 -15.5t-11 -13t-14.5 -12t-14.5 -10t-17 -10.5t-16 -10z" />
    <glyph glyph-name="Icircumflex" unicode="&#xce;" horiz-adv-x="796" 
d="M524 1223v-977q0 -59 17 -99t42.5 -56.5t55.5 -26t55.5 -11t42.5 -8.5t17 -22q0 -17 -15 -24t-51 -7q-28 0 -124 4t-187 4q-48 0 -128 -4t-102 -4t-22 24q0 16 11 27t27 16.5t35.5 17t35.5 26.5t27 47.5t11 78.5v983q0 44 -17 74.5t-43 44.5t-55.5 24t-55.5 15t-43 16
t-17 27q0 7 2.5 12.5t8 8.5t11 5t13.5 2.5t13 0.5h12.5h9.5q41 0 118.5 -4t112.5 -4q32 0 116 4t148 4q46 0 59 -5t13 -24t-16 -27.5t-38.5 -14t-45 -17t-38.5 -44.5t-16 -87zM469 1917l254 -346h-88l-236 211l-237 -211h-88l254 346h141z" />
    <glyph glyph-name="Idieresis" unicode="&#xcf;" horiz-adv-x="796" 
d="M524 1223v-977q0 -59 17 -99t42.5 -56.5t55.5 -26t55.5 -11t42.5 -8.5t17 -22q0 -17 -15 -24t-51 -7q-28 0 -124 4t-187 4q-48 0 -128 -4t-102 -4t-22 24q0 16 11 27t27 16.5t35.5 17t35.5 26.5t27 47.5t11 78.5v983q0 44 -17 74.5t-43 44.5t-55.5 24t-55.5 15t-43 16
t-17 27q0 7 2.5 12.5t8 8.5t11 5t13.5 2.5t13 0.5h12.5h9.5q41 0 118.5 -4t112.5 -4q32 0 116 4t148 4q46 0 59 -5t13 -24t-16 -27.5t-38.5 -14t-45 -17t-38.5 -44.5t-16 -87zM213 1831q18 0 57 -48t39 -73t-39 -73t-57 -48t-57 48t-39 73t39 73t57 48zM584 1831
q18 0 57 -48t39 -73t-39 -73t-57 -48t-57.5 48t-39.5 73t39.5 73t57.5 48z" />
    <glyph glyph-name="Eth" unicode="&#xd0;" horiz-adv-x="1593" 
d="M51 721v104h178v367q0 49 -16 83t-40.5 49.5t-53 26t-53 15t-40.5 15.5t-16 28q0 14 12.5 23.5t24.5 9.5t41.5 -2t91 -4t150.5 -2q53 0 158.5 4t158.5 4q55 0 102.5 -2t117.5 -9.5t128 -20.5t127 -38t123.5 -59t107 -85.5t87.5 -115.5t56.5 -152t21.5 -192
q0 -122 -30.5 -229t-80.5 -184t-117 -140.5t-137.5 -104t-143.5 -68t-134 -39t-111 -11.5q-140 0 -275 4t-153 4q-32 0 -95 -4t-94 -4q-5 0 -21 -0.5t-23 0t-17.5 2.5t-15 8.5t-4.5 17.5q0 21 17 31t41 15.5t47.5 16t40.5 41t17 81.5v516h-178zM903 825v-104h-422v-502
q0 -39 17 -67.5t41 -43.5t58 -24t60.5 -11.5t55.5 -2.5q248 0 397.5 162t149.5 470q0 46 -7 98.5t-25.5 118t-47.5 126t-77.5 120t-110 103t-150.5 70t-195 26.5q-46 0 -76.5 -7t-48.5 -19.5t-27 -38.5t-11.5 -53t-2.5 -75v-346h422z" />
    <glyph glyph-name="Ntilde" unicode="&#xd1;" horiz-adv-x="1705" 
d="M242 270v779q0 80 -12.5 138t-33 88t-45 48.5t-49 25.5t-45 12.5t-33 16t-12.5 29.5q0 35 35 35q19 0 57 -4t58 -4q19 0 86.5 4t128.5 4q24 0 35 -3.5t14.5 -8t10.5 -17t18 -24.5l823 -904q49 -53 63 -53q17 0 17 76v682q0 44 -18.5 76t-46.5 48t-60 28.5t-60 19.5
t-46.5 18t-18.5 27q0 35 33 35q3 0 76 -4t157 -4q57 0 107 2t79 4t33 2q39 0 39 -27q0 -14 -13 -23.5t-32 -14.5t-42 -17.5t-42 -30t-32 -54t-13 -87.5v-1149q0 -49 -8 -57q-5 -5 -16 -5q-29 0 -54 29l-985 1065q-24 27 -37 27q-16 0 -16 -33v-696q0 -80 14.5 -137.5
t37.5 -87.5t51 -47.5t56 -24t51 -11.5t37.5 -14.5t14.5 -28.5q0 -27 -71 -26h-7q-54 0 -131 4t-110 4q-34 0 -92 -4t-84 -4q-4 0 -15 -1t-18 -0.5t-15 2t-12 7.5t-4 16q0 22 20.5 37t49.5 28t57.5 32t49 59t20.5 98zM1133 1853h69q-56 -229 -229 -229q-68 0 -160 49l-13 6.5
l-14 7l-13 6.5t-13.5 6.5t-12.5 5.5t-14 5.5t-13 4t-13.5 3t-12.5 1.5t-14 1q-14 0 -27 -3t-23 -8t-18 -11.5t-14 -14.5t-10.5 -15t-8 -15.5t-5 -13.5t-3.5 -11l-2 -6h-67q6 38 22.5 75t42.5 72t68 56.5t92 21.5q56 0 156 -49t147 -49q18 0 33.5 7.5t25.5 17.5t19 24
t13 24.5t8 20.5z" />
    <glyph glyph-name="Ograve" unicode="&#xd2;" horiz-adv-x="1593" 
d="M51 670q0 169 51 312.5t146 249.5t240 166.5t325 61.5q149 1 278.5 -46.5t224 -135.5t148.5 -220.5t54 -291.5q0 -67 -8.5 -134.5t-32 -147t-60 -150t-98 -137t-140 -114.5t-192 -77t-248.5 -29q-309 0 -498.5 190.5t-189.5 502.5zM303 786q0 -94 16 -190.5t53.5 -193.5
t93 -171.5t141.5 -120.5t192 -44q103 2 183.5 34.5t133 88t87 134.5t49 168t14.5 195q0 164 -43 298t-115.5 217.5t-164 128t-191.5 42.5q-101 -2 -179.5 -35.5t-128.5 -87.5t-82.5 -130.5t-45.5 -157.5t-13 -175zM952 1571h-94l-285 180q-3 2 -14 8.5t-15 9.5t-13.5 9
t-13 10t-10.5 11t-10.5 13t-7 13.5t-5 16t-1.5 18.5q0 17 22.5 44t59.5 27q27 0 46.5 -14.5t73.5 -70.5q4 -3 6 -5.5t5 -5.5l6 -6z" />
    <glyph glyph-name="Oacute" unicode="&#xd3;" horiz-adv-x="1593" 
d="M51 670q0 169 51 312.5t146 249.5t240 166.5t325 61.5q149 1 278.5 -46.5t224 -135.5t148.5 -220.5t54 -291.5q0 -67 -8.5 -134.5t-32 -147t-60 -150t-98 -137t-140 -114.5t-192 -77t-248.5 -29q-309 0 -498.5 190.5t-189.5 502.5zM303 786q0 -94 16 -190.5t53.5 -193.5
t93 -171.5t141.5 -120.5t192 -44q103 2 183.5 34.5t133 88t87 134.5t49 168t14.5 195q0 164 -43 298t-115.5 217.5t-164 128t-191.5 42.5q-101 -2 -179.5 -35.5t-128.5 -87.5t-82.5 -130.5t-45.5 -157.5t-13 -175zM733 1571h-94l250 258q74 76 92 88q20 14 45 14
q37 0 59.5 -27t22.5 -44q0 -10 -1.5 -18.5t-5 -16t-7 -13.5t-10.5 -13t-10.5 -11t-13 -10t-13.5 -9t-15 -9.5t-14 -8.5z" />
    <glyph glyph-name="Ocircumflex" unicode="&#xd4;" horiz-adv-x="1593" 
d="M51 670q0 169 51 312.5t146 249.5t240 166.5t325 61.5q149 1 278.5 -46.5t224 -135.5t148.5 -220.5t54 -291.5q0 -67 -8.5 -134.5t-32 -147t-60 -150t-98 -137t-140 -114.5t-192 -77t-248.5 -29q-309 0 -498.5 190.5t-189.5 502.5zM303 786q0 -94 16 -190.5t53.5 -193.5
t93 -171.5t141.5 -120.5t192 -44q103 2 183.5 34.5t133 88t87 134.5t49 168t14.5 195q0 164 -43 298t-115.5 217.5t-164 128t-191.5 42.5q-101 -2 -179.5 -35.5t-128.5 -87.5t-82.5 -130.5t-45.5 -157.5t-13 -175zM868 1917l254 -346h-88l-235 211l-238 -211h-88l254 346
h141z" />
    <glyph glyph-name="Otilde" unicode="&#xd5;" horiz-adv-x="1593" 
d="M51 670q0 169 51 312.5t146 249.5t240 166.5t325 61.5q149 1 278.5 -46.5t224 -135.5t148.5 -220.5t54 -291.5q0 -67 -8.5 -134.5t-32 -147t-60 -150t-98 -137t-140 -114.5t-192 -77t-248.5 -29q-309 0 -498.5 190.5t-189.5 502.5zM303 786q0 -94 16 -190.5t53.5 -193.5
t93 -171.5t141.5 -120.5t192 -44q103 2 183.5 34.5t133 88t87 134.5t49 168t14.5 195q0 164 -43 298t-115.5 217.5t-164 128t-191.5 42.5q-101 -2 -179.5 -35.5t-128.5 -87.5t-82.5 -130.5t-45.5 -157.5t-13 -175zM1077 1853h70q-56 -229 -229 -229q-68 0 -160 49l-13 6.5
l-14 7l-13 6.5t-13.5 6.5t-12.5 5.5t-14 5.5t-13 4t-13.5 3t-12.5 1.5t-14 1q-14 0 -27 -3t-23 -8t-18 -11.5t-14 -14.5t-10.5 -15t-8 -15.5t-5 -13.5t-3.5 -11l-2 -6h-68q6 38 22.5 75.5t43 72t68.5 56t92 21.5q55 0 155 -49t148 -49q18 0 33 7.5t25.5 17.5t19 24t13 24.5
t8.5 20.5z" />
    <glyph glyph-name="Odieresis" unicode="&#xd6;" horiz-adv-x="1593" 
d="M51 670q0 169 51 312.5t146 249.5t240 166.5t325 61.5q149 1 278.5 -46.5t224 -135.5t148.5 -220.5t54 -291.5q0 -67 -8.5 -134.5t-32 -147t-60 -150t-98 -137t-140 -114.5t-192 -77t-248.5 -29q-309 0 -498.5 190.5t-189.5 502.5zM303 786q0 -94 16 -190.5t53.5 -193.5
t93 -171.5t141.5 -120.5t192 -44q103 2 183.5 34.5t133 88t87 134.5t49 168t14.5 195q0 164 -43 298t-115.5 217.5t-164 128t-191.5 42.5q-101 -2 -179.5 -35.5t-128.5 -87.5t-82.5 -130.5t-45.5 -157.5t-13 -175zM612 1831q18 0 57.5 -48t39.5 -73t-39.5 -73t-57.5 -48
t-57 48t-39 73t39 73t57 48zM983 1831q18 0 57 -48t39 -73t-39 -73t-57 -48t-57 48t-39 73t39 73t57 48z" />
    <glyph glyph-name="multiply" unicode="&#xd7;" horiz-adv-x="1241" 
d="M496 522l-392 391l125 125l392 -391l391 391l125 -125l-392 -391l392 -391l-125 -125l-391 391l-392 -391l-125 125z" />
    <glyph glyph-name="Oslash" unicode="&#xd8;" horiz-adv-x="1593" 
d="M541 152l397 1179q-69 41 -186 41q-101 -2 -179.5 -35.5t-128.5 -87.5t-82.5 -130.5t-45.5 -157.5t-13 -175q0 -111 22.5 -223.5t78.5 -226.5t137 -184zM1024 1280l-397 -1180q64 -34 172 -34q103 2 183.5 34.5t133 88t87 134.5t49 168t14.5 195q0 182 -58 338t-184 256z
M410 -240l86 254q-218 73 -331.5 247.5t-113.5 408.5q0 169 51 312.5t146 249.5t240 166.5t325 61.5q75 0 164 -14l86 254h102l-94 -277q204 -65 325.5 -241t121.5 -416q0 -67 -8.5 -134.5t-32 -147t-60 -150t-98 -137t-140 -114.5t-192 -77t-248.5 -29q-80 0 -147 13
l-78 -230h-104z" />
    <glyph glyph-name="Ugrave" unicode="&#xd9;" horiz-adv-x="1705" 
d="M1497 1202v-463q0 -94 -8 -173.5t-28.5 -159t-54 -142.5t-86 -118t-123 -91t-167 -57t-215.5 -21q-291 0 -439.5 141t-148.5 435v668q0 49 -22 79t-53.5 41t-62.5 18t-53 18t-22 32q0 33 43 33q4 0 113.5 -4t169.5 -4t169 4t120 4q22 0 22 -29q0 -14 -9.5 -20.5
t-24.5 -10.5t-33.5 -9.5t-37 -21t-33.5 -41.5t-24.5 -76t-9.5 -118v-444q0 -100 11 -180.5t41.5 -156t79.5 -126t129.5 -81t187.5 -30.5q85 0 153.5 19.5t116.5 52t83 83.5t55.5 105.5t32.5 126t16 137t4 146.5v406q0 56 -18.5 95t-46.5 57t-61 31t-61 18.5t-46.5 16
t-18.5 27.5q0 9 3.5 15t10.5 7.5t13 2t17.5 -0.5t16.5 -1q118 -8 172 -8q30 0 234 8q20 0 28 -5.5t8 -21.5q0 -12 -10.5 -19t-26.5 -9.5t-34.5 -12.5t-34.5 -26t-26.5 -54t-10.5 -92zM1049 1571h-95l-284 180q-3 2 -14 8.5t-15 9.5t-13.5 9t-13 10t-10.5 11t-10.5 13
t-7 13.5t-5 16t-1.5 18.5q0 17 22.5 44t59.5 27q27 0 46.5 -14.5t73.5 -70.5q4 -3 6 -5.5t5 -5.5l6 -6z" />
    <glyph glyph-name="Uacute" unicode="&#xda;" horiz-adv-x="1705" 
d="M1497 1202v-463q0 -94 -8 -173.5t-28.5 -159t-54 -142.5t-86 -118t-123 -91t-167 -57t-215.5 -21q-291 0 -439.5 141t-148.5 435v668q0 49 -22 79t-53.5 41t-62.5 18t-53 18t-22 32q0 33 43 33q4 0 113.5 -4t169.5 -4t169 4t120 4q22 0 22 -29q0 -14 -9.5 -20.5
t-24.5 -10.5t-33.5 -9.5t-37 -21t-33.5 -41.5t-24.5 -76t-9.5 -118v-444q0 -100 11 -180.5t41.5 -156t79.5 -126t129.5 -81t187.5 -30.5q85 0 153.5 19.5t116.5 52t83 83.5t55.5 105.5t32.5 126t16 137t4 146.5v406q0 56 -18.5 95t-46.5 57t-61 31t-61 18.5t-46.5 16
t-18.5 27.5q0 9 3.5 15t10.5 7.5t13 2t17.5 -0.5t16.5 -1q118 -8 172 -8q30 0 234 8q20 0 28 -5.5t8 -21.5q0 -12 -10.5 -19t-26.5 -9.5t-34.5 -12.5t-34.5 -26t-26.5 -54t-10.5 -92zM788 1571h-94l250 258q74 76 92 88q20 14 45 14q37 0 59.5 -27t22.5 -44
q0 -10 -1.5 -18.5t-5 -16t-7 -13.5t-10.5 -13t-10.5 -11t-13 -10t-13.5 -9t-15 -9.5t-14 -8.5z" />
    <glyph glyph-name="Ucircumflex" unicode="&#xdb;" horiz-adv-x="1705" 
d="M1497 1202v-463q0 -94 -8 -173.5t-28.5 -159t-54 -142.5t-86 -118t-123 -91t-167 -57t-215.5 -21q-291 0 -439.5 141t-148.5 435v668q0 49 -22 79t-53.5 41t-62.5 18t-53 18t-22 32q0 33 43 33q4 0 113.5 -4t169.5 -4t169 4t120 4q22 0 22 -29q0 -14 -9.5 -20.5
t-24.5 -10.5t-33.5 -9.5t-37 -21t-33.5 -41.5t-24.5 -76t-9.5 -118v-444q0 -100 11 -180.5t41.5 -156t79.5 -126t129.5 -81t187.5 -30.5q85 0 153.5 19.5t116.5 52t83 83.5t55.5 105.5t32.5 126t16 137t4 146.5v406q0 56 -18.5 95t-46.5 57t-61 31t-61 18.5t-46.5 16
t-18.5 27.5q0 9 3.5 15t10.5 7.5t13 2t17.5 -0.5t16.5 -1q118 -8 172 -8q30 0 234 8q20 0 28 -5.5t8 -21.5q0 -12 -10.5 -19t-26.5 -9.5t-34.5 -12.5t-34.5 -26t-26.5 -54t-10.5 -92zM924 1917l254 -346h-88l-236 211l-238 -211h-88l254 346h142z" />
    <glyph glyph-name="Udieresis" unicode="&#xdc;" horiz-adv-x="1705" 
d="M1497 1202v-463q0 -94 -8 -173.5t-28.5 -159t-54 -142.5t-86 -118t-123 -91t-167 -57t-215.5 -21q-291 0 -439.5 141t-148.5 435v668q0 49 -22 79t-53.5 41t-62.5 18t-53 18t-22 32q0 33 43 33q4 0 113.5 -4t169.5 -4t169 4t120 4q22 0 22 -29q0 -14 -9.5 -20.5
t-24.5 -10.5t-33.5 -9.5t-37 -21t-33.5 -41.5t-24.5 -76t-9.5 -118v-444q0 -100 11 -180.5t41.5 -156t79.5 -126t129.5 -81t187.5 -30.5q85 0 153.5 19.5t116.5 52t83 83.5t55.5 105.5t32.5 126t16 137t4 146.5v406q0 56 -18.5 95t-46.5 57t-61 31t-61 18.5t-46.5 16
t-18.5 27.5q0 9 3.5 15t10.5 7.5t13 2t17.5 -0.5t16.5 -1q118 -8 172 -8q30 0 234 8q20 0 28 -5.5t8 -21.5q0 -12 -10.5 -19t-26.5 -9.5t-34.5 -12.5t-34.5 -26t-26.5 -54t-10.5 -92zM668 1831q18 0 57 -48t39 -73t-39 -73t-57 -48t-57.5 48t-39.5 73t39.5 73t57.5 48z
M1038 1831q18 0 57.5 -48t39.5 -73t-39.5 -73t-57.5 -48t-57 48t-39 73t39 73t57 48z" />
    <glyph glyph-name="Yacute" unicode="&#xdd;" horiz-adv-x="1366" 
d="M551 649l-324 606q-22 41 -51.5 66.5t-55 35.5t-48.5 16.5t-36 16t-13 27.5q0 17 15 21t56 4q10 0 70 -4t119 -4q174 0 299 8q34 2 34 -27q0 -15 -17.5 -25.5t-38.5 -16t-38.5 -20t-17.5 -38.5q0 -37 28 -94l185 -381q27 -56 39.5 -75.5t23.5 -19.5q17 0 51 62l187 338
q37 66 37 112q0 37 -20.5 61t-50 34t-58.5 16t-49.5 16t-20.5 27q0 31 39 31q4 0 58.5 -4t117.5 -4q90 0 155 4t81 4q36 0 36 -23q0 -17 -17 -29.5t-43.5 -25.5t-69 -60.5t-83.5 -123.5l-268 -508q-16 -33 -21 -55t-5 -74v-305q0 -52 14 -87.5t36 -51.5t48.5 -24t53.5 -9.5
t49 -4.5t36 -13.5t14 -31.5q0 -11 -10 -16.5t-21.5 -6.5t-33.5 -1l-24 2q-25 2 -96.5 4t-184.5 2q-108 0 -198 -4t-103 -4q-56 0 -56 22q0 21 16.5 32t41.5 13.5t54 12t54 25t41.5 56t16.5 101.5v266q0 48 -6 70t-27 59zM618 1571h-94l250 258q74 76 92 88q20 14 45 14
q37 0 59.5 -27t22.5 -44q0 -10 -1.5 -18.5t-5 -16t-7 -13.5t-10.5 -13t-10.5 -11t-13 -10t-13.5 -9t-15 -9.5t-14 -8.5z" />
    <glyph glyph-name="Thorn" unicode="&#xde;" horiz-adv-x="1251" 
d="M479 922v-650q0 -52 11.5 -90.5t29.5 -58.5t40 -33.5t44.5 -19.5t40.5 -11t29.5 -13.5t11.5 -22.5q0 -6 -1 -11t-2 -8.5t-5 -5.5t-5.5 -3.5t-7.5 -2t-8 -0.5h-10h-10q-84 0 -176.5 4t-102.5 4q-36 0 -96 -2t-106.5 -4t-49.5 -2q-43 0 -43 31q0 15 17 25.5t41 22.5t48 33
t41 69.5t17 119.5v901q0 60 -22 97t-53.5 49t-62.5 18t-53 15.5t-22 29.5q0 14 13 26.5t45 12.5q3 0 14 -0.5t32.5 -1.5t41.5 -2q98 -4 194 -4q24 -1 94.5 -0.5t83.5 2.5q6 0 54 4t53 4q18 0 27.5 -7t10.5 -13t1 -15q0 -5 -6 -23q-15 -7 -56 -13t-51 -9q-17 -5 -26 -9
t-26 -16t-25.5 -34t-8.5 -54v-108h152q559 0 559 -400q0 -135 -63 -227.5t-165.5 -134t-236.5 -41.5q-18 0 -41.5 2.5t-58 9t-57.5 22.5t-23 40q0 11 9 18.5t24 7.5q6 0 52.5 -7t53.5 -7q27 0 56.5 6.5t66 26t64.5 51t47.5 87.5t19.5 128q0 140 -83.5 236t-223.5 96
q-44 0 -74 -9t-45 -20t-23 -32.5t-9 -34.5t-1 -39z" />
    <glyph glyph-name="germandbls" unicode="&#xdf;" 
d="M389 1122v-970q0 -41 19 -63.5t41.5 -27.5t41.5 -15t19 -28q0 -15 -7.5 -20.5t-25.5 -5.5t-102.5 4t-116.5 4q-26 0 -85 -4t-83 -4q-11 0 -21 12.5t-10 22.5q0 12 12 18.5t29.5 12.5t34.5 16t28 35.5t9 64.5v754q1 94 11.5 172t39.5 155.5t75 130.5t122.5 86t177.5 33
q104 0 189.5 -40.5t137.5 -120t52 -183.5q0 -130 -90.5 -221t-222.5 -109v-4q11 0 33.5 -3t62.5 -14.5t80 -29.5t83.5 -52t76 -77.5t54 -111t21.5 -148.5q0 -97 -35 -177t-89.5 -128t-115.5 -74t-118 -26q-40 0 -60.5 0.5t-42.5 4.5t-30.5 10t-16.5 18.5t-10 29t-2 43.5
q0 25 0.5 37.5t4.5 37.5t15 37.5t29 12.5t36 -22.5t30.5 -50t32 -50t40.5 -22.5q5 0 10.5 0.5t17 6t21 14.5t21 29t19 46.5t13 69.5t5.5 96q0 63 -3.5 108t-15.5 99t-38.5 99t-67.5 81q-35 31 -77 43t-70 10t-47 7.5t-19 37.5q0 14 6 24.5t12 10.5q127 10 179.5 82.5
t52.5 206.5q0 57 -7 101.5t-26.5 87t-59 66t-98.5 23.5q-43 0 -75 -12t-51.5 -36.5t-31.5 -49.5t-16.5 -64.5t-6 -66.5t-1.5 -70z" />
    <glyph glyph-name="agrave" unicode="&#xe0;" horiz-adv-x="909" 
d="M526 168v199v25q1 30 -1.5 39t-12.5 9q-32 0 -72 -13.5t-78.5 -38t-65 -66t-26.5 -89.5q0 -135 109 -135q44 0 95.5 19.5t51.5 50.5zM743 578v-353q0 -81 9 -104t47 -23q14 0 36.5 5.5t28.5 5.5q10 0 16.5 -5.5t6.5 -13.5q0 -31 -72 -72t-127 -41q-34 0 -60 13t-40 34
t-21.5 39.5t-11.5 38.5q-68 -55 -153 -90t-166 -35q-85 0 -139 54t-54 139q0 37 8.5 69.5t21 57.5t35.5 47.5t43.5 38.5t54 31.5t58.5 25.5t65 21t65 17t67.5 16.5t64.5 15.5q0 50 -2 84t-7.5 71.5t-17.5 61.5t-31 44.5t-48.5 30t-69.5 9.5q-58 0 -76 -22t-18 -93
q0 -27 -14.5 -46.5t-32 -29t-42 -14.5t-35.5 -5.5t-21 -0.5q-54 0 -54 43q0 51 25.5 92.5t65 67.5t91 44t99.5 25t94 7q159 0 235 -73t76 -228zM610 985h-94l-285 180q-3 2 -14 8.5t-15 9.5t-13.5 9t-13 10t-10.5 11t-10.5 13t-7 13.5t-5 16t-1.5 18.5q0 17 22.5 44.5
t59.5 27.5t116 -82q14 -13 21 -21z" />
    <glyph glyph-name="aacute" unicode="&#xe1;" horiz-adv-x="909" 
d="M526 168v199v25q1 30 -1.5 39t-12.5 9q-32 0 -72 -13.5t-78.5 -38t-65 -66t-26.5 -89.5q0 -135 109 -135q44 0 95.5 19.5t51.5 50.5zM743 578v-353q0 -81 9 -104t47 -23q14 0 36.5 5.5t28.5 5.5q10 0 16.5 -5.5t6.5 -13.5q0 -31 -72 -72t-127 -41q-34 0 -60 13t-40 34
t-21.5 39.5t-11.5 38.5q-68 -55 -153 -90t-166 -35q-85 0 -139 54t-54 139q0 37 8.5 69.5t21 57.5t35.5 47.5t43.5 38.5t54 31.5t58.5 25.5t65 21t65 17t67.5 16.5t64.5 15.5q0 50 -2 84t-7.5 71.5t-17.5 61.5t-31 44.5t-48.5 30t-69.5 9.5q-58 0 -76 -22t-18 -93
q0 -27 -14.5 -46.5t-32 -29t-42 -14.5t-35.5 -5.5t-21 -0.5q-54 0 -54 43q0 51 25.5 92.5t65 67.5t91 44t99.5 25t94 7q159 0 235 -73t76 -228zM391 985h-94l250 258q75 77 91 88q21 15 46 15q37 0 59.5 -27.5t22.5 -44.5q0 -10 -1.5 -18.5t-5 -16t-7 -13.5t-10.5 -13
t-10.5 -11t-13 -10t-13.5 -9t-15 -9.5t-14 -8.5z" />
    <glyph glyph-name="acircumflex" unicode="&#xe2;" horiz-adv-x="909" 
d="M526 168v199v25q1 30 -1.5 39t-12.5 9q-32 0 -72 -13.5t-78.5 -38t-65 -66t-26.5 -89.5q0 -135 109 -135q44 0 95.5 19.5t51.5 50.5zM743 578v-353q0 -81 9 -104t47 -23q14 0 36.5 5.5t28.5 5.5q10 0 16.5 -5.5t6.5 -13.5q0 -31 -72 -72t-127 -41q-34 0 -60 13t-40 34
t-21.5 39.5t-11.5 38.5q-68 -55 -153 -90t-166 -35q-85 0 -139 54t-54 139q0 37 8.5 69.5t21 57.5t35.5 47.5t43.5 38.5t54 31.5t58.5 25.5t65 21t65 17t67.5 16.5t64.5 15.5q0 50 -2 84t-7.5 71.5t-17.5 61.5t-31 44.5t-48.5 30t-69.5 9.5q-58 0 -76 -22t-18 -93
q0 -27 -14.5 -46.5t-32 -29t-42 -14.5t-35.5 -5.5t-21 -0.5q-54 0 -54 43q0 51 25.5 92.5t65 67.5t91 44t99.5 25t94 7q159 0 235 -73t76 -228zM526 1331l254 -346h-88l-235 211l-238 -211h-88l254 346h141z" />
    <glyph glyph-name="atilde" unicode="&#xe3;" horiz-adv-x="909" 
d="M526 168v199v25q1 30 -1.5 39t-12.5 9q-32 0 -72 -13.5t-78.5 -38t-65 -66t-26.5 -89.5q0 -135 109 -135q44 0 95.5 19.5t51.5 50.5zM743 578v-353q0 -81 9 -104t47 -23q14 0 36.5 5.5t28.5 5.5q10 0 16.5 -5.5t6.5 -13.5q0 -31 -72 -72t-127 -41q-34 0 -60 13t-40 34
t-21.5 39.5t-11.5 38.5q-68 -55 -153 -90t-166 -35q-85 0 -139 54t-54 139q0 37 8.5 69.5t21 57.5t35.5 47.5t43.5 38.5t54 31.5t58.5 25.5t65 21t65 17t67.5 16.5t64.5 15.5q0 50 -2 84t-7.5 71.5t-17.5 61.5t-31 44.5t-48.5 30t-69.5 9.5q-58 0 -76 -22t-18 -93
q0 -27 -14.5 -46.5t-32 -29t-42 -14.5t-35.5 -5.5t-21 -0.5q-54 0 -54 43q0 51 25.5 92.5t65 67.5t91 44t99.5 25t94 7q159 0 235 -73t76 -228zM735 1268h70q-56 -230 -230 -230q-67 0 -159 49q-3 1 -18.5 9.5t-20 10.5t-18 8.5t-20 8.5t-17.5 5.5t-20.5 4.5t-18.5 1
q-14 0 -27 -3t-23 -8.5t-18 -11.5t-14 -14.5t-10.5 -15.5t-8 -15.5t-5 -13.5t-3.5 -11l-2 -6h-68q6 38 22.5 75.5t43 72.5t68.5 56.5t92 21.5q53 0 155 -50q100 -49 148 -49q18 0 33 7.5t25.5 18t19 24t13 24.5t8.5 21z" />
    <glyph glyph-name="adieresis" unicode="&#xe4;" horiz-adv-x="909" 
d="M526 168v199v25q1 30 -1.5 39t-12.5 9q-32 0 -72 -13.5t-78.5 -38t-65 -66t-26.5 -89.5q0 -135 109 -135q44 0 95.5 19.5t51.5 50.5zM743 578v-353q0 -81 9 -104t47 -23q14 0 36.5 5.5t28.5 5.5q10 0 16.5 -5.5t6.5 -13.5q0 -31 -72 -72t-127 -41q-34 0 -60 13t-40 34
t-21.5 39.5t-11.5 38.5q-68 -55 -153 -90t-166 -35q-85 0 -139 54t-54 139q0 37 8.5 69.5t21 57.5t35.5 47.5t43.5 38.5t54 31.5t58.5 25.5t65 21t65 17t67.5 16.5t64.5 15.5q0 50 -2 84t-7.5 71.5t-17.5 61.5t-31 44.5t-48.5 30t-69.5 9.5q-58 0 -76 -22t-18 -93
q0 -27 -14.5 -46.5t-32 -29t-42 -14.5t-35.5 -5.5t-21 -0.5q-54 0 -54 43q0 51 25.5 92.5t65 67.5t91 44t99.5 25t94 7q159 0 235 -73t76 -228zM270 1245q18 0 57.5 -48t39.5 -73t-39.5 -72.5t-57.5 -47.5t-57 47.5t-39 72.5t39 73t57 48zM641 1245q18 0 57 -48t39 -73
t-39 -72.5t-57 -47.5t-57 47.5t-39 72.5t39 73t57 48z" />
    <glyph glyph-name="aring" unicode="&#xe5;" horiz-adv-x="909" 
d="M526 168v199v25q1 30 -1.5 39t-12.5 9q-32 0 -72 -13.5t-78.5 -38t-65 -66t-26.5 -89.5q0 -135 109 -135q44 0 95.5 19.5t51.5 50.5zM743 578v-353q0 -81 9 -104t47 -23q14 0 36.5 5.5t28.5 5.5q10 0 16.5 -5.5t6.5 -13.5q0 -31 -72 -72t-127 -41q-34 0 -60 13t-40 34
t-21.5 39.5t-11.5 38.5q-68 -55 -153 -90t-166 -35q-85 0 -139 54t-54 139q0 37 8.5 69.5t21 57.5t35.5 47.5t43.5 38.5t54 31.5t58.5 25.5t65 21t65 17t67.5 16.5t64.5 15.5q0 50 -2 84t-7.5 71.5t-17.5 61.5t-31 44.5t-48.5 30t-69.5 9.5q-58 0 -76 -22t-18 -93
q0 -27 -14.5 -46.5t-32 -29t-42 -14.5t-35.5 -5.5t-21 -0.5q-54 0 -54 43q0 51 25.5 92.5t65 67.5t91 44t99.5 25t94 7q159 0 235 -73t76 -228zM416 1298q-48 0 -82.5 -33.5t-34.5 -80.5t35 -82t82 -35q46 0 81 35t35 82t-35 80.5t-81 33.5zM416 975q-86 0 -147.5 61.5
t-61.5 147.5t62 146.5t147 60.5t147 -60.5t62 -146.5t-61.5 -147.5t-147.5 -61.5z" />
    <glyph glyph-name="ae" unicode="&#xe6;" horiz-adv-x="1478" 
d="M1376 494h-504q-6 0 -17.5 0.5t-16 0.5t-12.5 -2.5t-11 -8t-5.5 -16t-2.5 -26.5q0 -137 90 -236.5t233 -99.5q41 0 85.5 17t74.5 37.5t57 37.5t37 17q21 0 21 -25q0 -20 -31 -55t-80.5 -70.5t-123.5 -61.5t-148 -26q-122 0 -218 45t-153 123q-113 -95 -191 -131.5
t-204 -36.5q-85 0 -139 54t-54 139q0 48 13.5 88t36 69t58 53.5t71.5 40.5t85 30.5t90.5 24.5t94.5 21q41 9 61 13q0 61 -3 100t-14 81t-32.5 65.5t-59.5 39t-93 15.5q-58 0 -76.5 -22t-18.5 -93q0 -27 -14.5 -46.5t-32 -29t-42 -14.5t-35.5 -5.5t-21 -0.5q-53 0 -53 43
q0 51 25.5 92.5t65 67.5t91 44t99.5 25t94 7q58 0 107.5 -11.5t79.5 -27t52 -31t33.5 -23.5t15.5 -4q100 97 275 97q78 0 144.5 -25.5t109.5 -64t73.5 -85.5t44 -89t13.5 -76q0 -21 -4.5 -31.5t-8.5 -12t-12 -1.5zM573 229v138v12q0 28 -1.5 39t-10.5 18.5t-29 7.5
q-24 0 -62.5 -14.5t-79 -39.5t-70 -67t-29.5 -90q0 -135 108 -135q21 0 47 5.5t56.5 18.5t50.5 41t20 66zM836 565h297q17 0 23 0.5t13 6t9 17t2 32.5q0 43 -19 86.5t-63.5 77.5t-104.5 34q-54 0 -94 -20t-61.5 -53t-31 -68.5t-9.5 -73.5q0 -21 14.5 -30t24.5 -9z" />
    <glyph glyph-name="ccedilla" unicode="&#xe7;" horiz-adv-x="909" 
d="M332 -199l78 181q-158 10 -258.5 124.5t-100.5 280.5q0 206 141 349t347 143q31 0 70.5 -8t84 -24t74 -48t29.5 -74q0 -27 -62 -76t-90 -49q-18 0 -27 31q-22 85 -57 126.5t-112 41.5q-56 0 -96 -24.5t-60 -66.5t-28.5 -86.5t-8.5 -97.5q0 -102 34 -195.5t104.5 -158
t162.5 -64.5q41 0 85.5 17t74.5 37.5t57 37.5t37 17q20 0 20 -25q0 -18 -27 -50t-71 -65.5t-110.5 -60t-135.5 -32.5l-47 -113q33 10 78 10q21 0 45.5 -7t50.5 -22.5t43 -47t17 -74.5q0 -168 -275 -168q-66 0 -155 34l26 66q56 -22 121 -22q123 0 123 81q0 37 -24 58.5
t-72 21.5q-35 0 -58 -10z" />
    <glyph glyph-name="egrave" unicode="&#xe8;" horiz-adv-x="909" 
d="M819 494h-504q-6 0 -16 1t-12.5 0.5t-7.5 -2.5t-6 -8t-2 -16t-1 -27q0 -136 86.5 -236t216.5 -100q41 0 85.5 17t74.5 37.5t57 37.5t37 17q21 0 21 -25q0 -20 -31 -55t-80.5 -70.5t-123.5 -61.5t-148 -26q-78 0 -149 25t-129 74t-92 129t-34 182q0 72 15.5 142
t48.5 133.5t79.5 111.5t112 76.5t142.5 28.5q78 0 144.5 -25.5t109.5 -64t73.5 -85.5t44 -89t13.5 -76q0 -21 -4.5 -31.5t-8.5 -12t-12 -1.5zM279 565h296q17 0 23 1t13.5 6t9.5 16.5t2 32.5q0 43 -19 86.5t-63.5 77.5t-104.5 34q-84 0 -126 -66t-42 -149q0 -39 11 -39z
M610 985h-94l-285 180q-3 2 -14 8.5t-15 9.5t-13.5 9t-13 10t-10.5 11t-10.5 13t-7 13.5t-5 16t-1.5 18.5q0 17 22.5 44.5t59.5 27.5t116 -82q14 -13 21 -21z" />
    <glyph glyph-name="eacute" unicode="&#xe9;" horiz-adv-x="909" 
d="M819 494h-504q-6 0 -16 1t-12.5 0.5t-7.5 -2.5t-6 -8t-2 -16t-1 -27q0 -136 86.5 -236t216.5 -100q41 0 85.5 17t74.5 37.5t57 37.5t37 17q21 0 21 -25q0 -20 -31 -55t-80.5 -70.5t-123.5 -61.5t-148 -26q-78 0 -149 25t-129 74t-92 129t-34 182q0 72 15.5 142
t48.5 133.5t79.5 111.5t112 76.5t142.5 28.5q78 0 144.5 -25.5t109.5 -64t73.5 -85.5t44 -89t13.5 -76q0 -21 -4.5 -31.5t-8.5 -12t-12 -1.5zM279 565h296q17 0 23 1t13.5 6t9.5 16.5t2 32.5q0 43 -19 86.5t-63.5 77.5t-104.5 34q-84 0 -126 -66t-42 -149q0 -39 11 -39z
M391 985h-94l250 258q75 77 91 88q21 15 46 15q37 0 59.5 -27.5t22.5 -44.5q0 -10 -1.5 -18.5t-5 -16t-7 -13.5t-10.5 -13t-10.5 -11t-13 -10t-13.5 -9t-15 -9.5t-14 -8.5z" />
    <glyph glyph-name="ecircumflex" unicode="&#xea;" horiz-adv-x="909" 
d="M819 494h-504q-6 0 -16 1t-12.5 0.5t-7.5 -2.5t-6 -8t-2 -16t-1 -27q0 -136 86.5 -236t216.5 -100q41 0 85.5 17t74.5 37.5t57 37.5t37 17q21 0 21 -25q0 -20 -31 -55t-80.5 -70.5t-123.5 -61.5t-148 -26q-78 0 -149 25t-129 74t-92 129t-34 182q0 72 15.5 142
t48.5 133.5t79.5 111.5t112 76.5t142.5 28.5q78 0 144.5 -25.5t109.5 -64t73.5 -85.5t44 -89t13.5 -76q0 -21 -4.5 -31.5t-8.5 -12t-12 -1.5zM279 565h296q17 0 23 1t13.5 6t9.5 16.5t2 32.5q0 43 -19 86.5t-63.5 77.5t-104.5 34q-84 0 -126 -66t-42 -149q0 -39 11 -39z
M526 1331l254 -346h-88l-235 211l-238 -211h-88l254 346h141z" />
    <glyph glyph-name="edieresis" unicode="&#xeb;" horiz-adv-x="909" 
d="M819 494h-504q-6 0 -16 1t-12.5 0.5t-7.5 -2.5t-6 -8t-2 -16t-1 -27q0 -136 86.5 -236t216.5 -100q41 0 85.5 17t74.5 37.5t57 37.5t37 17q21 0 21 -25q0 -20 -31 -55t-80.5 -70.5t-123.5 -61.5t-148 -26q-78 0 -149 25t-129 74t-92 129t-34 182q0 72 15.5 142
t48.5 133.5t79.5 111.5t112 76.5t142.5 28.5q78 0 144.5 -25.5t109.5 -64t73.5 -85.5t44 -89t13.5 -76q0 -21 -4.5 -31.5t-8.5 -12t-12 -1.5zM279 565h296q17 0 23 1t13.5 6t9.5 16.5t2 32.5q0 43 -19 86.5t-63.5 77.5t-104.5 34q-84 0 -126 -66t-42 -149q0 -39 11 -39z
M270 1245q18 0 57.5 -48t39.5 -73t-39.5 -72.5t-57.5 -47.5t-57 47.5t-39 72.5t39 73t57 48zM641 1245q18 0 57 -48t39 -73t-39 -72.5t-57 -47.5t-57 47.5t-39 72.5t39 73t57 48z" />
    <glyph glyph-name="igrave" unicode="&#xec;" horiz-adv-x="569" 
d="M176 131v524q0 33 -20.5 48.5t-45 16.5t-45 8t-20.5 26q0 6 1 10t4 8t5.5 6.5t8.5 5.5t10.5 4.5t14 4t16.5 4t20 5t22 5.5q58 13 103 30t64 29t33.5 20.5t21.5 8.5q12 0 17.5 -5.5t6 -12t0.5 -23.5v-690q0 -36 15.5 -58t37.5 -30t44 -13.5t37.5 -15.5t15.5 -29
q0 -9 -5.5 -15t-18 -8.5t-19.5 -3t-23.5 0t-17.5 0.5q-33 0 -97.5 4t-97.5 4q-24 0 -74.5 -4t-76.5 -4q-5 0 -16 -0.5t-15 0t-11 1.5t-9.5 4t-4.5 8.5t-2 14.5q0 17 19 26t41.5 13t41.5 22t19 50zM440 985h-94l-285 180q-3 2 -14 8.5t-15 9.5t-13.5 9t-13 10t-10.5 11
t-10.5 13t-7 13.5t-5 16t-1.5 18.5q0 17 22.5 44.5t59.5 27.5t116 -82q14 -13 21 -21z" />
    <glyph glyph-name="iacute" unicode="&#xed;" horiz-adv-x="569" 
d="M176 131v524q0 33 -20.5 48.5t-45 16.5t-45 8t-20.5 26q0 6 1 10t4 8t5.5 6.5t8.5 5.5t10.5 4.5t14 4t16.5 4t20 5t22 5.5q58 13 103 30t64 29t33.5 20.5t21.5 8.5q12 0 17.5 -5.5t6 -12t0.5 -23.5v-690q0 -36 15.5 -58t37.5 -30t44 -13.5t37.5 -15.5t15.5 -29
q0 -9 -5.5 -15t-18 -8.5t-19.5 -3t-23.5 0t-17.5 0.5q-33 0 -97.5 4t-97.5 4q-24 0 -74.5 -4t-76.5 -4q-5 0 -16 -0.5t-15 0t-11 1.5t-9.5 4t-4.5 8.5t-2 14.5q0 17 19 26t41.5 13t41.5 22t19 50zM221 985h-94l250 258q75 77 91 88q21 15 46 15q37 0 59.5 -27.5t22.5 -44.5
q0 -10 -1.5 -18.5t-5 -16t-7 -13.5t-10.5 -13t-10.5 -11t-13 -10t-13.5 -9t-15 -9.5t-14 -8.5z" />
    <glyph glyph-name="icircumflex" unicode="&#xee;" horiz-adv-x="569" 
d="M176 131v524q0 33 -20.5 48.5t-45 16.5t-45 8t-20.5 26q0 6 1 10t4 8t5.5 6.5t8.5 5.5t10.5 4.5t14 4t16.5 4t20 5t22 5.5q58 13 103 30t64 29t33.5 20.5t21.5 8.5q12 0 17.5 -5.5t6 -12t0.5 -23.5v-690q0 -36 15.5 -58t37.5 -30t44 -13.5t37.5 -15.5t15.5 -29
q0 -9 -5.5 -15t-18 -8.5t-19.5 -3t-23.5 0t-17.5 0.5q-33 0 -97.5 4t-97.5 4q-24 0 -74.5 -4t-76.5 -4q-5 0 -16 -0.5t-15 0t-11 1.5t-9.5 4t-4.5 8.5t-2 14.5q0 17 19 26t41.5 13t41.5 22t19 50zM356 1331l254 -346h-88l-235 211l-238 -211h-88l254 346h141z" />
    <glyph glyph-name="idieresis" unicode="&#xef;" horiz-adv-x="569" 
d="M176 131v524q0 33 -20.5 48.5t-45 16.5t-45 8t-20.5 26q0 6 1 10t4 8t5.5 6.5t8.5 5.5t10.5 4.5t14 4t16.5 4t20 5t22 5.5q58 13 103 30t64 29t33.5 20.5t21.5 8.5q12 0 17.5 -5.5t6 -12t0.5 -23.5v-690q0 -36 15.5 -58t37.5 -30t44 -13.5t37.5 -15.5t15.5 -29
q0 -9 -5.5 -15t-18 -8.5t-19.5 -3t-23.5 0t-17.5 0.5q-33 0 -97.5 4t-97.5 4q-24 0 -74.5 -4t-76.5 -4q-5 0 -16 -0.5t-15 0t-11 1.5t-9.5 4t-4.5 8.5t-2 14.5q0 17 19 26t41.5 13t41.5 22t19 50zM100 1245q18 0 57.5 -48t39.5 -73t-39.5 -72.5t-57.5 -47.5t-57 47.5
t-39 72.5t39 73t57 48zM471 1245q18 0 57 -48t39 -73t-39 -72.5t-57 -47.5t-57 47.5t-39 72.5t39 73t57 48z" />
    <glyph glyph-name="eth" unicode="&#xf0;" horiz-adv-x="1024" 
d="M270 518q0 -46 7.5 -101t28.5 -122t51.5 -120.5t82.5 -89.5t117 -36q207 0 207 258q0 54 -7.5 116t-28 133t-51 126.5t-81 93t-113.5 37.5q-64 0 -108 -24.5t-66 -69t-30.5 -92.5t-8.5 -109zM219 1034l-39 66l242 139q-47 49 -111.5 100t-99.5 79.5t-35 43.5
q0 18 12 29.5t27 11.5q30 0 135 -66.5t187 -131.5l256 147l36 -66l-229 -133q166 -152 268.5 -358t102.5 -420q0 -219 -129 -358.5t-348 -139.5q-189 0 -315 118.5t-126 305.5q0 132 58 241.5t160 173t227 63.5q106 0 184 -50l4 5q-26 77 -84 174.5t-127 173.5z" />
    <glyph glyph-name="ntilde" unicode="&#xf1;" 
d="M162 188v467q0 33 -20.5 48.5t-45 16.5t-45 8t-20.5 26q0 6 1 10t4 8t5.5 6.5t8.5 5.5t10.5 4.5t14 4t16.5 4t20 5t22 5.5q58 13 102.5 30t63.5 29t33.5 20.5t21.5 8.5q17 0 21 -8.5t4 -32.5v-117h4q41 67 114.5 104.5t164.5 37.5q64 0 117 -20.5t88.5 -56t59.5 -84.5
t35 -104t11 -116v-332q0 -44 20 -70t43.5 -33t43.5 -16.5t20 -23.5q0 -18 -10 -24.5t-37 -6.5q-36 0 -95.5 4t-78.5 4q-29 0 -85 -4t-65 -4q-7 0 -18 -0.5t-17 -1t-13 0.5t-10.5 4t-6 8.5t-2.5 14.5q0 11 14.5 24.5t32.5 24.5t32.5 32.5t14.5 47.5v349q0 53 -10 95.5
t-32.5 78.5t-62.5 55.5t-96 19.5q-96 0 -136 -50t-40 -146v-379q0 -33 17 -55.5t41.5 -33.5t49 -18.5t41.5 -17t17 -22.5q0 -31 -64 -31q-1 0 -69.5 4t-130.5 4q-37 0 -106.5 -4t-98.5 -4q-23 0 -23 22q0 16 11 24t27.5 14.5t32.5 17.5t27 41t11 77zM850 1268h70
q-56 -230 -230 -230q-68 0 -160 49q-3 1 -18.5 9.5t-20 10.5t-18 8.5t-20 8.5t-17.5 5.5t-20.5 4.5t-18.5 1q-16 0 -30.5 -4t-24.5 -9.5t-18.5 -14.5t-13.5 -17t-10 -18t-7 -15.5t-4 -12.5l-2 -8h-68q6 38 22.5 75.5t42.5 72.5t68 56.5t92 21.5q54 0 156 -50
q100 -49 148 -49q18 0 33 7.5t25.5 18t19 24t13 24.5t7.5 21z" />
    <glyph glyph-name="ograve" unicode="&#xf2;" horiz-adv-x="1024" 
d="M483 813q-52 0 -90 -17t-60.5 -43.5t-36.5 -67.5t-19 -79t-7 -88q-2 -44 5.5 -101t28 -122.5t52 -119.5t84 -90t117.5 -36q207 0 207 258q0 54 -7.5 116t-28 133t-51 126.5t-81 93t-113.5 37.5zM971 451q0 -210 -132.5 -342t-344.5 -132q-189 0 -315 118.5t-126 305.5
q0 203 131 340.5t334 137.5q195 0 324 -118.5t129 -309.5zM668 985h-95l-284 180q-3 2 -14 8.5t-15 9.5t-13.5 9t-13 10t-10.5 11t-10.5 13t-7 13.5t-5 16t-1.5 18.5q0 17 22.5 44.5t59.5 27.5t116 -82q14 -13 21 -21z" />
    <glyph glyph-name="oacute" unicode="&#xf3;" horiz-adv-x="1024" 
d="M483 813q-52 0 -90 -17t-60.5 -43.5t-36.5 -67.5t-19 -79t-7 -88q-2 -44 5.5 -101t28 -122.5t52 -119.5t84 -90t117.5 -36q207 0 207 258q0 54 -7.5 116t-28 133t-51 126.5t-81 93t-113.5 37.5zM971 451q0 -210 -132.5 -342t-344.5 -132q-189 0 -315 118.5t-126 305.5
q0 203 131 340.5t334 137.5q195 0 324 -118.5t129 -309.5zM449 985h-95l250 258q75 77 91 88q21 15 46 15q37 0 59.5 -27.5t22.5 -44.5q0 -10 -1.5 -18.5t-5 -16t-7 -13.5t-10.5 -13t-10.5 -11t-13 -10t-13.5 -9t-15 -9.5t-14 -8.5z" />
    <glyph glyph-name="ocircumflex" unicode="&#xf4;" horiz-adv-x="1024" 
d="M483 813q-52 0 -90 -17t-60.5 -43.5t-36.5 -67.5t-19 -79t-7 -88q-2 -44 5.5 -101t28 -122.5t52 -119.5t84 -90t117.5 -36q207 0 207 258q0 54 -7.5 116t-28 133t-51 126.5t-81 93t-113.5 37.5zM971 451q0 -210 -132.5 -342t-344.5 -132q-189 0 -315 118.5t-126 305.5
q0 203 131 340.5t334 137.5q195 0 324 -118.5t129 -309.5zM584 1331l254 -346h-88l-236 211l-238 -211h-88l254 346h142z" />
    <glyph glyph-name="otilde" unicode="&#xf5;" horiz-adv-x="1024" 
d="M483 813q-52 0 -90 -17t-60.5 -43.5t-36.5 -67.5t-19 -79t-7 -88q-2 -44 5.5 -101t28 -122.5t52 -119.5t84 -90t117.5 -36q207 0 207 258q0 54 -7.5 116t-28 133t-51 126.5t-81 93t-113.5 37.5zM971 451q0 -210 -132.5 -342t-344.5 -132q-189 0 -315 118.5t-126 305.5
q0 203 131 340.5t334 137.5q195 0 324 -118.5t129 -309.5zM793 1268h69q-56 -230 -229 -230q-68 0 -160 49q-3 1 -18.5 9.5t-20 10.5t-18 8.5t-20 8.5t-17.5 5.5t-20.5 4.5t-18.5 1q-14 0 -27 -3t-23 -8.5t-18 -11.5t-14 -14.5t-10.5 -15.5t-8 -15.5t-5 -13.5t-3.5 -11
l-2 -6h-67q6 38 22.5 75.5t42.5 72.5t68 56.5t92 21.5q54 0 156 -50q100 -49 147 -49q18 0 33.5 7.5t25.5 18t19 24.5t13 24.5t8 20.5z" />
    <glyph glyph-name="odieresis" unicode="&#xf6;" horiz-adv-x="1024" 
d="M483 813q-52 0 -90 -17t-60.5 -43.5t-36.5 -67.5t-19 -79t-7 -88q-2 -44 5.5 -101t28 -122.5t52 -119.5t84 -90t117.5 -36q207 0 207 258q0 54 -7.5 116t-28 133t-51 126.5t-81 93t-113.5 37.5zM971 451q0 -210 -132.5 -342t-344.5 -132q-189 0 -315 118.5t-126 305.5
q0 203 131 340.5t334 137.5q195 0 324 -118.5t129 -309.5zM328 1245q18 0 57 -48t39 -73t-39 -72.5t-57 -47.5t-57.5 47.5t-39.5 72.5t39.5 73t57.5 48zM698 1245q18 0 57.5 -48t39.5 -73t-39.5 -72.5t-57.5 -47.5t-57 47.5t-39 72.5t39 73t57 48z" />
    <glyph glyph-name="divide" unicode="&#xf7;" horiz-adv-x="1241" 
d="M1137 434h-1033v176h1033v-176zM621 0q-74 0 -127.5 52.5t-53.5 127.5q0 73 53.5 126.5t127.5 53.5q75 0 127.5 -53t52.5 -127q0 -75 -52.5 -127.5t-127.5 -52.5zM621 1044q75 0 127.5 -53t52.5 -127q0 -75 -52.5 -127.5t-127.5 -52.5q-74 0 -127.5 52.5t-53.5 127.5
q0 73 53.5 126.5t127.5 53.5z" />
    <glyph glyph-name="oslash" unicode="&#xf8;" horiz-adv-x="1024" 
d="M395 123l217 639q-20 22 -57 36.5t-72 14.5q-52 0 -90 -17t-60.5 -43.5t-36.5 -67.5t-19 -79t-7 -88q-9 -238 125 -395zM440 -18l-96 -283h-92l102 299q-135 33 -218 150.5t-83 254.5q0 201 130.5 338.5t334.5 137.5q59 0 129 -17l88 264h90l-98 -290
q113 -52 178.5 -152.5t65.5 -232.5q0 -210 -132.5 -342t-344.5 -132q-8 0 -29 2.5t-25 2.5zM676 684l-207 -616q40 -19 88 -19q207 0 207 258q0 231 -88 377z" />
    <glyph glyph-name="ugrave" unicode="&#xf9;" 
d="M952 834v-674q0 -43 24.5 -62.5t54.5 -19.5t54.5 -5.5t24.5 -23.5q0 -10 -2 -16t-8.5 -9t-10.5 -4t-15 -2t-15 -2l-309 -39q-15 30 -15 138q-3 -2 -38.5 -34t-61.5 -49.5t-80.5 -36t-114.5 -18.5q-71 0 -122.5 19.5t-81.5 50.5t-47.5 79t-23 94.5t-5.5 107.5v348
q0 33 -20.5 48.5t-45 16t-45 7.5t-20.5 26q0 25 37 33.5t108.5 17.5t122.5 29q12 5 24.5 12t19 10t11.5 3q17 0 21 -10t4 -35v-519q0 -105 38.5 -157t139.5 -52q67 0 123.5 36.5t56.5 97.5v436q0 33 -20.5 48.5t-45 16t-45 7.5t-20.5 26q0 25 37 33.5t108.5 17.5t122.5 29
q10 4 20 9.5t15.5 8.5t11 5t9.5 2q12 0 17.5 -6.5t6 -13.5t0.5 -25zM725 985h-94l-285 180q-3 2 -14 8.5t-15 9.5t-13.5 9t-13 10t-10.5 11t-10.5 13t-7 13.5t-5 16t-1.5 18.5q0 17 22.5 44.5t59.5 27.5t116 -82q14 -13 21 -21z" />
    <glyph glyph-name="uacute" unicode="&#xfa;" 
d="M952 834v-674q0 -43 24.5 -62.5t54.5 -19.5t54.5 -5.5t24.5 -23.5q0 -10 -2 -16t-8.5 -9t-10.5 -4t-15 -2t-15 -2l-309 -39q-15 30 -15 138q-3 -2 -38.5 -34t-61.5 -49.5t-80.5 -36t-114.5 -18.5q-71 0 -122.5 19.5t-81.5 50.5t-47.5 79t-23 94.5t-5.5 107.5v348
q0 33 -20.5 48.5t-45 16t-45 7.5t-20.5 26q0 25 37 33.5t108.5 17.5t122.5 29q12 5 24.5 12t19 10t11.5 3q17 0 21 -10t4 -35v-519q0 -105 38.5 -157t139.5 -52q67 0 123.5 36.5t56.5 97.5v436q0 33 -20.5 48.5t-45 16t-45 7.5t-20.5 26q0 25 37 33.5t108.5 17.5t122.5 29
q10 4 20 9.5t15.5 8.5t11 5t9.5 2q12 0 17.5 -6.5t6 -13.5t0.5 -25zM506 985h-94l250 258q75 77 91 88q21 15 46 15q37 0 59.5 -27.5t22.5 -44.5q0 -10 -1.5 -18.5t-5 -16t-7 -13.5t-10.5 -13t-10.5 -11t-13 -10t-13.5 -9t-15 -9.5t-14 -8.5z" />
    <glyph glyph-name="ucircumflex" unicode="&#xfb;" 
d="M952 834v-674q0 -43 24.5 -62.5t54.5 -19.5t54.5 -5.5t24.5 -23.5q0 -10 -2 -16t-8.5 -9t-10.5 -4t-15 -2t-15 -2l-309 -39q-15 30 -15 138q-3 -2 -38.5 -34t-61.5 -49.5t-80.5 -36t-114.5 -18.5q-71 0 -122.5 19.5t-81.5 50.5t-47.5 79t-23 94.5t-5.5 107.5v348
q0 33 -20.5 48.5t-45 16t-45 7.5t-20.5 26q0 25 37 33.5t108.5 17.5t122.5 29q12 5 24.5 12t19 10t11.5 3q17 0 21 -10t4 -35v-519q0 -105 38.5 -157t139.5 -52q67 0 123.5 36.5t56.5 97.5v436q0 33 -20.5 48.5t-45 16t-45 7.5t-20.5 26q0 25 37 33.5t108.5 17.5t122.5 29
q10 4 20 9.5t15.5 8.5t11 5t9.5 2q12 0 17.5 -6.5t6 -13.5t0.5 -25zM641 1331l254 -346h-88l-236 211l-237 -211h-88l254 346h141z" />
    <glyph glyph-name="udieresis" unicode="&#xfc;" 
d="M952 834v-674q0 -43 24.5 -62.5t54.5 -19.5t54.5 -5.5t24.5 -23.5q0 -10 -2 -16t-8.5 -9t-10.5 -4t-15 -2t-15 -2l-309 -39q-15 30 -15 138q-3 -2 -38.5 -34t-61.5 -49.5t-80.5 -36t-114.5 -18.5q-71 0 -122.5 19.5t-81.5 50.5t-47.5 79t-23 94.5t-5.5 107.5v348
q0 33 -20.5 48.5t-45 16t-45 7.5t-20.5 26q0 25 37 33.5t108.5 17.5t122.5 29q12 5 24.5 12t19 10t11.5 3q17 0 21 -10t4 -35v-519q0 -105 38.5 -157t139.5 -52q67 0 123.5 36.5t56.5 97.5v436q0 33 -20.5 48.5t-45 16t-45 7.5t-20.5 26q0 25 37 33.5t108.5 17.5t122.5 29
q10 4 20 9.5t15.5 8.5t11 5t9.5 2q12 0 17.5 -6.5t6 -13.5t0.5 -25zM385 1245q18 0 57 -48t39 -73t-39 -72.5t-57 -47.5t-57 47.5t-39 72.5t39 73t57 48zM756 1245q18 0 57 -48t39 -73t-39 -72.5t-57 -47.5t-57.5 47.5t-39.5 72.5t39.5 73t57.5 48z" />
    <glyph glyph-name="yacute" unicode="&#xfd;" horiz-adv-x="1024" 
d="M457 80l-318 627q-14 28 -34 48t-35.5 27.5t-27 18t-11.5 24.5q0 20 17.5 25.5t53.5 5.5q9 0 57 -4t103 -4q59 0 112.5 4t65.5 4h6q20 0 28.5 -1t16 -7t7.5 -19q0 -18 -17.5 -30.5t-39 -18.5t-39 -19.5t-17.5 -33.5t37 -100l168 -338q2 -5 5.5 -12l5.5 -11l4.5 -9t4.5 -8
t5 -6t6 -4t6 -1q10 0 28 51l101 258q32 81 32 131q0 42 -21.5 67.5t-47 32.5t-47 17.5t-21.5 27.5q0 23 15 28t52 5h7q7 0 44 -4t71 -4q32 0 68 4t44 4q15 0 20.5 -0.5t15 -2t13 -6.5t3.5 -13q0 -13 -13 -25t-29.5 -21t-35 -27t-27.5 -40l-436 -1098q-5 -15 -8 -21t-9.5 -12
t-15.5 -6h-96q-19 0 -19 17t19 47l127 202q47 74 47 107q0 24 -51 123zM489 985h-94l250 258q75 77 91 88q21 15 46 15q37 0 59.5 -27.5t22.5 -44.5q0 -10 -1.5 -18.5t-5 -16t-7 -13.5t-10.5 -13t-10.5 -11t-13 -10t-13.5 -9t-15 -9.5t-14 -8.5z" />
    <glyph glyph-name="thorn" unicode="&#xfe;" horiz-adv-x="1024" 
d="M360 662v-486q0 -3 8.5 -15.5t26.5 -31t42 -36t60 -30t74 -12.5q59 0 102.5 26t66 71t32.5 93.5t10 104.5q0 45 -9 95t-30.5 103t-52 95t-77 69t-101.5 27q-40 0 -81.5 -20.5t-70.5 -52.5zM360 16v-252q0 -41 17.5 -66t42 -34t49 -14t42 -13.5t17.5 -25.5q0 -27 -43 -27
q-38 0 -90.5 4t-93.5 4q-76 0 -133.5 -4t-63.5 -4h-15.5t-12 1.5t-11.5 4.5t-5 9t-3 16q0 15 13.5 23.5t29.5 12t29.5 19t13.5 41.5v1528q0 36 -9.5 57.5t-23.5 28.5t-30.5 10.5t-30.5 4t-23.5 8t-9.5 24.5q0 16 11 24t36.5 15t57 15.5t83 30.5t103.5 54q25 15 35 15
q5 0 8.5 -2.5t5.5 -6.5t3 -9t1 -11v-10.5v-10v-6.5v-733q124 142 275 142q81 0 145.5 -32t103.5 -85.5t59 -120t20 -139.5q0 -79 -14.5 -152t-48.5 -141.5t-84.5 -119.5t-127.5 -81.5t-172 -30.5q-80 0 -156 39z" />
    <glyph glyph-name="ydieresis" unicode="&#xff;" horiz-adv-x="1024" 
d="M457 80l-318 627q-14 28 -34 48t-35.5 27.5t-27 18t-11.5 24.5q0 20 17.5 25.5t53.5 5.5q9 0 57 -4t103 -4q59 0 112.5 4t65.5 4h6q20 0 28.5 -1t16 -7t7.5 -19q0 -18 -17.5 -30.5t-39 -18.5t-39 -19.5t-17.5 -33.5t37 -100l168 -338q2 -5 5.5 -12l5.5 -11l4.5 -9t4.5 -8
t5 -6t6 -4t6 -1q10 0 28 51l101 258q32 81 32 131q0 42 -21.5 67.5t-47 32.5t-47 17.5t-21.5 27.5q0 23 15 28t52 5h7q7 0 44 -4t71 -4q32 0 68 4t44 4q15 0 20.5 -0.5t15 -2t13 -6.5t3.5 -13q0 -13 -13 -25t-29.5 -21t-35 -27t-27.5 -40l-436 -1098q-5 -15 -8 -21t-9.5 -12
t-15.5 -6h-96q-19 0 -19 17t19 47l127 202q47 74 47 107q0 24 -51 123zM369 1245q18 0 57 -48t39 -73t-39 -72.5t-57 -47.5t-57.5 47.5t-39.5 72.5t39.5 73t57.5 48zM739 1245q18 0 57.5 -48t39.5 -73t-39.5 -72.5t-57.5 -47.5t-57 47.5t-39 72.5t39 73t57 48z" />
    <glyph glyph-name="dotlessi" unicode="&#x131;" horiz-adv-x="569" 
d="M176 131v524q0 33 -20.5 48.5t-45 16.5t-45 8t-20.5 26q0 6 1 10t4 8t5.5 6.5t8.5 5.5t10.5 4.5t14 4t16.5 4t20 5t22 5.5q58 13 103 30t64 29t33.5 20.5t21.5 8.5q12 0 17.5 -5.5t6 -12t0.5 -23.5v-690q0 -36 15.5 -58t37.5 -30t44 -13.5t37.5 -15.5t15.5 -29
q0 -9 -5.5 -15t-18 -8.5t-19.5 -3t-23.5 0t-17.5 0.5q-33 0 -97.5 4t-97.5 4q-24 0 -74.5 -4t-76.5 -4q-5 0 -16 -0.5t-15 0t-11 1.5t-9.5 4t-4.5 8.5t-2 14.5q0 17 19 26t41.5 13t41.5 22t19 50z" />
    <glyph glyph-name="Lslash" unicode="&#x141;" horiz-adv-x="1251" 
d="M487 1257v-354l220 174v-180l-220 -174v-426q0 -102 8 -131q17 -56 86 -67q20 -3 46 -3q104 0 186.5 15t133 38.5t88 52t58 57.5t35.5 52.5t28 38.5t28 15q22 0 22 -46q0 -81 -36 -155.5t-103.5 -123t-148.5 -48.5q-182 0 -347 4t-190 4t-112 -4t-150 -4q-39 0 -39 22
t11.5 33t29 13.5t37.5 12t37.5 24.5t29 53.5t11.5 97.5v291l-209 -158v180l209 158v498q0 48 -24 79t-58 43t-68 19.5t-58 18.5t-24 30q0 14 17.5 24.5t48.5 10.5q42 0 141 -4t137 -4q76 0 126.5 2t73 4t32.5 2q34 0 43.5 -4.5t9.5 -22.5q0 -21 -15 -31t-36.5 -14t-43 -12
t-36.5 -33t-15 -68z" />
    <glyph glyph-name="lslash" unicode="&#x142;" horiz-adv-x="569" 
d="M176 186v471l-153 -122v139l153 123v460q0 41 -21 60.5t-46.5 20.5t-46.5 8t-21 26q0 11 3.5 16.5t16.5 11t27.5 9.5t48 14t66.5 21q53 15 90 31.5t50 26.5t24 17t22 7q8 0 11 -6.5t2 -21.5t-3 -33t-4 -49.5t-2 -61.5v-379l154 123v-140l-154 -122v-656q0 -40 15.5 -67.5
t38 -39.5t45 -19.5t38 -15.5t15.5 -20q0 -15 -8.5 -20.5t-34.5 -5.5q-18 0 -107.5 4t-122.5 4q-24 0 -92.5 -4t-89.5 -4q-35 0 -35 20q0 17 12.5 23.5t30.5 10t35.5 13.5t30 41.5t12.5 85.5z" />
    <glyph glyph-name="OE" unicode="&#x152;" horiz-adv-x="2048" 
d="M1090 436v545q0 89 -15.5 155.5t-52 119.5t-102 80.5t-158.5 27.5q-107 0 -189.5 -38t-133 -99.5t-83 -147.5t-45 -173.5t-12.5 -186.5q0 -48 5 -100.5t18.5 -118.5t35 -125.5t58 -118t84 -101t116 -68.5t150.5 -26q63 0 107 7t87.5 29.5t70 63t43 109.5t16.5 166z
M1931 1403l8 -203q0 -2 1 -10t1 -13t0.5 -13.5t-0.5 -14t-2 -13t-4 -12.5t-6.5 -9.5t-9.5 -6.5t-14 -2q-19 0 -27.5 13t-11 34.5t-6 47t-17.5 51t-39.5 47t-78 34.5t-128.5 13h-68t-53.5 -1.5t-43.5 -2.5t-32 -6t-24.5 -9t-15.5 -13.5t-11 -18t-5 -25t-3 -30.5v-38v-287
q0 -69 12.5 -85.5t76.5 -16.5h129q42 0 74.5 19.5t49.5 47t29.5 55t23 47t21.5 19.5q23 0 30 -12q8 -12 9 -39l14 -364q0 -2 1.5 -14t1.5 -18.5v-18.5t-2.5 -19t-6 -15t-11 -12t-17.5 -4q-18 0 -27.5 22.5t-17 54.5t-20.5 63.5t-46.5 54t-85.5 22.5h-152q-27 0 -42.5 -4
t-25 -8.5t-13.5 -23t-4.5 -31.5t-0.5 -50v-26v-262v-17q0 -96 13 -127q23 -54 116 -57h11q104 0 185 15t129.5 38.5t83 52t52.5 57.5t30.5 52.5t24.5 38.5t27 15q23 0 23 -46q0 -123 -79.5 -225t-184.5 -102q-182 0 -347 4t-190 4q-114 0 -299.5 -4t-267.5 -4
q-92 0 -179.5 25.5t-168 81.5t-141 135.5t-96.5 196t-36 255.5q0 361 191 558.5t532 197.5q44 0 250 -4t428 -4q71 0 217 4t225 4q19 0 30 -12t11 -27z" />
    <glyph glyph-name="oe" unicode="&#x153;" horiz-adv-x="1593" 
d="M967 565h297q17 0 23 0.5t13 6t9 17t2 32.5q0 43 -19 86.5t-63.5 77.5t-104.5 34q-84 0 -126 -66t-42 -149q0 -39 11 -39zM1507 494h-503q-6 0 -14 0.5t-11.5 0.5t-8 -1t-6 -4t-3.5 -9t-2.5 -15.5t-0.5 -23.5q0 -136 87 -236t217 -100q41 0 85.5 17t74.5 37.5t57 37.5
t37 17q20 0 20 -25q0 -20 -31 -55t-80.5 -70.5t-123.5 -61.5t-148 -26q-99 0 -182.5 37t-130.5 97q-5 -6 -17.5 -18t-44 -33.5t-69 -38.5t-95.5 -30.5t-120 -13.5q-189 0 -315 118.5t-126 305.5q0 203 131 340.5t334 137.5q209 0 352 -146q22 62 106 104t171 42
q78 0 144.5 -25.5t109.5 -64t73.5 -85.5t44 -89t13.5 -76q0 -21 -4.5 -31.5t-8.5 -12t-12 -1.5zM483 813q-52 0 -90 -17t-60.5 -43.5t-36.5 -67.5t-19 -79t-7 -88q-2 -44 5.5 -101t28 -122.5t52 -119.5t84 -90t117.5 -36q207 0 207 258q0 54 -7.5 116t-28 133t-51 126.5
t-81 93t-113.5 37.5z" />
    <glyph glyph-name="Scaron" unicode="&#x160;" 
d="M172 131l-63 281q-1 3 -3.5 13.5t-3.5 16.5t-2 16.5t0.5 16.5t4.5 12.5t10 9.5t18 3q16 0 25 -6.5t12 -13.5t8 -25q26 -79 62 -144t86.5 -120.5t120 -87t151.5 -31.5q123 0 203 71t80 191q0 29 -4 52.5t-16.5 45t-24.5 37t-38.5 34t-47.5 30.5t-63.5 31.5t-73 33
t-89.5 38.5t-102 44q-74 33 -122 62t-91 72t-63.5 102t-20.5 137q0 178 112 292.5t291 114.5q73 0 138.5 -20t110.5 -40t67 -20q14 0 52 16.5t52 16.5q9 0 14.5 -3t8 -11.5t3.5 -15t1.5 -23t1.5 -25.5l22 -274q3 -37 -6 -53.5t-41 -16.5q-9 0 -20 21t-25 54.5t-33 74.5
t-50 81.5t-70.5 74t-99.5 54.5t-132 21q-103 0 -165 -57t-62 -158q0 -23 3.5 -41.5t14.5 -36t21 -30t33 -28t40.5 -25.5t53 -27t61.5 -28t75.5 -32.5t84.5 -36.5q73 -32 121.5 -58.5t96.5 -64t75.5 -80.5t44 -103.5t16.5 -137.5q0 -200 -127 -325.5t-329 -125.5
q-56 0 -113 12t-127.5 33.5t-108.5 30.5q-9 2 -15.5 4t-11.5 5.5t-8.5 5t-6.5 7t-5 7.5t-4 9.5t-2.5 11t-2.5 13.5zM500 1571l-254 346h88l237 -211l236 211h88l-254 -346h-141z" />
    <glyph glyph-name="scaron" unicode="&#x161;" horiz-adv-x="796" 
d="M641 827l14 -170q0 -12 -5.5 -16t-20.5 -4q-11 0 -23 18.5t-29 44.5t-40.5 52t-65.5 44.5t-96 18.5q-56 0 -92.5 -26t-36.5 -78q0 -24 8 -42t18 -30t37 -25.5t45.5 -21t64.5 -24.5t75 -29q73 -29 117 -60t72 -84.5t28 -128.5q0 -63 -21.5 -114t-56.5 -83t-81.5 -53
t-94 -30t-97.5 -9q-62 0 -141 12.5t-115 33.5q-9 5 -12 8t-5.5 10.5t-2.5 21.5l6 211q2 35 37 35q8 0 18 -20.5t20.5 -51t31 -66.5t46.5 -66.5t68.5 -51t94.5 -20.5q65 0 106 39.5t41 103.5q0 29 -15 52t-64 51.5t-77.5 42.5t-118.5 53q-7 4 -12 6l-10 4q-88 38 -124 87
t-36 140q0 70 27.5 123.5t75.5 84t106 45t125 14.5q35 0 122.5 -15t88.5 -37zM328 985l-254 346h88l237 -211l236 211h88l-254 -346h-141z" />
    <glyph glyph-name="Ydieresis" unicode="&#x178;" horiz-adv-x="1366" 
d="M551 649l-324 606q-22 41 -51.5 66.5t-55 35.5t-48.5 16.5t-36 16t-13 27.5q0 17 15 21t56 4q10 0 70 -4t119 -4q174 0 299 8q34 2 34 -27q0 -15 -17.5 -25.5t-38.5 -16t-38.5 -20t-17.5 -38.5q0 -37 28 -94l185 -381q27 -56 39.5 -75.5t23.5 -19.5q17 0 51 62l187 338
q37 66 37 112q0 37 -20.5 61t-50 34t-58.5 16t-49.5 16t-20.5 27q0 31 39 31q4 0 58.5 -4t117.5 -4q90 0 155 4t81 4q36 0 36 -23q0 -17 -17 -29.5t-43.5 -25.5t-69 -60.5t-83.5 -123.5l-268 -508q-16 -33 -21 -55t-5 -74v-305q0 -52 14 -87.5t36 -51.5t48.5 -24t53.5 -9.5
t49 -4.5t36 -13.5t14 -31.5q0 -11 -10 -16.5t-21.5 -6.5t-33.5 -1l-24 2q-25 2 -96.5 4t-184.5 2q-108 0 -198 -4t-103 -4q-56 0 -56 22q0 21 16.5 32t41.5 13.5t54 12t54 25t41.5 56t16.5 101.5v266q0 48 -6 70t-27 59zM539 1831q18 0 57 -48t39 -73t-39 -73t-57 -48
t-57.5 48t-39.5 73t39.5 73t57.5 48zM909 1831q18 0 57.5 -48t39.5 -73t-39.5 -73t-57.5 -48t-57 48t-39 73t39 73t57 48z" />
    <glyph glyph-name="Zcaron" unicode="&#x17d;" horiz-adv-x="1251" 
d="M121 1178l33 264q8 0 154.5 -4t230.5 -4q106 2 270 4t268 4q68 0 75 -3q9 -4 9 -18q0 -11 -14.5 -39t-54.5 -98q-11 -19 -17 -29l-608 -1056q0 -1 -6 -11t-10.5 -19t-8.5 -19.5t-4 -16.5q0 -37 189 -37q104 0 186.5 15t133 38.5t88 52t58 57.5t35.5 52.5t28 38.5t28 15
q22 0 22 -46q0 -81 -36 -155.5t-103.5 -123t-148.5 -48.5q-182 0 -347 4t-190 4q-48 0 -148 -4t-122 -4q-23 0 -31 2t-8 12t13 35.5t36.5 63t28.5 47.5l602 1038q41 67 41 94q0 20 -15 31.5t-53 16t-60.5 5t-80.5 0.5h-12.5h-11.5h-13q-90 0 -155.5 -13.5t-100 -35
t-56.5 -47.5t-30 -52.5t-14.5 -48t-17 -35t-30.5 -13.5q-23 0 -25.5 30.5t3.5 55.5zM555 1571l-254 346h88l238 -211l235 211h88l-254 -346h-141z" />
    <glyph glyph-name="zcaron" unicode="&#x17e;" horiz-adv-x="796" 
d="M96 94l410 541q10 13 10 22q0 11 -31 11h-249q-18 0 -34.5 -20t-27.5 -43.5t-28 -43.5t-35 -20q-9 0 -16 8t-7 24q0 37 29 138t30 110q7 35 19 35q14 0 151.5 -4t186.5 -4q35 0 104.5 4t104.5 4q32 0 32 -12q0 -6 -34 -53l-408 -539q-29 -38 -29 -55q0 -21 45 -21h293
q28 0 50 15t37 30t28 15q21 0 21 -29q0 -55 -75.5 -142.5t-135.5 -87.5q-35 0 -150 13q-127 10 -223 10q-30 0 -62 -4q-28 -4 -34 -4q-10 0 -18.5 7t-8.5 13q0 4 2 8.5t7 12.5t10 14.5t16.5 21t19.5 25.5zM328 985l-254 346h88l237 -211l236 211h88l-254 -346h-141z" />
    <glyph glyph-name="florin" unicode="&#x192;" 
d="M346 53l76 649q1 16 -6.5 23.5t-18.5 7.5h-137q-35 0 -35 15q0 46 15 75t30 29h154q16 0 26.5 42.5t35.5 126t67 153.5q51 83 143.5 147.5t204.5 64.5q23 0 35.5 -0.5t35 -2.5t36 -8t27.5 -15.5t21 -25.5t7 -38q0 -56 -17 -102.5t-45 -46.5q-14 0 -27 23t-25 50.5
t-41 50.5t-70 23q-51 0 -83 -50t-42 -107l-49 -267q-2 -10 0 -14t12 -4h141q13 0 18.5 -0.5t11 -3.5t5.5 -10q0 -46 -15 -75.5t-30 -29.5h-143q-7 0 -11 -2t-6 -7t-2.5 -8.5t-1 -12t-0.5 -11.5l-88 -700q-8 -65 -46.5 -138t-91 -133t-119 -99.5t-126.5 -39.5q-69 0 -96 24.5
t-27 71.5q0 40 17 98t43 58q16 0 33 -23t30 -50.5t31.5 -50.5t36.5 -23q19 0 28.5 6t23 38.5t26 110t28.5 211.5z" />
    <glyph glyph-name="circumflex" unicode="&#x2c6;" horiz-adv-x="681" 
d="M412 1331l254 -346h-88l-236 211l-238 -211h-88l254 346h142z" />
    <glyph glyph-name="caron" unicode="&#x2c7;" horiz-adv-x="681" 
d="M270 985l-254 346h88l238 -211l236 211h88l-254 -346h-142z" />
    <glyph glyph-name="uni02C9" unicode="&#x2c9;" horiz-adv-x="681" 
d="M666 1067h-650v121h650v-121z" />
    <glyph glyph-name="breve" unicode="&#x2d8;" horiz-adv-x="681" 
d="M43 1309h72q6 -24 10.5 -39.5t21.5 -47.5t39 -52t62 -36t90 -16q56 0 99 17.5t65 40t37 54t18.5 47t5.5 32.5h76q-5 -138 -81 -231t-210 -93q-147 0 -222 84.5t-83 239.5z" />
    <glyph glyph-name="dotaccent" unicode="&#x2d9;" horiz-adv-x="681" 
d="M244 1124q0 25 39 73t57 48t57 -48t39 -73t-39 -72.5t-57 -47.5t-57 47.5t-39 72.5z" />
    <glyph glyph-name="ring" unicode="&#x2da;" horiz-adv-x="681" 
d="M342 1298q-48 0 -82.5 -33.5t-34.5 -80.5t35 -82t82 -35q46 0 81.5 35t35.5 82t-35.5 80.5t-81.5 33.5zM342 975q-86 0 -147.5 61.5t-61.5 147.5t62 146.5t147 60.5t147 -60.5t62 -146.5t-61.5 -147.5t-147.5 -61.5z" />
    <glyph glyph-name="ogonek" unicode="&#x2db;" horiz-adv-x="681" 
d="M598 -352l12 -54q-36 -30 -96 -46.5t-125 -16.5q-106 0 -163.5 59.5t-57.5 145.5q0 53 22 104t53.5 85t64.5 54.5t57 20.5h77q-53 -53 -83.5 -116.5t-30.5 -110.5q0 -61 31 -107.5t94 -46.5q38 0 145 29z" />
    <glyph glyph-name="tilde" unicode="&#x2dc;" horiz-adv-x="681" 
d="M621 1268h69q-56 -230 -229 -230q-68 0 -160 49q-3 1 -18.5 9.5t-20 10.5t-18 8.5t-20 8.5t-17.5 5.5t-20.5 4.5t-18.5 1q-14 0 -27 -3t-23 -8.5t-18 -11.5t-14 -14.5t-10.5 -15.5t-8 -15.5t-5 -13.5t-3.5 -11l-2 -6h-67q6 38 22.5 75.5t42.5 72.5t68 56.5t92 21.5
q54 0 156 -50q100 -49 147 -49q18 0 33.5 7.5t25.5 18t19 24.5t13 24.5t8 20.5z" />
    <glyph glyph-name="hungarumlaut" unicode="&#x2dd;" horiz-adv-x="1024" 
d="M133 985h-94l250 258q75 77 91 88q21 15 46 15q37 0 59.5 -27.5t22.5 -44.5q0 -10 -1.5 -18.5t-5 -16t-7 -13.5t-10.5 -13t-10.5 -11t-13 -10t-13.5 -9t-15 -9.5t-14 -8.5zM608 985h-94l250 258q75 77 91 88q21 15 46 15q37 0 59.5 -27.5t22.5 -44.5q0 -10 -1.5 -18.5
t-5 -16t-7 -13.5t-10.5 -13t-10.5 -11t-13 -10t-13.5 -9t-15 -9.5t-14 -8.5z" />
    <glyph glyph-name="uni03A9" unicode="&#x3a9;" horiz-adv-x="1490" 
d="M1419 281l-51 -281h-477l-14 39q13 23 50 85t60.5 103t57 111t53.5 128t34.5 132.5t14.5 144.5q-1 124 -24 223t-61 164t-91 108.5t-110 62t-120 18.5q-85 0 -155 -32t-126 -99.5t-87 -183t-31 -271.5q0 -76 17 -156.5t36.5 -138t61 -138t63 -116.5t69.5 -114
q13 -21 19 -31l-16 -39h-475l-47 281l47 2q31 -96 62.5 -125t94.5 -29h215q-35 30 -60 53t-63 62.5t-65 75t-57.5 86t-49.5 100.5t-31.5 113t-12.5 129q0 141 46.5 260t126.5 199.5t190 125.5t235 45q171 0 303.5 -72.5t208 -212t75.5 -327.5q0 -81 -22.5 -161.5t-54.5 -142
t-83 -128t-91 -109t-95 -96.5h225q67 0 94 26.5t60 127.5z" />
    <glyph glyph-name="uni03BC" unicode="&#x3bc;" 
d="M952 834v-674q0 -43 24.5 -62.5t54.5 -19.5t54.5 -5.5t24.5 -23.5q0 -10 -2 -16t-8.5 -9t-10.5 -4t-15 -2t-15 -2l-309 -39q-15 30 -15 138q-3 -2 -38.5 -34t-61.5 -49.5t-80.5 -36t-114.5 -18.5q-114 0 -170 43q0 -66 22.5 -185.5t22.5 -151.5q0 -99 -100 -99t-100 99
q0 21 11.5 88.5t22.5 210t11 346.5v348q0 33 -20.5 48.5t-45 16t-45 7.5t-20.5 26q0 25 37 33.5t108.5 17.5t122.5 29q12 5 24.5 12t19 10t11.5 3q17 0 21 -10t4 -35v-519q0 -105 38.5 -157t139.5 -52q67 0 123.5 36.5t56.5 97.5v436q0 33 -20.5 48.5t-45 16t-45 7.5
t-20.5 26q0 25 37 33.5t108.5 17.5t122.5 29q10 4 20 9.5t15.5 8.5t11 5t9.5 2q12 0 17.5 -6.5t6 -13.5t0.5 -25z" />
    <glyph glyph-name="pi" unicode="&#x3c0;" horiz-adv-x="1140" 
d="M1036 938l47 -18q-25 -115 -71 -175q-44 -8 -140 -8q-8 -95 -8 -469q0 -91 21 -135.5t69 -44.5q28 0 49.5 14.5t51.5 47.5l26 -41q-37 -66 -92.5 -100t-114.5 -34q-84 0 -130 56t-46 196q0 153 23 516q-121 2 -326 2v-36q0 -157 -16 -292t-40 -216.5t-43.5 -128
t-33.5 -62.5q-75 -30 -117 -35l-12 35q70 84 115 228t59.5 269t14.5 243q-64 0 -114 -14t-76 -30t-73 -51l-26 43q56 69 81 91q100 90 257 90q24 0 254 -5q188 -4 290 -4q46 0 71 13.5t50 54.5z" />
    <glyph glyph-name="endash" unicode="&#x2013;" horiz-adv-x="1024" 
d="M0 375v147h1024v-147h-1024z" />
    <glyph glyph-name="emdash" unicode="&#x2014;" horiz-adv-x="2048" 
d="M0 375v147h2048v-147h-2048z" />
    <glyph glyph-name="quoteleft" unicode="&#x2018;" horiz-adv-x="569" 
d="M244 817q-57 0 -106.5 73.5t-49.5 162.5q0 73 37.5 149.5t90.5 131.5t109 90.5t95 35.5q24 0 24 -24q0 -11 -16 -27t-38 -35t-44.5 -42.5t-38.5 -58.5t-16 -75q0 -36 15 -67t36.5 -50.5t42.5 -35.5t36 -30t15 -26t-15 -28.5t-52 -48.5q-3 -2 -4 -3.5t-3.5 -3t-4 -3
l-3.5 -3.5q-5 -5 -25 -24.5t-30.5 -29t-26.5 -19t-28 -9.5z" />
    <glyph glyph-name="quoteright" unicode="&#x2019;" horiz-adv-x="569" 
d="M305 1460q57 0 106.5 -73t49.5 -162q0 -73 -37.5 -149.5t-90.5 -132t-109 -91t-95 -35.5q-25 0 -25 25q0 11 16 26.5t38.5 34.5t45 42.5t38.5 58.5t16 75q0 36 -15 67t-36 50.5t-42.5 35.5t-36.5 30t-15 26t15 28.5t52 48.5q10 9 15 13q5 5 25 24.5t30.5 29t26.5 19
t28 9.5z" />
    <glyph glyph-name="quotesinglbase" unicode="&#x201a;" horiz-adv-x="569" 
d="M285 369q56 0 105.5 -73.5t49.5 -162.5q0 -73 -37.5 -149.5t-90 -131.5t-108.5 -90.5t-95 -35.5q-25 0 -25 24q0 11 16 27t38.5 35t45 42.5t38.5 58.5t16 75q0 45 -23 81.5t-50 55.5t-50 38.5t-23 33.5q0 12 15 28.5t52 48.5q10 9 15 13l20 20t23.5 22.5t22 19t24 15.5
t21.5 5z" />
    <glyph glyph-name="quotedblleft" unicode="&#x201c;" horiz-adv-x="1024" 
d="M250 817q-57 0 -106.5 73.5t-49.5 162.5q0 73 37.5 149.5t90.5 131.5t109 90.5t95 35.5q25 0 25 -24q0 -11 -16 -27t-38.5 -35t-45 -42.5t-38.5 -58.5t-16 -75q0 -36 15 -67t36.5 -50.5t42.5 -35.5t36 -30t15 -26t-15 -28.5t-52 -48.5q-3 -2 -4 -3.5t-3.5 -3t-4 -3
l-3.5 -3.5q-5 -5 -25 -24.5t-30.5 -29t-26.5 -19t-28 -9.5zM727 817q-57 0 -106.5 73.5t-49.5 162.5q0 73 37.5 149.5t90.5 131.5t109 90.5t95 35.5q25 0 25 -24q0 -11 -16 -27t-38.5 -35t-45 -42.5t-38.5 -58.5t-16 -75q0 -45 23 -81.5t50 -55.5t50 -38.5t23 -33.5
q0 -12 -15 -28.5t-52 -48.5q-10 -9 -15 -13l-20 -20t-23.5 -22.5t-22 -19t-24 -15.5t-21.5 -5z" />
    <glyph glyph-name="quotedblright" unicode="&#x201d;" horiz-adv-x="1024" 
d="M287 1460q56 0 105.5 -73t49.5 -162q0 -73 -37.5 -149.5t-90 -132t-108.5 -91t-95 -35.5q-25 0 -25 25q0 11 16 26.5t38.5 34.5t45 42.5t38.5 58.5t16 75q0 45 -23 81.5t-50 55.5t-50 38.5t-23 33.5q0 12 15 28.5t52 48.5q10 9 15 13l20 20t23.5 22.5t22 19t24 15.5
t21.5 5zM764 1460q57 0 106.5 -73t49.5 -162q0 -73 -37.5 -149.5t-90.5 -132t-109 -91t-95 -35.5q-25 0 -25 25q0 11 16 26.5t38.5 34.5t45 42.5t38.5 58.5t16 75q0 45 -23 81.5t-50 55.5t-50 38.5t-23 33.5q0 12 15 28.5t52 48.5q10 9 15 13l20 20t23.5 22.5t22 19t24 15.5
t21.5 5z" />
    <glyph glyph-name="quotedblbase" unicode="&#x201e;" horiz-adv-x="1024" 
d="M768 369q57 0 106.5 -73.5t49.5 -162.5q0 -73 -37.5 -149.5t-90.5 -131.5t-109 -90.5t-95 -35.5q-25 0 -25 24q0 11 16 27t38.5 35t45 42.5t38.5 58.5t16 75q0 45 -23 81.5t-50 55.5t-50 38.5t-23 33.5q0 12 15 28.5t52 48.5q10 9 15 13l20 20t23.5 22.5t22 19t24 15.5
t21.5 5zM285 369q56 0 105.5 -73.5t49.5 -162.5q0 -73 -37.5 -149.5t-90 -131.5t-108.5 -90.5t-95 -35.5q-25 0 -25 24q0 11 16 27t38.5 35t45 42.5t38.5 58.5t16 75q0 45 -23 81.5t-50 55.5t-50 38.5t-23 33.5q0 12 15 28.5t52 48.5q10 9 15 13l20 20t23.5 22.5t22 19
t24 15.5t21.5 5z" />
    <glyph glyph-name="dagger" unicode="&#x2020;" horiz-adv-x="1024" 
d="M541 -164h-58l-6 273q0 291 -104 555q10 19 29 51q52 91 68.5 145t12.5 164q-44 3 -89.5 -10t-76 -30.5t-64 -32.5t-56.5 -15q-46 0 -75.5 33.5t-29.5 77.5t29.5 77t75.5 33q23 0 56.5 -15t64 -32.5t76 -30.5t89.5 -10q3 62 -10.5 116t-31.5 85.5t-33 70.5t-15 74
q0 53 35 82t84 29t84 -29t35 -82q0 -35 -15 -74t-33 -70.5t-31.5 -85.5t-10.5 -116q44 -3 89.5 10t76 30.5t64 32.5t56.5 15q46 0 75.5 -33t29.5 -77t-29.5 -77.5t-75.5 -33.5q-23 0 -56.5 15t-64 32.5t-76 30.5t-89.5 10q-4 -110 12.5 -164t68.5 -145q6 -10 9.5 -16t9 -16
t10.5 -19q-104 -264 -104 -555z" />
    <glyph glyph-name="daggerdbl" unicode="&#x2021;" horiz-adv-x="1024" 
d="M541 295q-3 -62 10.5 -116t31.5 -85.5t33 -70.5t15 -74q0 -53 -35 -82t-84 -29t-84 29t-35 82q0 35 15 74t33 70.5t31.5 85.5t10.5 116q-44 3 -89.5 -10t-76 -30.5t-64 -32.5t-56.5 -15q-46 0 -75.5 33t-29.5 77t29.5 77.5t75.5 33.5q23 0 56.5 -15t64 -32.5t76 -30.5
t89.5 -10q13 158 -96 342q109 184 96 342q-44 3 -89.5 -10t-76 -30.5t-64 -32.5t-56.5 -15q-46 0 -75.5 33.5t-29.5 77.5t29.5 77t75.5 33q23 0 56.5 -15t64 -32.5t76 -30.5t89.5 -10q3 62 -10.5 116t-31.5 85.5t-33 70.5t-15 74q0 53 35 82t84 29t84 -29t35 -82
q0 -35 -15 -74t-33 -70.5t-31.5 -85.5t-10.5 -116q44 -3 89.5 10t76 30.5t64 32.5t56.5 15q46 0 75.5 -33t29.5 -77t-29.5 -77.5t-75.5 -33.5q-23 0 -56.5 15t-64 32.5t-76 30.5t-89.5 10q-13 -158 96 -342q-109 -184 -96 -342q44 -3 89.5 10t76 30.5t64 32.5t56.5 15
q46 0 75.5 -33.5t29.5 -77.5t-29.5 -77t-75.5 -33q-23 0 -56.5 15t-64 32.5t-76 30.5t-89.5 10z" />
    <glyph glyph-name="bullet" unicode="&#x2022;" horiz-adv-x="1241" 
d="M981 721q0 -149 -105.5 -255t-254.5 -106t-255 106t-106 255t106 254.5t255 105.5t254.5 -105.5t105.5 -254.5z" />
    <glyph glyph-name="ellipsis" unicode="&#x2026;" horiz-adv-x="2048" 
d="M342 369q38 0 111 -73.5t73 -111.5t-73 -111t-111 -73t-111 73t-73 111t73 111.5t111 73.5zM1024 369q38 0 111 -73.5t73 -111.5t-73 -111t-111 -73t-111 73t-73 111t73 111.5t111 73.5zM1706 369q38 0 111 -73.5t73 -111.5t-73 -111t-111 -73t-111 73t-73 111t73 111.5
t111 73.5z" />
    <glyph glyph-name="perthousand" unicode="&#x2030;" horiz-adv-x="2048" 
d="M969 606q-42 0 -69.5 -20t-39 -56.5t-15 -67t-3.5 -73.5q0 -47 6.5 -96.5t22 -107t51 -94t84.5 -36.5q141 0 141 224q0 51 -7 101t-24.5 104.5t-55 88t-91.5 33.5zM991 1386h96l-776 -1386h-100zM674 332q0 154 81 242t234 88q155 0 235.5 -94t80.5 -251
q0 -138 -88 -227.5t-226 -89.5q-139 0 -228 96t-89 236zM4 1057q0 154 81 241.5t234 87.5q155 0 235.5 -93.5t80.5 -250.5q0 -138 -87.5 -227.5t-225.5 -89.5q-139 0 -228.5 96t-89.5 236zM299 1331q-42 0 -69.5 -20t-39 -56.5t-15 -67t-3.5 -73.5q0 -47 6.5 -96.5t22 -107
t51 -94t84.5 -36.5q141 0 141 224q0 51 -7 101t-24.5 104.5t-55 88t-91.5 33.5zM1405 332q0 154 81 242t234 88q155 0 235.5 -94t80.5 -251q0 -138 -88 -227.5t-226 -89.5q-139 0 -228 96t-89 236zM1700 606q-42 0 -69.5 -20t-39 -56.5t-15 -67t-3.5 -73.5q0 -47 6.5 -96.5
t22 -107t51 -94t84.5 -36.5q141 0 141 224q0 51 -7 101t-24.5 104.5t-55 88t-91.5 33.5z" />
    <glyph glyph-name="guilsinglleft" unicode="&#x2039;" horiz-adv-x="681" 
d="M143 446l357 304q8 8 22 8q15 0 15 -15q0 -24 -82.5 -139t-120.5 -158q39 -43 121 -157.5t82 -138.5q0 -15 -15 -15q-14 0 -22 8z" />
    <glyph glyph-name="guilsinglright" unicode="&#x203a;" horiz-adv-x="681" 
d="M530 446l-356 -303q-8 -8 -22 -8q-15 0 -15 15q0 24 82 138.5t121 157.5q-38 43 -120.5 158t-82.5 139q0 15 15 15q14 0 22 -8z" />
    <glyph glyph-name="fraction" unicode="&#x2044;" horiz-adv-x="342" 
d="M-193 0h-118l843 1386h119z" />
    <glyph glyph-name="Euro" unicode="&#x20ac;" 
d="M1061 997q2 -10 -6 -18t-21 -8q-14 0 -23.5 17.5t-25.5 62.5q-107 274 -293 274q-94 0 -167 -68t-111.5 -172t-46.5 -227h565q25 0 14 -27l-24 -67q-6 -19 -29 -19h-526q0 -49 4 -86h481q28 0 18 -24l-26 -68q-6 -20 -27 -20h-438q12 -101 34.5 -184.5t60 -156t96.5 -113
t135 -40.5q44 0 83.5 18t67 44.5t51.5 63t37.5 66.5t24.5 62q20 63 30 72q5 4 11 4q12 0 19 -8.5t7 -18.5l-8 -219q0 -7 -12 -23.5t-42 -40.5t-71 -45t-109 -36t-147 -15q-80 0 -147.5 21.5t-115 56t-85.5 84t-61.5 99.5t-40 108.5t-24 105t-11.5 95.5h-123q-17 0 -10 22
l28 74q6 16 27 16h74q1 24 8 86h-129q-18 0 -10 21l24 70q8 22 29 22h104q24 106 68 198.5t106.5 167.5t147.5 118.5t182 43.5q75 0 138.5 -16t101 -38t64.5 -46t37.5 -40t10.5 -21z" />
    <glyph glyph-name="afii61289" unicode="&#x2113;" horiz-adv-x="821" 
d="M748 236l38 -35q-121 -219 -331 -219q-139 0 -201 77q-37 43 -53.5 106t-16.5 181v162l-123 -92l-24 47l147 115v253q0 249 20 354t85 177q74 92 172 92q86 0 132 -75t46 -187q0 -163 -77.5 -303.5t-219.5 -282.5v-180q0 -189 45 -263.5t137 -74.5q128 0 224 148z
M342 950v-256q89 106 143 236t54 258q0 91 -25 148t-72 57q-56 0 -78 -99.5t-22 -343.5z" />
    <glyph glyph-name="trademark" unicode="&#x2122;" horiz-adv-x="2004" 
d="M631 606h-404v53q131 0 131 93v616h-90q-84 0 -116 -30t-33 -113h-62v209h752v-209h-61q-1 83 -33.5 113t-116.5 30h-90v-635q0 -35 27 -54.5t96 -19.5v-53zM1192 1434l242 -572l241 572h273v-50h-39q-44 0 -53 -14t-9 -59v-551q0 -64 16 -80t85 -21v-53h-355v53
q70 2 87.5 18t17.5 81v569h-4l-293 -721h-21l-305 721h-4v-602q1 -19 6 -31t11 -19t21.5 -10.5t27 -4t37.5 -1.5v-53h-269v53q34 1 49 2.5t30 8.5t19.5 20.5t4.5 38.5v582v16.5v15t-0.5 11.5t-2 10t-4 7t-7 6.5l-10.5 3.5t-13.5 2.5t-18.5 0.5h-30v50h270z" />
    <glyph glyph-name="Omega" unicode="&#x2126;" horiz-adv-x="1490" 
d="M1419 281l-51 -281h-477l-14 39q13 23 50 85t60.5 103t57 111t53.5 128t34.5 132.5t14.5 144.5q-1 124 -24 223t-61 164t-91 108.5t-110 62t-120 18.5q-85 0 -155 -32t-126 -99.5t-87 -183t-31 -271.5q0 -76 17 -156.5t36.5 -138t61 -138t63 -116.5t69.5 -114
q13 -21 19 -31l-16 -39h-475l-47 281l47 2q31 -96 62.5 -125t94.5 -29h215q-35 30 -60 53t-63 62.5t-65 75t-57.5 86t-49.5 100.5t-31.5 113t-12.5 129q0 141 46.5 260t126.5 199.5t190 125.5t235 45q171 0 303.5 -72.5t208 -212t75.5 -327.5q0 -81 -22.5 -161.5t-54.5 -142
t-83 -128t-91 -109t-95 -96.5h225q67 0 94 26.5t60 127.5z" />
    <glyph glyph-name="estimated" unicode="&#x212e;" horiz-adv-x="1695" 
d="M1628 662h-1266q-10 0 -10 -9v-383q0 -21 17 -45q94 -97 218 -152t261 -55q148 0 278.5 62.5t225.5 171.5h112q-106 -126 -268.5 -199t-349.5 -73q-158 0 -302.5 55.5t-249 149t-166.5 223t-62 272.5t62 273t166.5 224t249 149.5t302.5 55.5q159 0 304 -55.5
t249.5 -149.5t166.5 -224t62 -273v-18zM1341 711v385q0 29 -18 47q-95 93 -217 145.5t-258 52.5q-135 0 -259 -54t-218 -150q-19 -22 -19 -50v-376q0 -4 3 -8.5t7 -4.5h971q8 0 8 13z" />
    <glyph glyph-name="partialdiff" unicode="&#x2202;" horiz-adv-x="1071" 
d="M530 856h2q76 0 153.5 -36.5t125.5 -106.5q15 152 16 209q3 174 -55 315q-34 78 -107 136.5t-161 58.5q-139 0 -279 -115q-26 -3 -50 42.5t-9 78.5q133 84 285 84q139 0 240 -72t175 -209q99 -186 99 -457q0 -300 -97 -499q-141 -303 -409 -303q-169 0 -270 107t-101 292
q0 98 33 183.5t86 146.5q57 65 143 105t180 40zM573 778h-2q-141 0 -225 -114q-90 -131 -90 -359q-2 -112 53 -187t148 -75q139 0 239 205q40 85 61 168.5t40 214.5q-26 51 -87.5 99t-136.5 48z" />
    <glyph glyph-name="Delta" unicode="&#x2206;" horiz-adv-x="1284" 
d="M1210 0h-1140v47l524 1309l78 20l538 -1329v-47zM1004 90l-418 1051l-410 -1051h828z" />
    <glyph glyph-name="product" unicode="&#x220f;" horiz-adv-x="1382" 
d="M1325 1364v-51q-47 -3 -74.5 -6t-50.5 -10t-33 -14t-17 -23t-8 -32.5t-1 -47.5v-1145q0 -34 1.5 -54t8.5 -38.5t17.5 -27t32.5 -16.5t49 -11.5t71 -6.5v-51h-516v51q45 3 69 5.5t46.5 9.5t31 15t16 27t8.5 39.5t1 57.5v1198q0 43 -13 54t-59 11h-434q-44 0 -56 -9.5
t-12 -47.5v-1206v-42.5t2.5 -32t5.5 -26t11.5 -17.5t18.5 -14.5t28 -9t38.5 -7.5t51.5 -5v-51h-498v51q44 3 69.5 6t48 10.5t32 16t17 27t9 39t1.5 55.5v1145q0 31 -1 48t-8.5 33t-17.5 23t-33.5 13.5t-50 9.5t-74.5 6v51h1272z" />
    <glyph glyph-name="summation" unicode="&#x2211;" horiz-adv-x="1120" 
d="M1071 195l-88 -371h-926v47l453 686l-442 758v49h915q1 -11 10.5 -129.5t14.5 -192.5l-52 -10q-28 147 -67 207q-21 36 -60.5 48.5t-148.5 12.5h-401l378 -638l-452 -695h532q50 0 76 1.5t55 10.5t43.5 22t34.5 43t34.5 66.5t37.5 98.5z" />
    <glyph glyph-name="minus" unicode="&#x2212;" horiz-adv-x="1241" 
d="M104 434v176h1033v-176h-1033z" />
    <glyph glyph-name="uni2215" unicode="&#x2215;" horiz-adv-x="342" 
d="M-193 0h-118l843 1386h119z" />
    <glyph glyph-name="uni2219" unicode="&#x2219;" horiz-adv-x="569" 
d="M285 707q38 0 111 -73.5t73 -111.5t-73 -111t-111 -73t-111.5 73t-73.5 111t73.5 111.5t111.5 73.5z" />
    <glyph glyph-name="radical" unicode="&#x221a;" horiz-adv-x="1107" 
d="M1071 1747l-332 -2032l-41 -22l-440 1085l-174 -86l-23 64l308 147l346 -880h4l276 1742z" />
    <glyph glyph-name="infinity" unicode="&#x221e;" horiz-adv-x="1511" 
d="M1411 563v-2q0 -141 -89 -228t-210 -87q-89 0 -171 53.5t-185 175.5q-45 -53 -79.5 -88t-80.5 -70.5t-97 -53t-108 -17.5q-121 0 -208 89t-87 220q0 136 88 224.5t222 88.5q100 0 184.5 -59.5t173.5 -167.5q90 101 133 138q107 89 227 89q127 0 207 -84.5t80 -220.5z
M406 348h2q22 0 44.5 6t40.5 13t40 23t35.5 26.5t36 33t31.5 32.5t32.5 36t29.5 33q-83 103 -121 137q-87 80 -182 80q-87 0 -138.5 -62.5t-51.5 -154.5q0 -85 56.5 -144t144.5 -59zM1112 768h-2q-36 0 -71 -13t-69.5 -41.5t-55 -48t-55 -58.5t-42.5 -48q105 -119 166 -165
t133 -46q86 0 137.5 63.5t51.5 143.5q0 97 -54 155t-139 58z" />
    <glyph glyph-name="integral" unicode="&#x222b;" horiz-adv-x="743" 
d="M322 33l-37 811q-40 821 299 821q41 0 78 -24t38 -66q0 -39 -24.5 -60.5t-59.5 -21.5q-21 0 -36 14t-22 31t-18.5 31t-27.5 14q-14 0 -26.5 -9t-25.5 -31t-21 -60t-12 -96.5t1 -139.5l35 -760q10 -208 -1.5 -365.5t-38.5 -253t-70 -155t-89 -81t-102 -21.5q-51 0 -85 27
t-34 65q-1 36 28.5 62t69.5 26q18 0 31.5 -14.5t21 -32.5t19.5 -32.5t27 -14.5q46 0 68.5 92.5t13.5 243.5z" />
    <glyph glyph-name="approxequal" unicode="&#x2248;" horiz-adv-x="1095" 
d="M938 848l70 -62q-98 -188 -256 -188q-57 0 -103.5 18t-124.5 62q-106 65 -178 65q-61 0 -104 -37t-88 -106l-72 62q45 86 118 137t158 51q27 0 52 -4.5t50.5 -15.5t39.5 -17.5t41 -22t32 -18.5t22 -12.5t22 -12t18.5 -10t19.5 -10l18 -7.5t19.5 -6.5t18.5 -4t21.5 -3.5
t21.5 -1q56 0 98 35t86 108zM938 510l70 -64q-98 -186 -258 -186q-38 0 -77 11.5t-65.5 24.5t-83.5 44q-111 66 -176 66q-62 0 -105 -37t-89 -107l-72 62q45 86 118 136t158 50q34 0 69.5 -9.5t51.5 -16t54.5 -27t39.5 -21.5q6 -3 22 -12.5t22.5 -13t21 -11.5t22 -11t21 -8
t23.5 -7t23 -4t26 -2q57 0 97.5 34t86.5 109z" />
    <glyph glyph-name="notequal" unicode="&#x2260;" horiz-adv-x="1095" 
d="M784 983l-84 -186h295v-107h-340l-125 -278h465v-107h-510l-102 -227l-88 37l88 190h-285v107h328l127 278h-455v107h498l102 225z" />
    <glyph glyph-name="lessequal" unicode="&#x2264;" horiz-adv-x="1095" 
d="M991 193l-882 436v114l882 435v-127l-768 -361v-4l768 -364v-129zM997 6h-899v111h899v-111z" />
    <glyph glyph-name="greaterequal" unicode="&#x2265;" horiz-adv-x="1095" 
d="M111 1178l882 -435v-114l-882 -436v126l766 365v4l-766 363v127zM993 6h-893v111h893v-111z" />
    <glyph glyph-name="lozenge" unicode="&#x25ca;" horiz-adv-x="1122" 
d="M1024 655l-401 -794h-125l-402 794l404 801h125zM901 655l-336 682h-6l-338 -680l338 -682h6z" />
    <glyph glyph-name="zero.taboldstyle" unicode="&#xf643;" 
d="M563 889q203 0 332 -128t129 -325q0 -79 -32.5 -159t-90.5 -145.5t-147.5 -106.5t-192.5 -41q-203 0 -332 127.5t-129 324.5q0 63 20 127.5t60.5 122.5t95 103.5t129.5 72.5t158 27zM520 827q-101 0 -158 -72.5t-57 -211.5q0 -127 36.5 -238.5t106 -181.5t156.5 -70
q101 0 158 73t57 212q0 127 -36.5 238t-106 181t-156.5 70z" />
    <glyph glyph-name="one.taboldstyle" unicode="&#xf644;" 
d="M668 606v-340q0 -34 0.5 -51.5t4 -42.5t10.5 -37.5t19.5 -28t31.5 -23.5t47 -15.5t65 -10.5q37 -5 49 -10.5t12 -21.5q0 -33 -59 -33q-33 0 -136 4t-147 4t-146.5 -4t-135.5 -4q-60 0 -60 33q0 16 12.5 21.5t49.5 10.5q37 3 65 10.5t47 15.5t31.5 23.5t19.5 28t10.5 37.5
t4 42.5t0.5 51.5v340q0 34 -0.5 51.5t-4 42.5t-10.5 37.5t-19.5 28t-31.5 23.5t-47 15.5t-65 10.5q-37 5 -49.5 11t-12.5 22q0 33 60 33q33 0 135.5 -4.5t146.5 -4.5t147 4.5t136 4.5q59 0 59 -33q0 -16 -12.5 -22t-48.5 -11q-37 -3 -65 -10.5t-47 -15.5t-31.5 -23.5
t-19.5 -28t-10.5 -37.5t-4 -42.5t-0.5 -51.5z" />
    <glyph glyph-name="two.taboldstyle" unicode="&#xf645;" 
d="M477 188h180q70 0 121.5 14t77.5 33.5t42.5 39t29 33.5t26.5 14q27 0 27 -29q0 -16 -18 -50.5t-55 -96.5t-60 -107q-16 -30 -30.5 -38.5t-39.5 -8.5q-54 0 -163 4t-164 4q-54 0 -139 -4t-111 -4q-50 0 -67 6.5t-17 24.5q0 15 38 48.5t94.5 73.5t122.5 93.5t122.5 107.5
t94.5 117.5t38 120.5q0 72 -47 110.5t-121 38.5q-58 0 -109.5 -19.5t-80.5 -43t-54 -43t-37 -19.5q-26 0 -26 27q0 20 33 59.5t85.5 81.5t133 73.5t161.5 31.5q116 0 203.5 -71t87.5 -171q0 -43 -15.5 -82.5t-37.5 -69t-64.5 -66.5t-76.5 -61t-95 -67t-100 -72
q-16 -12 -16 -18q0 -15 26 -15z" />
    <glyph glyph-name="three.taboldstyle" unicode="&#xf646;" 
d="M813 647q0 -54 -22.5 -102.5t-45.5 -72t-56 -50t-34 -27.5q-2 -2 -9 -8t-9 -9t-2 -7q0 -13 22 -13q117 -6 195 -88.5t78 -208.5q0 -79 -34 -162t-94 -153t-152.5 -115t-198.5 -45q-77 0 -150 20t-120.5 48.5t-76 57t-28.5 46.5q0 27 24 27q11 0 37 -18.5t56.5 -40
t85.5 -40t116 -18.5q136 0 223 91t87 239q0 58 -18.5 103.5t-48.5 72t-64.5 40t-69.5 13.5q-22 0 -49 -6t-45 -6q-39 0 -39 29q0 12 11.5 21t51.5 26q79 32 135 109t56 167q0 91 -55.5 145t-155.5 54q-44 0 -84 -15.5t-63.5 -34.5t-45.5 -34.5t-35 -15.5q-24 0 -24 30
q0 25 30 58t77.5 63t114.5 51t132 21q139 0 218 -68t79 -174z" />
    <glyph glyph-name="four.taboldstyle" unicode="&#xf647;" 
d="M590 0h-418q-20 0 -29.5 0.5t-25 3t-22.5 7t-13 14.5t-6 24q0 18 12 37t45 61q387 481 532 638q111 120 136 120q24 0 24 -37v-661q0 -18 6 -24.5t21 -6.5h49q28 0 46 13t24 29t14.5 29t20.5 13q20 0 20 -33q0 -30 -4.5 -64.5t-14.5 -73t-30.5 -64t-48.5 -25.5h-72
q-31 0 -31 -25v-290q0 -33 -38.5 -57t-80.5 -33t-75 -9q-31 0 -31 35q0 7 5 28.5t10.5 62t5.5 93.5v170q0 25 -31 25zM301 176h293q15 0 21 6.5t6 24.5v379q0 14 -9 14t-43 -37l-252 -305q-49 -62 -49 -68q0 -14 33 -14z" />
    <glyph glyph-name="five.taboldstyle" unicode="&#xf648;" 
d="M373 872h368q38 0 64 11t35 25t19 25t20 11q22 0 22 -24q0 -10 -7.5 -34t-18.5 -58.5t-17 -59.5q-18 -63 -30 -77.5t-54 -14.5h-375q-20 0 -27.5 -13t-13.5 -53q-24 -168 -24 -178q0 -22 26 -22q7 0 68.5 11t120.5 11q73 0 139.5 -23t119 -65.5t83.5 -110.5t31 -151
q0 -211 -140.5 -353.5t-347.5 -142.5q-54 0 -108 9t-95.5 23t-74 29.5t-49.5 30.5t-17 25q0 12 7.5 19.5t19.5 7.5q11 0 50 -15.5t96 -31t112 -15.5q145 0 243.5 94.5t98.5 233.5q0 122 -74 191t-192 69q-57 0 -116.5 -12.5t-70.5 -12.5q-31 0 -31 29l15 96l78 486
q3 17 13.5 23.5t33.5 6.5z" />
    <glyph glyph-name="six.taboldstyle" unicode="&#xf649;" 
d="M625 53q83 0 141.5 82t58.5 230q0 116 -31.5 214.5t-94 160t-144.5 61.5q-40 0 -76.5 -15t-68 -46.5t-50 -88.5t-18.5 -133q0 -128 37.5 -235t102.5 -168.5t143 -61.5zM416 844q0 -21 14 -21q10 0 31.5 12.5t46 27.5t71 27.5t101.5 12.5q68 0 129.5 -28t109 -80
t75.5 -133t28 -181q0 -89 -30 -175.5t-85 -159t-143.5 -117.5t-196.5 -45q-132 0 -236.5 74t-159 191.5t-54.5 252.5q0 147 37.5 275.5t97 218.5t137 164t155 119.5t152.5 76.5t127.5 43t83.5 12q43 0 43 -29q0 -18 -14.5 -26.5t-65.5 -22.5q-89 -25 -164 -71t-122 -98
t-82 -105.5t-52.5 -101t-25.5 -75.5t-8 -38z" />
    <glyph glyph-name="seven.taboldstyle" unicode="&#xf64a;" 
d="M805 676h-391q-48 0 -82 -12t-50 -30.5t-27 -39.5t-15 -39.5t-11.5 -30.5t-19.5 -12q-24 0 -33.5 12.5t-9.5 40.5q0 75 55 240q14 39 39 53t86 14h492q69 0 94.5 -15t25.5 -54q0 -57 -32.5 -143t-79.5 -179.5t-93.5 -192.5t-79 -209t-32.5 -202q0 -61 17.5 -132t17.5 -91
q0 -29 -77 -48.5t-120 -19.5q-53 0 -74.5 37t-21.5 117q0 91 25 182t65 166t88.5 145.5t96.5 130.5t88 111.5t65 97.5t25 80q0 23 -31 23z" />
    <glyph glyph-name="eight.taboldstyle" unicode="&#xf64b;" 
d="M276 424q0 -66 22.5 -131t62.5 -119t104 -87.5t139 -33.5q107 0 182.5 75.5t75.5 170.5q0 75 -34 133t-91 94t-113 60t-120 47.5t-92 40.5q-136 -89 -136 -250zM322 1122q0 -93 80 -160t233 -122q94 32 141 90.5t47 136.5q0 122 -77.5 201.5t-192.5 79.5
q-102 0 -166.5 -64t-64.5 -162zM567 -16q-92 0 -168.5 22.5t-128 60.5t-86.5 88.5t-51 104.5t-16 111q0 114 74 213t165 125q-24 16 -40 27.5t-45 41.5t-46.5 61t-32 80.5t-14.5 106.5q0 158 112.5 270.5t282.5 112.5q165 0 275 -88t110 -229q0 -96 -65 -175.5t-170 -115.5
v-4q136 -55 217.5 -155t81.5 -232q0 -58 -17.5 -117t-55 -115t-90 -99t-128.5 -69t-164 -26z" />
    <glyph glyph-name="nine.taboldstyle" unicode="&#xf64c;" 
d="M106 403q0 100 35.5 190.5t95 155t140.5 102.5t168 38q71 0 136 -18.5t125 -60.5t104 -104t70 -155t26 -207q0 -120 -33 -225.5t-87.5 -180.5t-125.5 -137t-145 -101t-149 -65.5t-134 -37.5t-103 -11q-20 0 -30.5 10t-10.5 23q0 31 58 39q179 23 295 133q73 68 120.5 154
t47.5 114q0 11 -11 11q-8 0 -18 -5.5t-25.5 -15.5t-31.5 -16q-83 -33 -177 -33q-156 0 -248 117.5t-92 285.5zM518 819q-88 0 -147.5 -68.5t-59.5 -215.5q0 -179 80 -306t189 -127q37 0 72.5 17t66.5 50t50 91t19 131q0 101 -20.5 180t-51 124t-69 74.5t-70 39.5t-59.5 10z
" />
    <glyph glyph-name="dollar.taboldstyle" unicode="&#xf653;" 
d="M522 887v438q-100 0 -164.5 -59.5t-64.5 -159.5q0 -48 18 -85t54 -62t70.5 -40.5t86.5 -31.5zM606 608v-551q116 0 190 78t74 193q0 66 -14.5 110.5t-54.5 75t-69 44.5t-97 39l-7.5 3t-6.5 2.5l-8 3t-7 2.5zM606 1319v-457q9 -3 29 -9q45 -14 70.5 -22.5t74 -29.5
t78.5 -41t68.5 -55t60.5 -74t37.5 -94.5t15.5 -120.5q0 -187 -122.5 -307t-311.5 -132v-194q0 -20 -0.5 -29t-4.5 -20.5t-12.5 -16t-23.5 -4.5q-16 0 -25 4.5t-12.5 16t-4.5 20.5t-1 29v194q-115 5 -256 56q-96 43 -129 71q-41 35 -41 70q0 66 21 167t49 101q8 0 14 -1
t10 -4.5t6.5 -5t3.5 -8.5t1.5 -9t1 -12t0.5 -13q9 -143 95.5 -237.5t223.5 -94.5v578q-159 52 -213 80q-129 65 -165 177q-17 52 -17 118q0 109 58.5 197t148 133.5t188.5 45.5v117q0 20 1 29t4.5 20.5t12.5 16t25 4.5q28 0 34.5 -16t6.5 -54v-117q84 -7 175 -35.5
t149 -72.5q50 -39 35 -98l-45 -164q-5 -19 -31 -19q-10 0 -16.5 4t-9.5 13t-4 16.5t-1.5 21t-1.5 19.5q-16 121 -93.5 184.5t-156.5 63.5z" />
    <glyph glyph-name="cent.taboldstyle" unicode="&#xf654;" 
d="M483 207l189 553q-22 25 -38 32t-65 7q-46 0 -80.5 -16.5t-55.5 -43t-34 -64t-17.5 -74t-4.5 -77.5q0 -79 27.5 -172.5t78.5 -144.5zM711 879l90 264h80l-97 -287q50 -10 92 -41.5t42 -83.5q0 -31 -62 -79t-90 -48q-10 0 -15.5 5.5t-7.5 12.5l-7 24.5t-11 31.5l-170 -535
q41 -37 123 -37q49 0 95.5 17.5t74.5 38t53.5 38t36.5 17.5q25 0 25 -22q0 -39 -56.5 -89.5t-151 -89.5t-186.5 -39q-59 0 -77 7l-99 -295h-84l107 319q-240 102 -240 395q0 29 4 61t17.5 80.5t35.5 92t63.5 89t95.5 78.5t136.5 54t182.5 21z" />
    </font>
</defs>
</svg>
