<?xml version="1.0" standalone="no"?>
<!DOCTYPE svg PUBLIC "-//W3C//DTD SVG 1.1//EN" "http://www.w3.org/Graphics/SVG/1.1/DTD/svg11.dtd" >
<svg xmlns="http://www.w3.org/2000/svg" xmlns:xlink="http://www.w3.org/1999/xlink" version="1.1">
<metadata>
Created by FontForge 20170731 at Mon Dec  6 08:24:13 2010
 By Aleksey,,,
Copyright (c) 2010 Brian M Zick &#60;artistenator@gmail.com&#62;
</metadata>
<defs>
<font id="Neuton" horiz-adv-x="1180" >
  <font-face 
    font-family="Neuton"
    font-weight="500"
    font-stretch="normal"
    units-per-em="2048"
    panose-1="2 0 5 3 0 0 0 0 0 0"
    ascent="1638"
    descent="-410"
    x-height="1062"
    cap-height="1512"
    bbox="-92 -508 2205 2269"
    underline-thickness="220"
    underline-position="-881"
    unicode-range="U+0020-F002"
  />
<missing-glyph horiz-adv-x="748" 
d="M68 0v1365h544v-1365h-544zM136 68h408v1229h-408v-1229z" />
    <glyph glyph-name=".notdef" horiz-adv-x="748" 
d="M68 0v1365h544v-1365h-544zM136 68h408v1229h-408v-1229z" />
    <glyph glyph-name=".null" horiz-adv-x="0" 
 />
    <glyph glyph-name="nonmarkingreturn" horiz-adv-x="682" 
 />
    <glyph glyph-name="space" unicode=" " horiz-adv-x="500" 
 />
    <glyph glyph-name="exclam" unicode="!" horiz-adv-x="573" 
d="M338 442v-8l-108 24v4q-64 836 -64 1058v4q7 23 61.5 35.5t98.5 12.5q30 0 54.5 -11t24.5 -37q0 -261 -67 -1082zM437 110q0 -64 -45 -109t-108 -45t-106.5 45.5t-43.5 110.5q0 61 44.5 102t105.5 41q62 0 107.5 -42t45.5 -103z" />
    <glyph glyph-name="quotedbl" unicode="&#x22;" horiz-adv-x="652" 
d="M335 1584l223 -20l-44 -466l-114 -14zM82 1584l223 -20l-44 -466l-114 -14z" />
    <glyph glyph-name="numbersign" unicode="#" horiz-adv-x="1155" 
d="M416 442l-31 -225l-128 -10l32 235h-205l30 122h197l38 257h-196l28 123h188l37 213l124 12l-36 -225h249l34 213l124 10l-34 -223h205l-28 -123h-197l-38 -257h195l-28 -122h-189l-28 -225l-129 -10l33 235h-247zM436 564h247l40 257h-249z" />
    <glyph glyph-name="dollar" unicode="$" horiz-adv-x="1115" 
d="M606 612v-509q90 21 150 83t60 163q0 82 -54 143t-156 120zM503 955v481q-79 -14 -127 -70t-48 -155q0 -82 45.5 -142.5t129.5 -113.5zM908 1078l-120 14l-32 233q-15 30 -58.5 63t-95.5 46v-536q16 -8 60 -31.5t63 -33.5t59 -33.5t59 -37.5t51.5 -39.5t49 -46t38 -50
t32 -58t18 -64.5t7.5 -74q0 -169 -116 -289t-291 -157v-183l-160 -20v190q-118 6 -221.5 56t-161.5 122l16 325l125 -18l46 -229q32 -51 91.5 -88.5t131.5 -43.5v576q-50 27 -79.5 43.5t-75.5 46t-73 53t-59.5 58.5t-50 69.5t-30 79t-12.5 93.5q0 166 102.5 276t257.5 143
v163l152 20v-173q174 -12 304 -121z" />
    <glyph glyph-name="percent" unicode="%" horiz-adv-x="1426" 
d="M929 257q0 -88 35.5 -144.5t100.5 -56.5q131 0 131 203q0 91 -33.5 148t-99.5 57q-134 0 -134 -207zM1348 257q0 -119 -87 -209t-196 -90q-120 0 -204.5 84.5t-84.5 216.5q0 120 87.5 211.5t199.5 91.5q127 0 206 -87t79 -218zM230 877q0 -88 35.5 -143t100.5 -55
q131 0 131 200q0 91 -33.5 148t-99.5 57q-134 0 -134 -207zM649 879q0 -120 -87 -210.5t-196 -90.5q-120 0 -203.5 84.5t-83.5 218.5q0 120 86.5 211t198.5 91q128 0 206.5 -86.5t78.5 -217.5zM1043 1187l137 -10l-798 -1223l-146 12z" />
    <glyph glyph-name="ampersand" unicode="&#x26;" horiz-adv-x="1585" 
d="M607 940q87 59 121 116t34 145q0 111 -40 174q-44 69 -133 69q-77 0 -120 -61q-44 -63 -44 -138q0 -82 56 -165q60 -88 126 -140zM465 765l-20 2q-70 -49 -117 -122q-46 -72 -46 -167q0 -92 26 -167q26 -74 88 -130q58 -52 151 -52q52 0 110 26q54 24 93 66q42 45 60 68
q24 30 36 54zM1320 879l-263 -417q308 -333 418 -366l40 -12l-18 -84q-69 -24 -147 -24q-51 0 -100 22q-52 23 -107 66q-41 32 -104 91q-41 38 -106 110q-26 -37 -95 -124q-135 -153 -331 -165h-32q-133 0 -227 56q-99 59 -147 149t-48 200q0 279 337 472q-66 56 -112 143
q-48 90 -48 189q0 138 114 249q115 112 269 112q86 0 139 -16q68 -20 110 -52q54 -40 79 -99q28 -65 28 -150q0 -189 -279 -358v-14l281 -311l215 329l-185 51l12 92h526l-12 -92z" />
    <glyph glyph-name="quotesingle" unicode="'" horiz-adv-x="399" 
d="M82 1584l223 -20l-44 -466l-114 -14z" />
    <glyph glyph-name="parenleft" unicode="(" horiz-adv-x="615" 
d="M567 -386l-84 -70q-25 23 -43 41t-63.5 72.5t-79.5 107t-77.5 139.5t-72 177t-48.5 211.5t-20 249.5q0 131 19.5 252t47 209.5t70.5 172.5t77 135t80.5 102.5t66.5 70t49 42.5l60 -80q-38 -50 -67 -96.5t-66 -128t-61.5 -170.5t-41.5 -219t-17 -278q0 -498 271 -940z" />
    <glyph glyph-name="parenright" unicode=")" horiz-adv-x="615" 
d="M48 -386q271 442 271 940q0 148 -17 278t-41.5 219t-61.5 170.5t-66 128t-67 96.5l60 80q29 -24 49 -42.5t66.5 -70t80.5 -102.5t77 -135t70.5 -172.5t47 -209.5t19.5 -252q0 -128 -20 -249.5t-48.5 -211.5t-72 -177t-77.5 -139.5t-79.5 -107t-63.5 -72.5t-43 -41z" />
    <glyph glyph-name="asterisk" unicode="*" horiz-adv-x="1024" 
d="M857 841l-144 -84l-181 301l62 62zM339 721l-124 112l231 265l78 -40zM70 1173l67 154l323 -138l-14 -87zM416 1572l166 -16l-32 -349l-86 -14zM902 1365l36 -162l-344 -79l-40 79z" />
    <glyph glyph-name="plus" unicode="+" horiz-adv-x="833" 
d="M484 498l2 -287l-135 14v273h-269l14 122h255v282l131 -15l2 -267h267l-14 -122h-253z" />
    <glyph glyph-name="comma" unicode="," horiz-adv-x="577" 
d="M88 -297q112 29 166.5 87.5t54.5 123.5q0 53 -39.5 91.5t-101.5 38.5q-24 0 -36 -2q-18 47 -18 76q0 68 48 107.5t101 39.5q34 0 69 -14.5t68.5 -43t54.5 -79.5t21 -116q0 -40 -6.5 -77t-29 -86t-59.5 -89t-105.5 -78.5t-159.5 -62.5z" />
    <glyph glyph-name="hyphen" unicode="-" horiz-adv-x="776" 
d="M147 606l496 22l-14 -122l-496 -22z" />
    <glyph glyph-name="period" unicode="." horiz-adv-x="527" 
d="M263 249q60 0 103.5 -40.5t43.5 -98.5q0 -61 -43.5 -104.5t-103.5 -43.5t-102.5 44t-42.5 106q0 58 43 97.5t102 39.5z" />
    <glyph glyph-name="slash" unicode="/" horiz-adv-x="860" 
d="M633 1502l161 10l-566 -1944l-157 -10z" />
    <glyph glyph-name="zero" unicode="0" horiz-adv-x="1235" 
d="M324 709q0 -619 304 -619q156 0 221.5 143t65.5 480q0 302 -73 464t-218 162q-160 0 -230 -158.5t-70 -471.5zM1124 713q0 -178 -43.5 -323.5t-115.5 -235.5t-159.5 -138t-179.5 -48q-104 0 -196 46.5t-164 136t-114 234.5t-42 328q0 165 42 306.5t113 237t163.5 149.5
t193.5 54q223 0 362.5 -202t139.5 -545z" />
    <glyph glyph-name="one" unicode="1" horiz-adv-x="964" 
d="M627 1440v-1301l333 -39l-12 -98l-883 -2l8 90l345 57v1106h-329l8 94l498 93h32z" />
    <glyph glyph-name="two" unicode="2" horiz-adv-x="1158" 
d="M1000 0h-928l-8 124l287 249q77 66 125.5 111t112.5 114t100.5 126.5t63 130t26.5 143.5q0 307 -249 307q-199 0 -321 -309l-100 36q18 78 62.5 155t107 140.5t148 103t176.5 39.5q196 0 296.5 -108.5t100.5 -309.5q0 -63 -18 -126.5t-44.5 -117t-70.5 -112t-84 -101.5
t-97.5 -96.5t-97 -86.5t-97.5 -81.5t-85 -71.5l-111 -96h573l116 216l84 -12z" />
    <glyph glyph-name="three" unicode="3" horiz-adv-x="1046" 
d="M209 259q8 -49 79.5 -119t149.5 -70q87 0 147 26.5t89.5 72t41 91.5t11.5 101q0 53 -26.5 108t-72.5 100.5t-117 74.5t-153 29h-20l-12 80q19 6 43 16.5t67 31.5t81 50t74.5 65t58 85t21.5 101q0 90 -51 150.5t-160 60.5q-92 0 -148.5 -47.5t-94.5 -137.5l-90 33
q9 49 44 103.5t87.5 101.5t126 77.5t151.5 30.5q142 0 247 -87.5t105 -217.5q0 -137 -81.5 -231t-205.5 -139v-14q156 -22 249.5 -124.5t93.5 -226.5q0 -131 -75 -238.5t-206 -169.5t-289 -62q-148 0 -233.5 51.5t-85.5 117.5q0 47 41 83t113 43z" />
    <glyph glyph-name="four" unicode="4" horiz-adv-x="1160" 
d="M625 -14v448h-591l-28 90l751 928l80 -22q-12 -218 -12 -599v-249h310l-20 -152h-290v-412zM621 582v524l-410 -524h410z" />
    <glyph glyph-name="five" unicode="5" horiz-adv-x="946" 
d="M107 52q254 24 396 115.5t142 224.5q0 186 -135 288t-431 121l155 621l540 34l-30 -191l-446 -24l-64 -265q302 -18 468 -154.5t166 -351.5q0 -96 -43 -183.5t-129.5 -162t-232 -123.5t-334.5 -61z" />
    <glyph glyph-name="six" unicode="6" horiz-adv-x="1111" 
d="M336 741h13q43 50 127 85t178 35q114 0 205.5 -62t139.5 -160t48 -209q0 -122 -66 -227.5t-178.5 -167t-241.5 -61.5q-120 0 -211.5 43.5t-145.5 119.5t-81 170.5t-27 204.5q0 198 104.5 400.5t274 352t359.5 211.5l45 -71q-224 -103 -364 -285.5t-179 -378.5zM569 74
q139 0 198 85.5t59 238.5q0 63 -17 122.5t-48.5 108.5t-82.5 78.5t-113 29.5q-65 0 -137.5 -31t-95.5 -65q-8 -80 -8 -147q0 -105 29.5 -200t86.5 -157.5t129 -62.5z" />
    <glyph glyph-name="seven" unicode="7" horiz-adv-x="1037" 
d="M804 1253h-625l-62 -167l-84 16l30 336h939v-65l-522 -1413l-114 36z" />
    <glyph glyph-name="eight" unicode="8" horiz-adv-x="1117" 
d="M471 675q-4 -4 -23.5 -21t-25 -22.5t-23 -22t-23 -25t-19.5 -26t-19 -30t-14 -32t-12.5 -38t-6.5 -41.5t-3 -48q0 -108 82 -198.5t179 -90.5q135 0 198 60t63 183q0 38 -21.5 77.5t-50 70.5t-83 71.5t-92 65t-106.5 67.5zM102 341q0 202 297 376v10q-39 23 -76.5 54.5
t-77 75t-63.5 99.5t-24 114q0 76 32.5 147.5t87.5 124.5t133 85.5t164 32.5q169 0 273.5 -96.5t104.5 -237.5q0 -109 -65.5 -206.5t-167.5 -134.5l-4 -12q141 -88 221 -189.5t80 -208.5q0 -84 -35 -158t-98.5 -129.5t-161 -87.5t-215.5 -32q-173 0 -289 101.5t-116 271.5z
M636 823q73 42 106.5 99t33.5 160q0 126 -67 205.5t-166 79.5q-97 0 -150.5 -62t-53.5 -144q0 -93 77.5 -175t219.5 -163z" />
    <glyph glyph-name="nine" unicode="9" horiz-adv-x="1106" 
d="M771 699h-16q-43 -59 -132 -95t-173 -36q-173 0 -279 118.5t-106 289.5q0 99 42 192t109 159t153.5 105.5t172.5 39.5q93 0 170 -29.5t130.5 -80t90.5 -120t54 -148.5t17 -166q0 -242 -90.5 -445.5t-261 -339.5t-395.5 -175l-28 90q146 43 248.5 107t163 147.5t90.5 176
t40 210.5zM534 1373q-133 0 -199 -89.5t-66 -255.5q0 -132 73 -230.5t196 -98.5q66 0 138 30.5t99 75.5q12 67 12 175q0 99 -33.5 189.5t-92.5 147t-127 56.5z" />
    <glyph glyph-name="colon" unicode=":" horiz-adv-x="597" 
d="M436 906q0 -58 -40.5 -99.5t-96.5 -41.5q-57 0 -97 42t-40 101q0 55 40.5 91.5t96.5 36.5t96.5 -37.5t40.5 -92.5zM436 143q0 -58 -40.5 -99.5t-96.5 -41.5q-57 0 -97 42t-40 101q0 54 40.5 91t96.5 37t96.5 -38t40.5 -92z" />
    <glyph glyph-name="semicolon" unicode=";" horiz-adv-x="633" 
d="M323 1036q58 0 99.5 -38.5t41.5 -94.5q0 -59 -41.5 -100.5t-99.5 -41.5t-98.5 42.5t-40.5 101.5q0 56 41 93.5t98 37.5zM124 -280q104 27 155 81.5t51 114.5q0 49 -36.5 85t-94.5 36q-23 0 -34 -2q-17 45 -17 71q0 63 44.5 99.5t94.5 36.5q71 0 134.5 -60t63.5 -175
q0 -37 -6 -71.5t-27 -80t-55.5 -82.5t-98 -73t-148.5 -58z" />
    <glyph glyph-name="less" unicode="&#x3c;" horiz-adv-x="908" 
d="M61 520l2 34l656 629l69 -87l-440 -544l464 -568l-76 -84z" />
    <glyph glyph-name="equal" unicode="=" horiz-adv-x="1061" 
d="M163 516h747l-14 -128h-747zM167 807h747l-14 -128h-747z" />
    <glyph glyph-name="greater" unicode="&#x3e;" horiz-adv-x="908" 
d="M847 520l-675 -620l-76 84l464 568l-440 544l69 87l656 -629z" />
    <glyph glyph-name="question" unicode="?" horiz-adv-x="825" 
d="M76 1401q0 27 11 53.5t36 52.5t74.5 42.5t117.5 16.5q71 0 145 -38.5t135 -105t99.5 -166t38.5 -210.5q0 -59 -19.5 -105t-50 -75t-68 -52.5t-75 -42.5t-68 -39t-50 -49t-19.5 -65q0 -65 26 -152l-90 -20q-33 49 -63.5 124.5t-30.5 140.5q0 55 20.5 96t53.5 65.5t73 44
t79.5 38t72.5 40.5t53.5 59.5t20.5 87.5q0 79 -69.5 145t-129.5 66q-70 0 -132.5 -22.5t-100.5 -63.5q-34 14 -62 51t-28 83zM514 110q0 -64 -45 -109t-108 -45t-106.5 45.5t-43.5 110.5q0 61 44.5 102t105.5 41q62 0 107.5 -42t45.5 -103z" />
    <glyph glyph-name="at" unicode="@" horiz-adv-x="1712" 
d="M985 841q-56 14 -107 14q-67 0 -121 -63.5t-81 -155.5t-27 -188q0 -129 26 -179t77 -50q90 0 169 90zM935 1161q-146 0 -271 -61t-209 -163t-131.5 -234.5t-47.5 -276.5q0 -272 167 -431.5t463 -159.5q115 0 236.5 45t179.5 86l12 10l44 -76l-10 -6q-48 -33 -87.5 -56
t-105.5 -53t-145.5 -46t-167.5 -16q-115 0 -223 22t-209.5 73.5t-176.5 127t-120.5 191t-45.5 257.5q0 180 66.5 340.5t182.5 278.5t283.5 187t359.5 69q171 0 314.5 -67.5t230.5 -195t87 -289.5q0 -122 -43.5 -237.5t-119 -202.5t-183.5 -140t-230 -53q-47 0 -82.5 30
t-35.5 75l2 38h-11q-42 -62 -103.5 -108.5t-124.5 -46.5q-99 0 -159 86t-60 238q0 124 46.5 233.5t118 179.5t155.5 110.5t162 40.5q112 0 200 -20l4 -2l22 -24l-50 -446q-16 -144 -16 -189q0 -41 7 -57.5t23 -16.5q90 0 163 64t113 169.5t40 228.5q0 154 -69 267.5
t-184.5 170t-260.5 56.5z" />
    <glyph glyph-name="A" unicode="A" horiz-adv-x="1487" 
d="M849 1542l473 -1391l167 -53l-10 -98h-626l14 90l208 67l-132 369h-510l-137 -375l227 -53l-14 -98h-570l12 90l181 67l532 1347zM479 649h428l-203 608z" />
    <glyph glyph-name="B" unicode="B" horiz-adv-x="1438" 
d="M803 735h-271v-619h267q150 0 235.5 90t85.5 216q0 58 -20 113t-58 100t-100 72.5t-139 27.5zM982 827v-10q90 -5 163.5 -38.5t119 -84t70 -110.5t24.5 -122q0 -72 -20 -136.5t-67.5 -125t-120 -104t-185.5 -70t-255 -26.5h-629l12 90l205 57v1196l-209 36l12 93
q381 56 599 56q136 0 241 -29t167 -79t93 -112t31 -133q0 -50 -13 -98.5t-40.5 -96t-78 -88t-119.5 -65.5zM532 1416v-579h313q159 67 159 269q0 48 -10.5 91t-37.5 85.5t-68 73t-108 49.5t-152 19q-53 0 -96 -8z" />
    <glyph glyph-name="C" unicode="C" horiz-adv-x="1444" 
d="M358 801q0 -158 45.5 -287t122.5 -210.5t175.5 -125t208.5 -43.5q115 0 227 51.5t197 130.5l44 -92q-83 -100 -235 -177.5t-327 -77.5q-142 0 -270 49.5t-229 141t-160.5 236t-59.5 320.5q0 79 14 159t44.5 162t74.5 155.5t108.5 138t142.5 111.5t180.5 74t218.5 27
q279 0 440 -122l-38 -404l-107 16l-50 267q-99 127 -315 127q-195 0 -323.5 -170t-128.5 -457z" />
    <glyph glyph-name="D" unicode="D" horiz-adv-x="1703" 
d="M534 1399v-1273h177q157 0 280.5 48t200 131t116 190.5t39.5 231.5q0 113 -26 213.5t-79.5 186t-131.5 147.5t-187.5 96.5t-240.5 34.5q-98 0 -148 -6zM1604 795q0 -126 -36 -242.5t-112 -217t-184 -175t-261 -117.5t-335 -43h-600l16 90l209 67v1184l-209 36l10 93
q377 60 625 60q143 0 263.5 -21t209.5 -58.5t159 -92t115.5 -117t75 -137t42 -150.5t12.5 -159z" />
    <glyph glyph-name="E" unicode="E" horiz-adv-x="1428" 
d="M93 1512h1211l-38 -388l-105 16l-50 261h-574v-578h353l52 145l115 16l-40 -472l-105 -16l-40 213h-335v-593h604l119 280l100 -15l-36 -381h-1235l10 90l203 57v1222l-221 51z" />
    <glyph glyph-name="F" unicode="F" horiz-adv-x="1322" 
d="M93 1512h1209l-50 -390l-107 16l-42 263h-566v-586h349l52 147l109 16l-32 -476l-107 -18l-38 219h-333l-2 -554l289 -47l-16 -102h-719l10 90l203 57v1222l-221 51z" />
    <glyph glyph-name="G" unicode="G" horiz-adv-x="1618" 
d="M1411 1414l-30 -392l-106 18l-44 233q-52 52 -158.5 95.5t-235.5 43.5q-74 0 -141.5 -21.5t-129 -70.5t-107 -120t-72 -177t-26.5 -236q0 -137 40.5 -261t114.5 -220.5t190 -154t256 -57.5q123 0 210 51v383l-287 46l14 101h677l-14 -91l-151 -50v-438
q-119 -71 -260 -102.5t-326 -31.5q-144 0 -263.5 37.5t-204.5 104t-144 159.5t-87 204t-28 236q0 189 68 348.5t180.5 263t255 160.5t295.5 57q317 0 514 -118z" />
    <glyph glyph-name="H" unicode="H" horiz-adv-x="1841" 
d="M748 0h-659l10 90l203 57v1222l-221 51l12 92h663l-12 -92l-205 -47v-532h763v528l-223 51l14 92h663l-14 -92l-203 -47v-1234l221 -41l-12 -98h-661l14 90l201 57v572l-763 -2v-578l225 -41z" />
    <glyph glyph-name="I" unicode="I" horiz-adv-x="840" 
d="M746 0h-657l10 90l203 57v1222l-221 51l12 92h663l-12 -92l-207 -47v-1234l221 -41z" />
    <glyph glyph-name="J" unicode="J" horiz-adv-x="790" 
d="M59 -396l-66 107q148 140 217.5 263.5t69.5 264.5l2 1130l-221 51l12 92h663l-12 -92l-207 -47l-2 -905q-1 -152 -16 -260.5t-44 -191.5t-86.5 -153.5t-127 -127.5t-182.5 -131z" />
    <glyph glyph-name="K" unicode="K" horiz-adv-x="1521" 
d="M572 735l-2 26q29 29 94 101.5t91 107.5l299 393l-189 57l10 92h599l-15 -92l-214 -57l-454 -568l277 -327q69 -81 102 -119t81 -88.5t80.5 -75t74.5 -48t88 -37.5l46 -14l-14 -84q-78 -28 -159 -28q-73 0 -141 25.5t-129 75.5t-112 106.5t-108 135.5zM540 151l231 -53
l-14 -98h-673l12 90l209 67v1202l-229 61l16 92h669l-12 -92l-209 -57v-1212z" />
    <glyph glyph-name="L" unicode="L" horiz-adv-x="1361" 
d="M759 1512l-12 -92l-209 -57v-1247h538l159 302l104 -16l-46 -402h-1203l10 90l203 57v1212l-229 61l16 92h669z" />
    <glyph glyph-name="M" unicode="M" horiz-adv-x="2091" 
d="M910 38l-417 1137l-78 -1036l224 -41l-16 -98h-584l14 90l203 57l88 1222l-223 51l14 92h486l97 -235l317 -902l377 942l85 195h480l-12 -92l-205 -47l64 -1234l221 -41l-12 -98h-651l14 90l201 57l-68 1074l-464 -1159z" />
    <glyph glyph-name="N" unicode="N" horiz-adv-x="1728" 
d="M1265 -36l-807 1205v-1030l222 -41l-12 -98h-578l10 90l203 57v1212l-221 61l12 92h428l781 -1181v1038l-225 51l14 92h578l-16 -92l-203 -47v-1371z" />
    <glyph glyph-name="O" unicode="O" horiz-adv-x="1684" 
d="M826 1430q-456 0 -456 -607q0 -110 17 -212.5t55 -197t93.5 -164.5t139 -111.5t185.5 -41.5q107 0 189 35t131.5 91t81 136.5t43 162t11.5 176.5q0 107 -17 209t-55.5 198t-94 167.5t-139 115t-184.5 43.5zM1587 753q0 -159 -52.5 -300t-150 -249.5t-249 -172
t-335.5 -63.5q-205 0 -366.5 104.5t-248 283t-86.5 397.5q0 233 94.5 413t273.5 281t417 101q129 0 241.5 -41.5t196.5 -115.5t144 -174t90.5 -218t30.5 -246z" />
    <glyph glyph-name="P" unicode="P" horiz-adv-x="1347" 
d="M1291 1084q0 -105 -46 -197t-123 -154t-179 -97.5t-212 -35.5q-45 0 -121 4l-22 101l64 2q196 6 292 88t96 245q0 80 -21.5 148t-66 122.5t-120.5 85t-176 30.5l-124 -8v-1269l287 -47l-16 -102h-721l12 90l205 57v1196l-209 36l12 93q353 54 580 54q609 0 609 -442z" />
    <glyph glyph-name="Q" unicode="Q" horiz-adv-x="1703" 
d="M833 1420q-230 0 -359 -155.5t-129 -437.5q0 -94 16.5 -187.5t59 -192.5t107 -175.5t170 -129.5t238.5 -60q119 30 202.5 89t129 141.5t65.5 172.5t20 200q0 135 -37 265.5t-102 235.5t-165 169.5t-216 64.5zM879 -26q-18 -6 -78 -6q-206 0 -367 101t-248.5 276
t-87.5 394q0 233 99.5 417t283 288t420.5 104q211 0 373 -107.5t246 -284.5t84 -391q0 -180 -68 -338.5t-202 -274.5t-314 -160q29 -67 64 -113.5t94 -89t149.5 -73t218.5 -51.5q0 -58 -12 -91q-89 -42 -215 -42q-112 0 -207 52t-158.5 154t-74.5 236z" />
    <glyph glyph-name="R" unicode="R" horiz-adv-x="1478" 
d="M1267 1146q0 -124 -91.5 -241t-256.5 -176v-2l219 -303q47 -64 67 -91t54.5 -70.5t54.5 -62t51 -43t61 -38.5t68 -25l40 -12l-18 -84q-69 -24 -147 -24q-135 0 -239.5 88t-192.5 245l-194 346h-211v-500l229 -53l-12 -100h-667l12 90l205 57v1192l-209 36l12 93
q358 56 556 56q140 0 248 -19.5t191 -63t126.5 -117.5t43.5 -178zM773 763q102 34 172.5 114.5t70.5 200.5q0 153 -90 248.5t-248 95.5q-38 0 -74 -2q-36 0 -54 -2l-18 -2v-653h241z" />
    <glyph glyph-name="S" unicode="S" horiz-adv-x="1146" 
d="M926 1078l-120 14l-32 233q-20 39 -79 77t-126 38q-98 0 -160.5 -58t-62.5 -171q0 -56 24.5 -103.5t65.5 -83.5t94.5 -68.5t112 -63t117.5 -62.5t112.5 -71.5t94.5 -85t65.5 -108t24.5 -135.5q0 -102 -45.5 -189.5t-120.5 -146t-172.5 -91.5t-201.5 -33q-126 0 -237 51.5
t-173 127.5l16 325l125 -18l46 -229q35 -56 102.5 -94.5t148.5 -38.5q51 0 100 15t92.5 44t70 80t26.5 116q0 64 -38.5 117.5t-100 93.5t-135.5 79t-148.5 83.5t-136 96.5t-100 127.5t-38.5 167.5q0 132 69 232t175 149t228 49q198 0 344 -122z" />
    <glyph glyph-name="T" unicode="T" horiz-adv-x="1413" 
d="M38 1512h1351l-42 -410l-114 18l-48 281h-370v-1262l225 -41l-16 -98h-657l10 90l205 57v1254h-359l-64 -295l-111 16z" />
    <glyph glyph-name="U" unicode="U" horiz-adv-x="1724" 
d="M917 129q189 0 292 112.5t104 344.5l2 783l-221 51l12 92h582l-14 -92l-202 -47l-6 -747q-3 -333 -149.5 -495.5t-459.5 -162.5q-93 0 -170.5 13t-159.5 52t-138 103.5t-92 175t-36 258.5v799l-225 51l16 92h659l-12 -92l-205 -47v-753q0 -250 113.5 -370.5t309.5 -120.5
z" />
    <glyph glyph-name="V" unicode="V" horiz-adv-x="1487" 
d="M654 -30l-510 1399l-177 51l12 92h653l-12 -92l-205 -47l379 -1068l390 1064l-223 51l10 92h554l-10 -92l-159 -47l-518 -1367z" />
    <glyph glyph-name="W" unicode="W" horiz-adv-x="2163" 
d="M1410 -30l-318 1187l-347 -1151l-197 -36l-397 1399l-169 51l10 92h625l-17 -92l-204 -47l295 -1042l341 1121l215 30l301 -1133l317 1020l-220 51l14 92h546l-14 -92l-149 -47l-444 -1367z" />
    <glyph glyph-name="X" unicode="X" horiz-adv-x="1456" 
d="M860 799l416 -660l165 -41l-16 -98h-613l16 90l195 57l-319 496l-354 -500l201 -41l-18 -102h-536l16 92l153 55l445 600l-411 618l-167 53l14 94h625l-14 -94l-189 -55l301 -451l329 457l-206 49l14 94h530l-10 -92l-155 -47z" />
    <glyph glyph-name="Y" unicode="Y" horiz-adv-x="1354" 
d="M798 643v-504l199 -41l-12 -98h-616l12 90l182 57v467l-429 755l-167 51l16 92h617l-14 -92l-193 -47l337 -594l321 590l-222 51l12 92h540l-12 -92l-151 -47z" />
    <glyph glyph-name="Z" unicode="Z" horiz-adv-x="1374" 
d="M138 1512h1129v-92l-930 -1298h693l150 304l113 -18l-69 -408h-1138l-10 126l906 1271h-653l-94 -299l-109 22z" />
    <glyph glyph-name="bracketleft" unicode="[" horiz-adv-x="624" 
d="M612 -456l-435 -2l1 1984h430l14 -108l-261 -25v-1708l263 -24z" />
    <glyph glyph-name="backslash" unicode="\" horiz-adv-x="860" 
d="M222 1539l562 -1997l-157 10l-566 1997z" />
    <glyph glyph-name="bracketright" unicode="]" horiz-adv-x="624" 
d="M12 -456l-12 117l263 24v1708l-261 25l14 108h430l1 -1984z" />
    <glyph glyph-name="asciicircum" unicode="^" horiz-adv-x="913" 
d="M486 1520l359 -518l-68 -44l-331 347h-12l-305 -341l-61 40l352 500z" />
    <glyph glyph-name="underscore" unicode="_" horiz-adv-x="1021" 
d="M13 -32h1008l-14 -129h-1008z" />
    <glyph glyph-name="grave" unicode="`" horiz-adv-x="771" 
d="M199 2018l140 46l161 -406l-70 -42z" />
    <glyph glyph-name="a" unicode="a" horiz-adv-x="1032" 
d="M637 520q-189 -37 -268.5 -101.5t-79.5 -157.5q0 -52 37 -96.5t100 -44.5q57 0 116 34t95 75v291zM849 -22q-96 0 -142 49.5t-46 113.5v18h-14q-14 -28 -38.5 -57t-64 -60.5t-99.5 -51.5t-130 -20q-101 0 -170 63.5t-69 171.5q0 69 32.5 132t98 116.5t176 90t254.5 46.5
v67q0 66 -10 120.5t-33.5 101.5t-67 73t-104.5 26q-38 0 -62.5 -15t-37 -47.5t-19 -67.5t-12.5 -90q-2 -26 -4 -39q-25 0 -43 1.5t-43.5 8.5t-42 19.5t-28.5 37.5t-12 59q0 63 69 123t165.5 94t181.5 34q161 0 231 -90t70 -285v-442q0 -85 25.5 -117t109.5 -46l60 -10
l-14 -104q-20 -3 -50 -9.5t-57.5 -10.5t-59.5 -4z" />
    <glyph glyph-name="b" unicode="b" horiz-adv-x="1179" 
d="M160 60v1287l-185 65l16 92l337 26l30 -28v-470l-18 -126h14q165 186 348 186q176 0 283.5 -143.5t107.5 -374.5q0 -140 -49.5 -256t-133 -190.5t-191 -115t-226.5 -40.5q-194 0 -333 88zM876 496q0 59 -6.5 115.5t-24.5 116.5t-46 104.5t-74.5 73t-105.5 28.5
q-151 0 -261 -117v-628q38 -38 108 -60.5t149 -22.5q112 0 186.5 99t74.5 291z" />
    <glyph glyph-name="c" unicode="c" horiz-adv-x="980" 
d="M663 109q56 0 105.5 13t76 26t64.5 37l30 -71q-50 -61 -156.5 -105.5t-219.5 -44.5q-142 0 -253 75t-169 198t-58 269q0 131 43.5 243.5t116 186.5t165 116t191.5 42q144 0 218.5 -54t74.5 -132q0 -55 -39.5 -88t-114.5 -39q-16 38 -31 67t-39.5 62t-56.5 51.5t-70 18.5
q-109 0 -174 -99.5t-65 -264.5q0 -63 13 -130.5t41.5 -135.5t69.5 -121t102.5 -86.5t134.5 -33.5z" />
    <glyph glyph-name="d" unicode="d" horiz-adv-x="1232" 
d="M832 159h-12q-134 -185 -337 -185q-169 0 -282.5 135.5t-113.5 376.5q0 128 48 243.5t124 194.5t171 125.5t189 46.5q59 0 118.5 -16.5t90.5 -39.5h10l-16 157v154l-185 67l17 90l337 30l28 -30v-1247q0 -45 7.5 -73t26.5 -43t36.5 -21.5t51.5 -13.5q7 -1 10 -2l55 -12
l-14 -102q-88 -22 -179 -22q-88 0 -134.5 49.5t-46.5 129.5v8zM820 239v570q-46 76 -120 121.5t-139 45.5q-70 0 -121 -31.5t-80.5 -89t-43.5 -130t-14 -163.5q0 -209 74.5 -321t194.5 -112q72 0 143 34t106 76z" />
    <glyph glyph-name="e" unicode="e" horiz-adv-x="1019" 
d="M891 548l-588 -6q4 -75 26 -146.5t61.5 -133.5t105 -100t146.5 -38h7q52 0 81.5 2.5t79.5 18t108 46.5l26 -65q-73 -76 -177 -119t-223 -43q-88 0 -168.5 36t-146 103t-104.5 175.5t-39 241.5q0 132 45 242.5t117.5 181t160 109.5t177.5 39q140 0 233 -100t93 -285
q0 -71 -21 -159zM305 637l382 26q8 27 8 84q0 227 -169 227q-82 0 -147.5 -86t-73.5 -251z" />
    <glyph glyph-name="f" unicode="f" horiz-adv-x="834" 
d="M462 1193l-2 -131h313l-16 -108h-297v-807l299 -45l-10 -102h-691l14 88l185 53v813h-181l14 88l169 28q12 101 46.5 188t81.5 146t104 101t114 61.5t110 19.5q103 0 165 -35t62 -105q0 -41 -36.5 -82t-72.5 -55q-46 58 -104 103.5t-109 45.5q-73 0 -113.5 -58.5
t-44.5 -206.5z" />
    <glyph glyph-name="g" unicode="g" horiz-adv-x="1103" 
d="M316 739q0 -119 64.5 -198t136.5 -79q84 0 131.5 59.5t47.5 183.5q0 69 -21.5 134.5t-68 113t-107.5 47.5q-91 0 -137 -69t-46 -192zM535 183h167q76 0 130.5 -9t104.5 -34t76 -75.5t26 -126.5q0 -103 -81.5 -198t-212 -152.5t-266.5 -57.5q-89 0 -164 14t-139 44
t-100.5 85t-36.5 130q0 32 16 63.5t34 52t52 45t48.5 33t44.5 25.5v10q-57 27 -87 70.5t-30 96.5q0 47 65.5 108.5t137.5 90.5v10q-59 15 -129 106.5t-70 202.5q0 98 58.5 185t152.5 137.5t195 50.5q150 0 257 -76l261 18l24 -28l-46 -135h-20l-151 49v-20q42 -89 42 -169
t-38 -150t-98 -115t-132.5 -71t-142.5 -26q-67 0 -109 12q-62 -66 -62 -108q0 -28 15 -45.5t66 -30t142 -12.5zM316 4q-3 -1 -7 -3t-14.5 -12t-19 -24t-15 -39.5t-6.5 -56.5q0 -208 291 -208q62 0 112.5 11.5t90.5 36t62 67.5t22 102q0 78 -65.5 102t-239.5 24h-211z" />
    <glyph glyph-name="h" unicode="h" horiz-adv-x="1262" 
d="M1064 729v-590l177 -43l-14 -96h-546l14 90l164 49l4 558v8q0 62 -19 107.5t-50.5 70t-66.5 36t-74 11.5q-128 0 -235 -109v-680l178 -43l-14 -98h-566l14 96l187 45v1218l-195 65l14 92l352 28l30 -30v-480l-20 -128h14q170 190 357 190q68 0 118.5 -16.5t92 -56
t63 -113.5t21.5 -181z" />
    <glyph glyph-name="i" unicode="i" horiz-adv-x="678" 
d="M74 96l185 45v748l-185 67l16 92l342 28l30 -30v-905l195 -43l-14 -98h-583zM349 1589q61 0 105 -40.5t44 -98.5q0 -61 -44.5 -105t-104.5 -44t-102 44.5t-42 106.5q0 58 43 97.5t101 39.5z" />
    <glyph glyph-name="j" unicode="j" horiz-adv-x="585" 
d="M214 209v680l-183 67l18 96l339 26l31 -30v-865q0 -100 -20 -186.5t-53 -150t-81 -118.5t-97 -93t-109 -71l-54 -30l-60 107q45 34 79 65.5t71.5 82t62 107t40.5 137.5t16 176zM453 1444q0 -62 -44 -106.5t-105 -44.5t-104.5 45.5t-43.5 107.5q0 61 44 102.5t106 41.5
q60 0 103.5 -43t43.5 -103z" />
    <glyph glyph-name="k" unicode="k" horiz-adv-x="1189" 
d="M448 550l315 394l-163 50l14 92h517l-17 -90l-182 -50l-287 -354l96 -122q30 -38 69.5 -90t61 -80t51.5 -64t51 -54.5t48 -38t55 -29.5t60 -14l48 -6l-14 -94q-72 -24 -145 -24q-60 0 -108.5 18.5t-104 69.5t-104.5 111t-133 174l-128 177v24zM30 96l185 45v1206l-191 65
l14 92l350 28l30 -30v-70v-1291l194 -43l-14 -98h-582z" />
    <glyph glyph-name="l" unicode="l" horiz-adv-x="632" 
d="M418 141l194 -43l-14 -98h-582l14 96l185 45v1218l-191 65l14 92l350 28l30 -30v-1373z" />
    <glyph glyph-name="m" unicode="m" horiz-adv-x="1953" 
d="M1096 889h14q64 83 158 137t202 54q287 0 287 -339v-600l168 -43l-16 -96h-518l10 88l151 49v572q0 91 -54 152t-149 61q-73 0 -127 -32.5t-106 -88.5v-664l181 -43l-12 -96h-540l14 90l159 49v572q0 95 -59 154t-148 59q-148 0 -241 -105v-680l174 -43l-12 -96h-562
l12 90l183 49v736l-195 61l12 92l370 50l22 -24l-22 -154h12q65 80 161.5 135t203.5 55q92 0 166 -48.5t101 -152.5z" />
    <glyph glyph-name="n" unicode="n" horiz-adv-x="1313" 
d="M1116 749v-610l175 -43l-12 -96h-548l14 88l167 51v562q0 113 -58 169t-153 56q-67 0 -130 -27.5t-109 -77.5v-682l180 -43l-16 -96h-564l12 88l183 51v738l-187 63l12 92l362 48l22 -24l-22 -154h12q68 82 164 136t203 54q142 0 217.5 -89.5t75.5 -253.5z" />
    <glyph glyph-name="o" unicode="o" 
d="M301 604q0 -99 18 -187.5t54.5 -164.5t101.5 -121t151 -45q81 0 140 53t85 130t26 167q0 96 -17.5 186t-53 170.5t-98.5 129t-146 48.5q-88 0 -148.5 -53t-86.5 -133t-26 -180zM1094 536q0 -166 -68.5 -296.5t-184.5 -201t-257 -70.5q-234 0 -367 154t-133 396
q0 134 44.5 245.5t119 183.5t169 111.5t197.5 39.5q222 0 351 -154t129 -408z" />
    <glyph glyph-name="p" unicode="p" horiz-adv-x="1207" 
d="M575 -24q-54 0 -114 12l-6 147q42 -17 77.5 -22t107.5 -5q124 0 189.5 104.5t65.5 281.5q0 440 -233 440q-128 0 -249 -125v-1122l188 -42l-14 -99h-566l8 97l185 46v1190l-187 55l14 94l354 44l26 -22l-18 -157h10q36 50 79 91t112.5 74.5t143.5 33.5q80 0 145.5 -30.5
t116.5 -92t79 -164t28 -237.5q0 -259 -153 -425.5t-389 -166.5z" />
    <glyph glyph-name="q" unicode="q" horiz-adv-x="1179" 
d="M778 88q-54 -51 -139.5 -82.5t-153.5 -31.5q-82 0 -153 32.5t-126.5 95.5t-87 166t-31.5 234q0 120 48 232t124 190t172.5 125t191.5 47q53 0 114.5 -19t96.5 -39l141 46l36 -2v-1387l195 -42l-14 -99h-579l12 97l183 44v1112q-39 68 -100.5 117.5t-144.5 49.5
q-114 0 -188.5 -108.5t-74.5 -289.5q0 -212 73.5 -331t191.5 -119q35 0 102 15.5t107 39.5z" />
    <glyph glyph-name="r" unicode="r" horiz-adv-x="919" 
d="M795 819q-70 60 -134 60q-57 0 -117 -70t-78 -195v-467l281 -41l-12 -106h-671l14 90l185 49v746l-197 59l16 92l348 46l24 -28l-20 -281h24q46 158 125 243.5t160 85.5q65 0 105.5 -41t40.5 -97q0 -80 -94 -145z" />
    <glyph glyph-name="s" unicode="s" horiz-adv-x="891" 
d="M602 715l-10 52q-44 225 -180 225q-62 0 -99.5 -42t-37.5 -103q0 -46 29.5 -86.5t76.5 -72t104 -62.5t114 -66.5t104 -75t76.5 -95.5t29.5 -122q0 -131 -114.5 -220t-260.5 -89q-157 0 -254.5 63.5t-97.5 149.5q0 63 44 108.5t117 51.5q38 -125 98 -189t131 -64t115.5 30
t44.5 93q0 39 -29 74t-75 64t-101.5 58.5t-111 65t-101.5 75.5t-75 97t-29 124q0 43 14 89t44 90.5t71.5 79.5t102.5 56.5t132 21.5q126 0 211.5 -53t85.5 -150q0 -76 -45 -124t-124 -54z" />
    <glyph glyph-name="t" unicode="t" horiz-adv-x="809" 
d="M345 1323h65v-267h343l-10 -106h-335l-4 -554v-8q0 -134 41.5 -186.5t136.5 -52.5q40 0 84 17t68 34l23 17l26 -66q-57 -83 -142 -131t-187 -48q-59 0 -104 16t-81 53.5t-55 106t-19 167.5v38l4 599h-155v66q153 120 301 305z" />
    <glyph glyph-name="u" unicode="u" horiz-adv-x="1235" 
d="M833 159h-14q-127 -187 -349 -187q-271 0 -271 353v560l-167 67l16 96l327 26l29 -30v-658q0 -247 188 -247q136 0 227 94v646l-195 51l12 110l358 34l26 -30v-783q0 -44 8 -72t29 -44t39 -22.5t56 -14.5l55 -12l-10 -102q-93 -22 -185 -22q-88 0 -133.5 49t-45.5 128v10
z" />
    <glyph glyph-name="v" unicode="v" horiz-adv-x="1094" 
d="M476 -34l-339 954l-147 50l12 92h544l-10 -90l-177 -50l229 -687l233 685l-195 50l17 92h465l-14 -90l-132 -50l-331 -934z" />
    <glyph glyph-name="w" unicode="w" horiz-adv-x="1500" 
d="M855 1008l167 -588l26 -135l165 637l-183 50l12 92h466l-14 -90l-131 -50l-259 -936l-144 -22l-211 747l-191 -725l-144 -22l-277 956l-141 50l12 92h506l-12 -90l-165 -50l137 -486l28 -145l185 693z" />
    <glyph glyph-name="x" unicode="x" horiz-adv-x="1187" 
d="M1009 139l138 -49l-10 -90h-542l16 88l155 51l-201 287l-219 -287l173 -49l-12 -90h-472l12 88l131 51l297 391l-279 400l-143 50l12 92h528l-16 -90l-140 -50l190 -265l203 263l-167 50l17 92h457l-16 -90l-128 -50l-279 -364z" />
    <glyph glyph-name="y" unicode="y" horiz-adv-x="1130" 
d="M492 0l-347 922l-151 46l14 94h510l-10 -90l-155 -46l248 -656l262 650l-158 50l16 92h417l-10 -90l-122 -50l-402 -986q-94 -230 -181 -314t-228 -84q-80 0 -133.5 44.5t-53.5 100.5q0 88 68 146q95 -66 183 -66q28 0 50 5.5t51 21.5t57 54q26 35 51 96z" />
    <glyph glyph-name="z" unicode="z" horiz-adv-x="1040" 
d="M117 1062h817v-90l-611 -852h438l115 215l82 -10l-50 -325h-816l-6 106l597 842h-410l-72 -225l-94 16z" />
    <glyph glyph-name="braceleft" unicode="{" horiz-adv-x="684" 
d="M547 -331l91 -6l10 -123h-125q-102 0 -164.5 48t-85 125.5t-29.5 172t-8.5 191.5t-10.5 179t-47 139.5t-108 68.5l-63 10v120l59 10q63 11 101 57.5t49.5 113t17.5 148.5q5 70 5 142v23v13q0 77 12 150q12 79 37 140t83.5 98t147.5 37h123l-10 -121l-99 -8
q-56 -5 -72 -73t-16 -205v-71q0 -64 -2 -108.5t-8 -104t-20 -101.5t-36 -83.5t-57.5 -69t-83.5 -41.5v-8q74 -21 119.5 -79.5t62 -135t21.5 -164t5 -171.5t5 -153t28 -113t68 -47z" />
    <glyph glyph-name="bar" unicode="|" horiz-adv-x="493" 
d="M317 -462l-141 16v1978l141 -14v-1980z" />
    <glyph glyph-name="braceright" unicode="}" horiz-adv-x="684" 
d="M137 -331q45 3 68 47t28 113t5 153t5 171.5t21.5 164t62 135t119.5 79.5v8q-48 14 -83.5 41.5t-57.5 69t-36 83.5t-20 101.5t-8 104t-2 108.5v71q0 137 -16 205t-72 73l-99 8l-10 121h123q89 0 147.5 -37t83.5 -98q26 -61 38 -140q11 -67 11 -138v-12v-13v-23
q0 -71 5 -142q6 -82 17.5 -148.5t49.5 -113t101 -57.5l59 -10v-120l-63 -10q-70 -11 -108 -68.5t-47 -139.5t-10.5 -179t-8.5 -191.5t-29.5 -172t-85 -125.5t-164.5 -48h-125l10 123z" />
    <glyph glyph-name="asciitilde" unicode="~" horiz-adv-x="1222" 
d="M136 502q2 10 7 26t23 58t40.5 74t61 58t83.5 26q11 0 16 -1l542 -54h5q20 0 45 18.5t40 36.5l15 19l78 -2q-1 -5 -4 -14t-12.5 -34.5t-21 -48.5t-31 -51.5t-41 -49t-51.5 -34.5t-62 -14q-12 0 -18 1l-542 54h-5q-22 0 -47.5 -21t-39.5 -42l-14 -21z" />
    <glyph glyph-name="nonbreakingspace" unicode="&#xa0;" horiz-adv-x="500" 
 />
    <glyph glyph-name="exclamdown" unicode="&#xa1;" horiz-adv-x="529" 
d="M213 649v8l108 -25v-4q24 -310 44.5 -649t20.5 -435v-4q-7 -23 -61.5 -35.5t-99.5 -12.5q-30 0 -54 11t-24 37q0 300 66 1109zM115 954q0 64 44.5 109t107.5 45t107 -45.5t44 -110.5q0 -60 -45 -101.5t-106 -41.5q-62 0 -107 42t-45 103z" />
    <glyph glyph-name="cent" unicode="&#xa2;" horiz-adv-x="1006" 
d="M429 202l112 778h-4q-110 0 -179.5 -100.5t-69.5 -263.5q0 -118 34 -232t107 -182zM619 129q196 0 286 56l30 -71q-50 -61 -156.5 -105.5t-219.5 -44.5q-14 0 -42 2l-63 -398l-157 -10l70 447q-134 62 -211 198t-77 303q0 122 37.5 227.5t101 179t146 119.5t173.5 58
l63 420l161 10l-66 -434q95 -18 144 -67t49 -111q0 -55 -39.5 -88t-114.5 -39q-43 103 -89 150l-116 -788q42 -14 90 -14z" />
    <glyph glyph-name="sterling" unicode="&#xa3;" horiz-adv-x="1393" 
d="M1120 1472l-38 -384l-104 16l-50 259q-52 28 -103 28q-62 0 -103.5 -17.5t-70 -53t-44.5 -102.5t-23 -150.5t-10 -212.5v-58l267 16l-14 -122l-255 -16l-2 -49q-4 -174 -19 -300t-55 -206l560 -4l159 308l104 -22l-46 -402h-1203l10 90l203 57q26 85 35.5 173t12.5 240
l2 107l-217 -12l14 122l207 12l4 167q9 282 144 423t352 141q168 0 283 -48z" />
    <glyph glyph-name="currency" unicode="&#xa4;" horiz-adv-x="987" 
d="M489 815q-84 0 -135.5 -59t-51.5 -156q0 -98 52.5 -158.5t136.5 -60.5q87 0 141 58.5t54 152.5q0 101 -54 162t-143 61zM228 404q-24 38 -39 90t-15 100q0 97 46 169l-109 104l103 101l94 -107q39 33 90.5 53t96.5 20q49 0 102 -17t89 -44l94 97l92 -107l-102 -90
q44 -78 44 -177q0 -105 -52 -180l114 -105l-106 -100l-96 110q-96 -58 -189 -58q-80 0 -163 50l-94 -108l-103 104z" />
    <glyph glyph-name="yen" unicode="&#xa5;" horiz-adv-x="1372" 
d="M568 584h-373l14 119h325l-300 666l-166 51l16 92h559l-14 -92l-161 -47l264 -600l265 596l-191 51l12 92h482l-12 -92l-150 -47l-309 -670h365l-14 -119h-384v-174h394l-14 -118h-380v-156l199 -41l-12 -95h-609l12 87l182 57v148h-377l14 118h363v174z" />
    <glyph glyph-name="brokenbar" unicode="&#xa6;" horiz-adv-x="499" 
d="M178 -446v959l145 -14v-961zM178 657v875l143 -14l-2 -875z" />
    <glyph glyph-name="section" unicode="&#xa7;" horiz-adv-x="968" 
d="M133 962l454 -269q64 -38 105.5 -67t87.5 -72.5t69 -94.5t23 -110q0 -109 -64.5 -195t-164.5 -130t-214 -44q-209 0 -334 144l14 264l91 -13l46 -188q36 -49 88.5 -80t108.5 -31q42 0 82 10.5t79 33t62.5 65.5t23.5 102q0 42 -31 80.5t-80 70.5t-109 65t-119.5 72.5
t-108.5 85t-80 109t-31 138.5q0 44 2 54zM866 572l-391 225q-137 80 -181 114q-145 110 -159 251q-2 16 -2 33q0 83 31 148t84.5 104t119 59t139.5 20q173 0 285 -102l-16 -278l-84 17l-47 190q-8 23 -59 56t-107 33q-78 0 -122.5 -43t-44.5 -134q0 -50 24 -94t63.5 -76
t90 -65.5t103.5 -61.5t103.5 -63.5t90 -72.5t63.5 -88t24 -110q0 -33 -8 -62z" />
    <glyph glyph-name="dieresis" unicode="&#xa8;" horiz-adv-x="835" 
d="M578 1875q42 0 74.5 -26.5t32.5 -67.5q0 -43 -32 -70.5t-75 -27.5q-41 0 -71.5 27.5t-30.5 70.5q0 42 31 68t71 26zM253 1875q42 0 73 -26.5t31 -67.5q0 -43 -31 -70.5t-73 -27.5q-41 0 -71.5 27.5t-30.5 70.5q0 42 31 68t71 26z" />
    <glyph glyph-name="copyright" unicode="&#xa9;" horiz-adv-x="1697" 
d="M842 1448q-278 0 -448 -187t-170 -494q0 -309 169 -497t447 -188q286 0 460.5 182.5t174.5 480.5q0 316 -174.5 509.5t-458.5 193.5zM1609 757q0 -235 -96.5 -414t-273.5 -277t-409 -98q-333 0 -537 215.5t-204 569.5q0 240 93.5 422.5t264.5 282.5t395 100
q228 0 402 -99.5t269.5 -281.5t95.5 -420zM917 439q46 0 87 10.5t63 21.5t53 30l24 -58q-42 -50 -129 -87t-180 -37q-117 0 -208.5 62t-139 163t-47.5 221q0 108 36 200.5t95.5 153.5t136 95.5t157.5 34.5q118 0 179.5 -44.5t61.5 -108.5q0 -93 -127 -104q-13 32 -25.5 55
t-32.5 51t-46.5 43t-57.5 15q-89 0 -143 -82.5t-54 -217.5q0 -66 18 -136t52 -134.5t93.5 -105.5t133.5 -41z" />
    <glyph glyph-name="ordfeminine" unicode="&#xaa;" horiz-adv-x="689" 
d="M150 420h412l-8 -71h-412zM389 701q-83 -13 -110.5 -35.5t-27.5 -61.5q0 -58 54 -58q27 0 50 16.5t34 35.5v103zM475 496q-39 0 -57.5 20t-18.5 46v6h-6q-13 -28 -50 -51t-82 -23q-40 0 -67.5 22.5t-27.5 65.5q0 56 49 93t174 60v32q0 128 -80 128q-30 0 -39.5 -18.5
t-15.5 -66.5q-1 -6 -1 -9q-67 0 -67 50q0 37 54 65t109 28q64 0 92 -36.5t28 -114.5v-177q0 -34 10.5 -47t44.5 -17l24 -4l-6 -42q-60 -10 -67 -10z" />
    <glyph glyph-name="guillemotleft" unicode="&#xab;" horiz-adv-x="820" 
d="M38 570l326 428l54 -72l-201 -366l205 -389l-64 -77l-318 452zM339 570l326 428l54 -72l-201 -366l205 -389l-64 -77l-318 452z" />
    <glyph glyph-name="logicalnot" unicode="&#xac;" horiz-adv-x="1172" 
d="M134 807h906l2 -381l-129 -22v275h-793z" />
    <glyph glyph-name="softhyphen" unicode="&#xad;" horiz-adv-x="776" 
d="M148 634l496 73l-10 -141l-496 -72z" />
    <glyph glyph-name="registered" unicode="&#xae;" horiz-adv-x="722" 
d="M636 1301q0 -128 -78.5 -205.5t-206.5 -77.5q-119 0 -192 77t-73 204q0 131 74.5 211t196.5 80q125 0 202 -79.5t77 -209.5zM357 1552q-101 0 -162 -67.5t-61 -177.5q0 -112 60.5 -180.5t160.5 -68.5q105 0 170 65t65 172q0 116 -65 186.5t-168 70.5zM361 1319
q20 0 31 18t11 46t-18.5 43.5t-47.5 15.5l-18 -2v-121h42zM464 1393q0 -51 -67 -80l48 -66q34 -49 71 -64l8 -2l-6 -22q-12 -4 -30 -4q-53 0 -91 66l-40 68h-38v-96l42 -12l-2 -22h-140l2 22l44 10v241l-44 8l2 22q80 8 108 8q133 0 133 -77z" />
    <glyph glyph-name="macron" unicode="&#xaf;" horiz-adv-x="853" 
d="M167 1799h536l-16 -122h-536z" />
    <glyph glyph-name="degree" unicode="&#xb0;" horiz-adv-x="559" 
d="M275 1504q-51 0 -77.5 -40.5t-26.5 -96.5q0 -61 30.5 -108.5t85.5 -47.5q50 0 77 36t27 102q0 62 -31 108.5t-85 46.5zM289 1562q86 0 137.5 -55t51.5 -142q0 -86 -57.5 -149t-147.5 -63q-85 0 -137 54t-52 146q0 85 60 147t145 62z" />
    <glyph glyph-name="plusminus" unicode="&#xb1;" horiz-adv-x="945" 
d="M115 142l743 8l-20 -126l-743 -8zM527 578l2 -287l-135 14v273h-269l14 122h255v282l131 -15l2 -267h267l-14 -122h-253z" />
    <glyph glyph-name="twosuperior" unicode="&#xb2;" horiz-adv-x="425" 
d="M160 1454q-28 3 -40 12.5t-12 31.5q0 30 39.5 57t75.5 27q39 0 66.5 -27t27.5 -69q0 -47 -22 -77.5t-84 -85.5l-49 -42h161l-8 -52h-215l-2 38l105 104q48 45 48 99q0 32 -13 52t-39 20q-39 0 -39 -88z" />
    <glyph glyph-name="threesuperior" unicode="&#xb3;" horiz-adv-x="422" 
d="M251 1480q0 25 -15 43.5t-39 18.5q-19 0 -33 -20.5t-14 -63.5q-50 3 -50 36q0 38 41 63t78 25q39 0 65.5 -26t26.5 -60q0 -35 -19.5 -67.5t-50.5 -49.5v-6q42 -12 66 -42t24 -66q0 -49 -35.5 -87t-88.5 -38q-59 0 -85 21t-26 48q0 18 16 29t32 13q4 -24 8 -37t16 -25
t33 -12q32 0 49 22.5t17 55.5t-22.5 60.5t-55.5 27.5q-6 0 -22 -1t-23 -1q-6 30 -6 32v2l10 3q10 2 18 5t21 8.5t23.5 13.5t20 18t15 25t5.5 32z" />
    <glyph glyph-name="acute" unicode="&#xb4;" horiz-adv-x="752" 
d="M564 2026l-223 -386l-62 39l149 395z" />
    <glyph glyph-name="paragraph" unicode="&#xb6;" horiz-adv-x="1611" 
d="M1069 1379l-28 -6v-1234l26 -4l46 12v1222zM1517 1512l-12 -92l-207 -47v-1234l221 -41l-12 -98h-882l10 90l203 57v443q-78 -6 -158 -6q-609 0 -609 442q0 141 73.5 253.5t196.5 173.5t270 61zM838 1401q-50 2 -128 2q-388 0 -388 -333q0 -165 95 -266t285 -101l128 8
l8 -6v696z" />
    <glyph glyph-name="periodcentered" unicode="&#xb7;" horiz-adv-x="565" 
d="M281 751q60 0 103.5 -40.5t43.5 -98.5q0 -61 -43.5 -104.5t-103.5 -43.5t-102.5 44t-42.5 106q0 58 43 97.5t102 39.5z" />
    <glyph glyph-name="cedilla" unicode="&#xb8;" horiz-adv-x="467" 
d="M259 -92q108 -94 108 -183q0 -127 -243 -199l-24 72q50 17 77.5 45t27.5 56q0 49 -89 134l119 171h90z" />
    <glyph glyph-name="onesuperior" unicode="&#xb9;" horiz-adv-x="373" 
d="M221 1568v-299l66 -12l-4 -30h-187l4 28l60 16v241h-56l2 28l105 28h10z" />
    <glyph glyph-name="ordmasculine" unicode="&#xba;" horiz-adv-x="711" 
d="M156 420h412l-8 -71h-412zM249 731q0 -87 31.5 -141t80.5 -54q94 0 94 163q0 84 -30 137t-82 53q-94 0 -94 -158zM544 715q0 -100 -55 -163.5t-140 -63.5q-93 0 -141 61t-48 160q0 108 58.5 169.5t142.5 61.5q88 0 135.5 -60.5t47.5 -164.5z" />
    <glyph glyph-name="guillemotright" unicode="&#xbb;" horiz-adv-x="820" 
d="M481 570l-2 -24l-318 -452l-64 77l205 389l-201 366l54 72zM782 570l-2 -24l-318 -452l-64 77l205 389l-201 366l54 72z" />
    <glyph glyph-name="onequarter" unicode="&#xbc;" horiz-adv-x="1231" 
d="M938 -6v180h-237l-11 36l300 371l32 -9q-4 -77 -4 -240v-99h124l-8 -61h-116v-165zM936 233v209l-164 -209h164zM320 1186v-520l133 -16l-5 -40h-353l3 36l138 23v442h-131l3 38l199 37h13zM1018 1167l98 10l-835 -1203l-102 -10z" />
    <glyph glyph-name="onehalf" unicode="&#xbd;" horiz-adv-x="1235" 
d="M1114 0h-379l-3 50l118 99q49 43 80.5 75t59.5 80.5t28 94.5q0 123 -99 123q-79 0 -129 -124l-40 15q16 67 71.5 121t126.5 54q79 0 119 -43t40 -124q0 -39 -15.5 -77t-45 -73.5t-55 -60.5t-64.5 -58.5t-54 -47.5l-46 -36h234l46 84l34 -5zM321 1186v-520l133 -16l-5 -40
h-353l3 36l138 23v442h-131l3 38l199 37h13zM995 1167l98 10l-835 -1203l-102 -10z" />
    <glyph glyph-name="threequarters" unicode="&#xbe;" horiz-adv-x="1219" 
d="M148 710q3 -19 32 -47t60 -28q116 0 116 116q0 46 -42 85.5t-106 39.5h-8l-5 32q12 4 30.5 13t45 26t44.5 44t18 57q0 36 -20 60t-64 24q-67 0 -97 -74l-36 13q8 44 55 84.5t108 40.5q57 0 99 -35t42 -87q0 -55 -32.5 -92t-82.5 -56v-5q63 -9 100 -50t37 -91
q0 -79 -66 -133.5t-162 -54.5q-59 0 -93 21t-34 47q0 19 16 33t45 17zM925 -6v180h-237l-11 36l300 371l32 -9q-4 -77 -4 -240v-99h124l-8 -61h-116v-165zM923 233v209l-164 -209h164zM1005 1167l98 10l-835 -1203l-102 -10z" />
    <glyph glyph-name="questiondown" unicode="&#xbf;" horiz-adv-x="815" 
d="M742 -307q0 -27 -11 -53.5t-36 -52.5t-74.5 -42.5t-117.5 -16.5q-71 0 -145 38.5t-135 105t-99.5 166t-38.5 210.5q0 59 19.5 105t50 75t68 52.5t75 42.5t68 39t50 49t19.5 65q0 65 -26 152l90 20q33 -49 63.5 -124.5t30.5 -140.5q0 -55 -20.5 -96t-53.5 -65.5t-72.5 -44
t-79.5 -38t-73 -40.5t-53.5 -59.5t-20.5 -87.5q0 -79 69.5 -145t129.5 -66q70 0 132.5 22.5t100.5 63.5q34 -14 62 -51t28 -83zM304 984q0 64 45 109t108 45t106.5 -45.5t43.5 -110.5q0 -61 -44.5 -102t-105.5 -41q-62 0 -107.5 42t-45.5 103z" />
    <glyph glyph-name="Agrave" unicode="&#xc0;" horiz-adv-x="1487" 
d="M516 2024l140 46l161 -406l-70 -42zM849 1542l473 -1391l167 -53l-10 -98h-626l14 90l208 67l-132 369h-510l-137 -375l227 -53l-14 -98h-570l12 90l181 67l532 1347zM479 649h428l-203 608z" />
    <glyph glyph-name="Aacute" unicode="&#xc1;" horiz-adv-x="1487" 
d="M991 2032l-223 -386l-62 39l149 395zM849 1542l473 -1391l167 -53l-10 -98h-626l14 90l208 67l-132 369h-510l-137 -375l227 -53l-14 -98h-570l12 90l181 67l532 1347zM479 649h428l-203 608z" />
    <glyph glyph-name="Acircumflex" unicode="&#xc2;" horiz-adv-x="1487" 
d="M795 1928l216 -225l-60 -45l-199 133h-12l-170 -135l-46 37l204 218zM849 1542l473 -1391l167 -53l-10 -98h-626l14 90l208 67l-132 369h-510l-137 -375l227 -53l-14 -98h-570l12 90l181 67l532 1347zM479 649h428l-203 608z" />
    <glyph glyph-name="Atilde" unicode="&#xc3;" horiz-adv-x="1487" 
d="M480 1683q2 7 5 18.5t16 41.5t28.5 53t42 41.5t56.5 18.5q11 0 16 -1l271 -36h5q14 0 31 12.5t27 24.5l10 13l58 -2q-2 -7 -5.5 -19t-17.5 -42t-30.5 -53t-44.5 -42t-60 -19q-10 0 -15 1l-271 38h-3q-16 0 -34 -14.5t-28 -28.5l-11 -15zM849 1542l473 -1391l167 -53
l-10 -98h-626l14 90l208 67l-132 369h-510l-137 -375l227 -53l-14 -98h-570l12 90l181 67l532 1347zM479 649h428l-203 608z" />
    <glyph glyph-name="Adieresis" unicode="&#xc4;" horiz-adv-x="1487" 
d="M925 1861q42 0 74.5 -26.5t32.5 -67.5q0 -43 -32 -70.5t-75 -27.5q-41 0 -71.5 27.5t-30.5 70.5q0 42 31 68t71 26zM600 1861q42 0 73 -26.5t31 -67.5q0 -43 -31 -70.5t-73 -27.5q-41 0 -71.5 27.5t-30.5 70.5q0 42 31 68t71 26zM849 1542l473 -1391l167 -53l-10 -98
h-626l14 90l208 67l-132 369h-510l-137 -375l227 -53l-14 -98h-570l12 90l181 67l532 1347zM479 649h428l-203 608z" />
    <glyph glyph-name="Aring" unicode="&#xc5;" horiz-adv-x="1487" 
d="M760 2014q-51 0 -77.5 -40.5t-26.5 -96.5q0 -61 30.5 -108.5t85.5 -47.5q50 0 77.5 36t27.5 102q0 62 -31.5 108.5t-85.5 46.5zM774 2072q86 0 137.5 -55t51.5 -142q0 -86 -57.5 -149.5t-147.5 -63.5q-85 0 -136.5 54.5t-51.5 146.5q0 85 59.5 147t144.5 62zM849 1542
l473 -1391l167 -53l-10 -98h-626l14 90l208 67l-132 369h-510l-137 -375l227 -53l-14 -98h-570l12 90l181 67l532 1347zM479 649h428l-203 608z" />
    <glyph glyph-name="AE" unicode="&#xc6;" horiz-adv-x="2049" 
d="M979 1287l-375 -596h373zM977 574h-438l-263 -421l227 -53l-14 -98h-554l12 90l165 67l867 1353h944l-38 -384l-105 16l-50 257h-532v-574h313l52 149l115 8l-40 -468l-105 -18l-40 215h-295v-597h564l121 284l98 -19l-36 -381h-580h-536h-65l10 90l199 57h4v427z" />
    <glyph glyph-name="Ccedilla" unicode="&#xc7;" horiz-adv-x="1448" 
d="M880 -92q108 -94 108 -183q0 -127 -243 -199l-24 72q50 17 77.5 45t27.5 56q0 49 -89 134l95 137h-14q-142 0 -270 49.5t-229 141t-160.5 236t-59.5 320.5q0 79 14 159t44.5 162t74.5 155.5t108.5 138t142.5 111.5t180.5 74t218.5 27q279 0 440 -122l-38 -404l-107 16
l-50 267q-99 127 -315 127q-195 0 -323.5 -170t-128.5 -457q0 -158 45.5 -287t122.5 -210.5t175.5 -125t208.5 -43.5q115 0 227 51.5t197 130.5l44 -92q-69 -83 -189 -153.5t-262 -92.5z" />
    <glyph glyph-name="Egrave" unicode="&#xc8;" horiz-adv-x="1428" 
d="M559 2024l140 46l161 -406l-70 -42zM93 1512h1211l-38 -388l-105 16l-50 261h-574v-578h353l52 145l115 16l-40 -472l-105 -16l-40 213h-335v-593h604l119 280l100 -15l-36 -381h-1235l10 90l203 57v1222l-221 51z" />
    <glyph glyph-name="Eacute" unicode="&#xc9;" horiz-adv-x="1428" 
d="M934 2032l-223 -386l-62 39l149 395zM93 1512h1211l-38 -388l-105 16l-50 261h-574v-578h353l52 145l115 16l-40 -472l-105 -16l-40 213h-335v-593h604l119 280l100 -15l-36 -381h-1235l10 90l203 57v1222l-221 51z" />
    <glyph glyph-name="Ecircumflex" unicode="&#xca;" horiz-adv-x="1428" 
d="M778 1928l216 -225l-60 -45l-199 133h-12l-170 -135l-46 37l204 218zM93 1512h1211l-38 -388l-105 16l-50 261h-574v-578h353l52 145l115 16l-40 -472l-105 -16l-40 213h-335v-593h604l119 280l100 -15l-36 -381h-1235l10 90l203 57v1222l-221 51z" />
    <glyph glyph-name="Edieresis" unicode="&#xcb;" horiz-adv-x="1428" 
d="M908 1861q42 0 74.5 -26.5t32.5 -67.5q0 -43 -32 -70.5t-75 -27.5q-41 0 -71.5 27.5t-30.5 70.5q0 42 31 68t71 26zM583 1861q42 0 73 -26.5t31 -67.5q0 -43 -31 -70.5t-73 -27.5q-41 0 -71.5 27.5t-30.5 70.5q0 42 31 68t71 26zM93 1512h1211l-38 -388l-105 16l-50 261
h-574v-578h353l52 145l115 16l-40 -472l-105 -16l-40 213h-335v-593h604l119 280l100 -15l-36 -381h-1235l10 90l203 57v1222l-221 51z" />
    <glyph glyph-name="Igrave" unicode="&#xcc;" horiz-adv-x="840" 
d="M182 2024l140 46l161 -406l-70 -42zM746 0h-657l10 90l203 57v1222l-221 51l12 92h663l-12 -92l-207 -47v-1234l221 -41z" />
    <glyph glyph-name="Iacute" unicode="&#xcd;" horiz-adv-x="840" 
d="M657 2032l-223 -386l-62 39l149 395zM746 0h-657l10 90l203 57v1222l-221 51l12 92h663l-12 -92l-207 -47v-1234l221 -41z" />
    <glyph glyph-name="Icircumflex" unicode="&#xce;" horiz-adv-x="840" 
d="M451 1928l216 -225l-60 -45l-199 133h-12l-170 -135l-46 37l204 218zM746 0h-657l10 90l203 57v1222l-221 51l12 92h663l-12 -92l-207 -47v-1234l221 -41z" />
    <glyph glyph-name="Idieresis" unicode="&#xcf;" horiz-adv-x="840" 
d="M581 1861q42 0 74.5 -26.5t32.5 -67.5q0 -43 -32 -70.5t-75 -27.5q-41 0 -71.5 27.5t-30.5 70.5q0 42 31 68t71 26zM256 1861q42 0 73 -26.5t31 -67.5q0 -43 -31 -70.5t-73 -27.5q-41 0 -71.5 27.5t-30.5 70.5q0 42 31 68t71 26zM746 0h-657l10 90l203 57v1222l-221 51
l12 92h663l-12 -92l-207 -47v-1234l221 -41z" />
    <glyph glyph-name="Eth" unicode="&#xd0;" horiz-adv-x="1718" 
d="M1621 801q0 -120 -37.5 -235.5t-114.5 -218t-185 -180t-258.5 -122.5t-325.5 -45h-623l16 90l209 67v536l-219 -18l14 112l205 16v540l-209 36l10 93q377 60 625 60q199 0 354.5 -40.5t255.5 -108.5t165 -163.5t91.5 -198t26.5 -220.5zM535 707v-581h257
q145 0 256.5 49.5t178 135t100 191t33.5 225.5q0 142 -42.5 264t-125 215.5t-213 147t-296.5 53.5q-81 0 -148 -8v-582l313 26l-14 -112z" />
    <glyph glyph-name="Ntilde" unicode="&#xd1;" horiz-adv-x="1728" 
d="M562 1683q2 7 5 18.5t16 41.5t28.5 53t42 41.5t56.5 18.5q11 0 16 -1l271 -36h5q14 0 31 12.5t27 24.5l10 13l58 -2q-2 -7 -5.5 -19t-17.5 -42t-30.5 -53t-44.5 -42t-60 -19q-10 0 -15 1l-271 38h-3q-16 -1 -34 -15q-19 -14 -29 -28l-10 -15zM1265 -36l-807 1205v-1030
l222 -41l-12 -98h-578l10 90l203 57v1212l-221 61l12 92h428l781 -1181v1038l-225 51l14 92h578l-16 -92l-203 -47v-1371z" />
    <glyph glyph-name="Ograve" unicode="&#xd2;" horiz-adv-x="1684" 
d="M666 2024l140 46l161 -406l-70 -42zM826 1430q-456 0 -456 -607q0 -110 17 -212.5t55 -197t93.5 -164.5t139 -111.5t185.5 -41.5q107 0 189 35t131.5 91t81 136.5t43 162t11.5 176.5q0 107 -17 209t-55.5 198t-94 167.5t-139 115t-184.5 43.5zM1587 753
q0 -159 -52.5 -300t-150 -249.5t-249 -172t-335.5 -63.5q-205 0 -366.5 104.5t-248 283t-86.5 397.5q0 233 94.5 413t273.5 281t417 101q129 0 241.5 -41.5t196.5 -115.5t144 -174t90.5 -218t30.5 -246z" />
    <glyph glyph-name="Oacute" unicode="&#xd3;" horiz-adv-x="1684" 
d="M1041 2032l-223 -386l-62 39l149 395zM826 1430q-456 0 -456 -607q0 -110 17 -212.5t55 -197t93.5 -164.5t139 -111.5t185.5 -41.5q107 0 189 35t131.5 91t81 136.5t43 162t11.5 176.5q0 107 -17 209t-55.5 198t-94 167.5t-139 115t-184.5 43.5zM1587 753
q0 -159 -52.5 -300t-150 -249.5t-249 -172t-335.5 -63.5q-205 0 -366.5 104.5t-248 283t-86.5 397.5q0 233 94.5 413t273.5 281t417 101q129 0 241.5 -41.5t196.5 -115.5t144 -174t90.5 -218t30.5 -246z" />
    <glyph glyph-name="Ocircumflex" unicode="&#xd4;" horiz-adv-x="1684" 
d="M885 1928l216 -225l-60 -45l-199 133h-12l-170 -135l-46 37l204 218zM826 1430q-456 0 -456 -607q0 -110 17 -212.5t55 -197t93.5 -164.5t139 -111.5t185.5 -41.5q107 0 189 35t131.5 91t81 136.5t43 162t11.5 176.5q0 107 -17 209t-55.5 198t-94 167.5t-139 115
t-184.5 43.5zM1587 753q0 -159 -52.5 -300t-150 -249.5t-249 -172t-335.5 -63.5q-205 0 -366.5 104.5t-248 283t-86.5 397.5q0 233 94.5 413t273.5 281t417 101q129 0 241.5 -41.5t196.5 -115.5t144 -174t90.5 -218t30.5 -246z" />
    <glyph glyph-name="Otilde" unicode="&#xd5;" horiz-adv-x="1684" 
d="M569 1683q2 7 5 18.5t16 41.5t28.5 53t42 41.5t56.5 18.5q11 0 16 -1l271 -36h5q14 0 31 12.5t27 24.5l10 13l58 -2q-2 -7 -5.5 -19t-17.5 -42t-30.5 -53t-44.5 -42t-60 -19q-10 0 -15 1l-271 38h-3q-16 -1 -34 -15q-19 -14 -29 -28l-10 -15zM826 1430q-456 0 -456 -607
q0 -110 17 -212.5t55 -197t93.5 -164.5t139 -111.5t185.5 -41.5q107 0 189 35t131.5 91t81 136.5t43 162t11.5 176.5q0 107 -17 209t-55.5 198t-94 167.5t-139 115t-184.5 43.5zM1587 753q0 -159 -52.5 -300t-150 -249.5t-249 -172t-335.5 -63.5q-205 0 -366.5 104.5
t-248 283t-86.5 397.5q0 233 94.5 413t273.5 281t417 101q129 0 241.5 -41.5t196.5 -115.5t144 -174t90.5 -218t30.5 -246z" />
    <glyph glyph-name="Odieresis" unicode="&#xd6;" horiz-adv-x="1684" 
d="M1015 1861q42 0 74.5 -26.5t32.5 -67.5q0 -43 -32 -70.5t-75 -27.5q-41 0 -71.5 27.5t-30.5 70.5q0 42 31 68t71 26zM690 1861q42 0 73 -26.5t31 -67.5q0 -43 -31 -70.5t-73 -27.5q-41 0 -71.5 27.5t-30.5 70.5q0 42 31 68t71 26zM826 1430q-456 0 -456 -607
q0 -110 17 -212.5t55 -197t93.5 -164.5t139 -111.5t185.5 -41.5q107 0 189 35t131.5 91t81 136.5t43 162t11.5 176.5q0 107 -17 209t-55.5 198t-94 167.5t-139 115t-184.5 43.5zM1587 753q0 -159 -52.5 -300t-150 -249.5t-249 -172t-335.5 -63.5q-205 0 -366.5 104.5
t-248 283t-86.5 397.5q0 233 94.5 413t273.5 281t417 101q129 0 241.5 -41.5t196.5 -115.5t144 -174t90.5 -218t30.5 -246z" />
    <glyph glyph-name="multiply" unicode="&#xd7;" horiz-adv-x="792" 
d="M391 472l-200 -195l-81 100l189 185l-189 191l101 80l186 -186l201 194l80 -102l-190 -183l192 -195l-100 -80z" />
    <glyph glyph-name="Oslash" unicode="&#xd8;" horiz-adv-x="1710" 
d="M1075 1358l-351 -1236q69 -26 150 -26q90 0 163 23.5t123.5 67t87 99t57.5 125t30.5 139.5t9.5 147q0 205 -69 387.5t-201 273.5zM840 1430q-106 0 -188.5 -33t-135 -88.5t-86.5 -135t-47.5 -165t-13.5 -185.5q0 -199 61 -371.5t181 -266.5l347 1229q-58 16 -118 16z
M1616 753q0 -158 -55 -300t-155.5 -250t-253.5 -171.5t-338 -63.5q-66 0 -123 10l-69 -234l-157 -10l83 285q-206 84 -328 282.5t-122 451.5q0 232 98.5 412.5t280.5 281.5t421 101q41 0 88 -5l39 135l161 10l-52 -179q148 -52 258 -165.5t167 -266t57 -324.5z" />
    <glyph glyph-name="Ugrave" unicode="&#xd9;" horiz-adv-x="1724" 
d="M713 2024l140 46l161 -406l-70 -42zM917 129q189 0 292 112.5t104 344.5l2 783l-221 51l12 92h582l-14 -92l-202 -47l-6 -747q-3 -333 -149.5 -495.5t-459.5 -162.5q-93 0 -170.5 13t-159.5 52t-138 103.5t-92 175t-36 258.5v799l-225 51l16 92h659l-12 -92l-205 -47
v-753q0 -250 113.5 -370.5t309.5 -120.5z" />
    <glyph glyph-name="Uacute" unicode="&#xda;" horiz-adv-x="1724" 
d="M1088 2032l-223 -386l-62 39l149 395zM917 129q189 0 292 112.5t104 344.5l2 783l-221 51l12 92h582l-14 -92l-202 -47l-6 -747q-3 -333 -149.5 -495.5t-459.5 -162.5q-93 0 -170.5 13t-159.5 52t-138 103.5t-92 175t-36 258.5v799l-225 51l16 92h659l-12 -92l-205 -47
v-753q0 -250 113.5 -370.5t309.5 -120.5z" />
    <glyph glyph-name="Ucircumflex" unicode="&#xdb;" horiz-adv-x="1724" 
d="M932 1928l216 -225l-60 -45l-199 133h-12l-170 -135l-46 37l204 218zM917 129q189 0 292 112.5t104 344.5l2 783l-221 51l12 92h582l-14 -92l-202 -47l-6 -747q-3 -333 -149.5 -495.5t-459.5 -162.5q-93 0 -170.5 13t-159.5 52t-138 103.5t-92 175t-36 258.5v799l-225 51
l16 92h659l-12 -92l-205 -47v-753q0 -250 113.5 -370.5t309.5 -120.5z" />
    <glyph glyph-name="Udieresis" unicode="&#xdc;" horiz-adv-x="1724" 
d="M1062 1861q42 0 74.5 -26.5t32.5 -67.5q0 -43 -32 -70.5t-75 -27.5q-41 0 -71.5 27.5t-30.5 70.5q0 42 31 68t71 26zM737 1861q42 0 73 -26.5t31 -67.5q0 -43 -31 -70.5t-73 -27.5q-41 0 -71.5 27.5t-30.5 70.5q0 42 31 68t71 26zM917 129q189 0 292 112.5t104 344.5
l2 783l-221 51l12 92h582l-14 -92l-202 -47l-6 -747q-3 -333 -149.5 -495.5t-459.5 -162.5q-93 0 -170.5 13t-159.5 52t-138 103.5t-92 175t-36 258.5v799l-225 51l16 92h659l-12 -92l-205 -47v-753q0 -250 113.5 -370.5t309.5 -120.5z" />
    <glyph glyph-name="Yacute" unicode="&#xdd;" horiz-adv-x="1354" 
d="M895 2032l-223 -386l-62 39l149 395zM798 643v-504l199 -41l-12 -98h-616l12 90l182 57v467l-429 755l-167 51l16 92h617l-14 -92l-193 -47l337 -594l321 590l-222 51l12 92h540l-12 -92l-151 -47z" />
    <glyph glyph-name="Thorn" unicode="&#xde;" horiz-adv-x="1357" 
d="M303 145v1224l-221 51l12 92h661l-12 -92l-207 -47v-132q100 4 150 4q609 0 609 -442q0 -141 -73.5 -253.5t-196.5 -173.5t-270 -61q-74 0 -141 8q-20 60 -20 103q14 -1 21 -1t20.5 0.5t20.5 0.5q388 0 388 333q0 165 -95 266t-285 101l-128 -8v-971l287 -47l-16 -102
h-721l12 90z" />
    <glyph glyph-name="germandbls" unicode="&#xdf;" horiz-adv-x="1383" 
d="M460 0h-404l14 88l185 53v813h-177l12 78l167 28q9 136 71 255.5t172.5 196t244.5 76.5q145 0 234 -88t89 -219q0 -66 -27 -123.5t-65 -97t-76.5 -75.5t-65.5 -75t-27 -79q0 -42 30 -79t77.5 -66t105 -58t115 -63t105 -73.5t77.5 -96t30 -124.5q0 -131 -113.5 -220
t-259.5 -89q-157 0 -255.5 62.5t-98.5 148.5q0 74 44.5 115.5t114.5 46.5q28 -115 94.5 -184t138.5 -69q74 0 116.5 26t42.5 95q0 34 -28.5 66t-74.5 59.5t-101.5 57t-111 64.5t-101.5 75.5t-74.5 98t-28.5 123.5q0 62 23.5 116t57 94t67 77.5t57 82.5t23.5 92
q0 108 -60.5 177.5t-161.5 69.5q-97 0 -148 -82t-51 -268z" />
    <glyph glyph-name="agrave" unicode="&#xe0;" horiz-adv-x="1032" 
d="M328 1576l140 46l161 -406l-70 -42zM637 520q-189 -37 -268.5 -101.5t-79.5 -157.5q0 -52 37 -96.5t100 -44.5q57 0 116 34t95 75v291zM849 -22q-96 0 -142 49.5t-46 113.5v18h-14q-14 -28 -38.5 -57t-64 -60.5t-99.5 -51.5t-130 -20q-101 0 -170 63.5t-69 171.5
q0 69 32.5 132t98 116.5t176 90t254.5 46.5v67q0 66 -10 120.5t-33.5 101.5t-67 73t-104.5 26q-38 0 -62.5 -15t-37 -47.5t-19 -67.5t-12.5 -90q-2 -26 -4 -39q-25 0 -43 1.5t-43.5 8.5t-42 19.5t-28.5 37.5t-12 59q0 63 69 123t165.5 94t181.5 34q161 0 231 -90t70 -285
v-442q0 -85 25.5 -117t109.5 -46l60 -10l-14 -104q-20 -3 -50 -9.5t-57.5 -10.5t-59.5 -4z" />
    <glyph glyph-name="aacute" unicode="&#xe1;" horiz-adv-x="1032" 
d="M703 1584l-223 -386l-62 39l149 395zM637 520q-189 -37 -268.5 -101.5t-79.5 -157.5q0 -52 37 -96.5t100 -44.5q57 0 116 34t95 75v291zM849 -22q-96 0 -142 49.5t-46 113.5v18h-14q-14 -28 -38.5 -57t-64 -60.5t-99.5 -51.5t-130 -20q-101 0 -170 63.5t-69 171.5
q0 69 32.5 132t98 116.5t176 90t254.5 46.5v67q0 66 -10 120.5t-33.5 101.5t-67 73t-104.5 26q-38 0 -62.5 -15t-37 -47.5t-19 -67.5t-12.5 -90q-2 -26 -4 -39q-25 0 -43 1.5t-43.5 8.5t-42 19.5t-28.5 37.5t-12 59q0 63 69 123t165.5 94t181.5 34q161 0 231 -90t70 -285
v-442q0 -85 25.5 -117t109.5 -46l60 -10l-14 -104q-20 -3 -50 -9.5t-57.5 -10.5t-59.5 -4z" />
    <glyph glyph-name="acircumflex" unicode="&#xe2;" horiz-adv-x="1032" 
d="M547 1480l216 -225l-60 -45l-199 133h-12l-170 -135l-46 37l204 218zM637 520q-189 -37 -268.5 -101.5t-79.5 -157.5q0 -52 37 -96.5t100 -44.5q57 0 116 34t95 75v291zM849 -22q-96 0 -142 49.5t-46 113.5v18h-14q-14 -28 -38.5 -57t-64 -60.5t-99.5 -51.5t-130 -20
q-101 0 -170 63.5t-69 171.5q0 69 32.5 132t98 116.5t176 90t254.5 46.5v67q0 66 -10 120.5t-33.5 101.5t-67 73t-104.5 26q-38 0 -62.5 -15t-37 -47.5t-19 -67.5t-12.5 -90q-2 -26 -4 -39q-25 0 -43 1.5t-43.5 8.5t-42 19.5t-28.5 37.5t-12 59q0 63 69 123t165.5 94
t181.5 34q161 0 231 -90t70 -285v-442q0 -85 25.5 -117t109.5 -46l60 -10l-14 -104q-20 -3 -50 -9.5t-57.5 -10.5t-59.5 -4z" />
    <glyph glyph-name="atilde" unicode="&#xe3;" horiz-adv-x="1032" 
d="M231 1235q2 7 5 18.5t16 41.5t28.5 53t42 41.5t56.5 18.5q11 0 16 -1l271 -36h5q14 0 31 12.5t27 24.5l10 13l58 -2q-2 -7 -5.5 -19t-17.5 -42t-30.5 -53t-44.5 -42t-60 -19q-10 0 -15 1l-271 38h-3q-16 0 -34 -14.5t-28 -28.5l-11 -15zM637 520q-189 -37 -268.5 -101.5
t-79.5 -157.5q0 -52 37 -96.5t100 -44.5q57 0 116 34t95 75v291zM849 -22q-96 0 -142 49.5t-46 113.5v18h-14q-14 -28 -38.5 -57t-64 -60.5t-99.5 -51.5t-130 -20q-101 0 -170 63.5t-69 171.5q0 69 32.5 132t98 116.5t176 90t254.5 46.5v67q0 66 -10 120.5t-33.5 101.5
t-67 73t-104.5 26q-38 0 -62.5 -15t-37 -47.5t-19 -67.5t-12.5 -90q-2 -26 -4 -39q-25 0 -43 1.5t-43.5 8.5t-42 19.5t-28.5 37.5t-12 59q0 63 69 123t165.5 94t181.5 34q161 0 231 -90t70 -285v-442q0 -85 25.5 -117t109.5 -46l60 -10l-14 -104q-20 -3 -50 -9.5
t-57.5 -10.5t-59.5 -4z" />
    <glyph glyph-name="adieresis" unicode="&#xe4;" horiz-adv-x="1032" 
d="M676 1413q42 0 74.5 -26.5t32.5 -67.5q0 -43 -32 -70.5t-75 -27.5q-41 0 -71.5 27.5t-30.5 70.5q0 42 31 68t71 26zM351 1413q42 0 73 -26.5t31 -67.5q0 -43 -31 -70.5t-73 -27.5q-41 0 -71.5 27.5t-30.5 70.5q0 42 31 68t71 26zM637 520q-189 -37 -268.5 -101.5
t-79.5 -157.5q0 -52 37 -96.5t100 -44.5q57 0 116 34t95 75v291zM849 -22q-96 0 -142 49.5t-46 113.5v18h-14q-14 -28 -38.5 -57t-64 -60.5t-99.5 -51.5t-130 -20q-101 0 -170 63.5t-69 171.5q0 69 32.5 132t98 116.5t176 90t254.5 46.5v67q0 66 -10 120.5t-33.5 101.5
t-67 73t-104.5 26q-38 0 -62.5 -15t-37 -47.5t-19 -67.5t-12.5 -90q-2 -26 -4 -39q-25 0 -43 1.5t-43.5 8.5t-42 19.5t-28.5 37.5t-12 59q0 63 69 123t165.5 94t181.5 34q161 0 231 -90t70 -285v-442q0 -85 25.5 -117t109.5 -46l60 -10l-14 -104q-20 -3 -50 -9.5
t-57.5 -10.5t-59.5 -4z" />
    <glyph glyph-name="aring" unicode="&#xe5;" horiz-adv-x="1032" 
d="M637 520q-189 -37 -268.5 -101.5t-79.5 -157.5q0 -52 37 -96.5t100 -44.5q57 0 116 34t95 75v291zM849 -22q-96 0 -142 49.5t-46 113.5v18h-14q-14 -28 -38.5 -57t-64 -60.5t-99.5 -51.5t-130 -20q-101 0 -170 63.5t-69 171.5q0 69 32.5 132t98 116.5t176 90t254.5 46.5
v67q0 66 -10 120.5t-33.5 101.5t-67 73t-104.5 26q-38 0 -62.5 -15t-37 -47.5t-19 -67.5t-12.5 -90q-2 -26 -4 -39q-25 0 -43 1.5t-43.5 8.5t-42 19.5t-28.5 37.5t-12 59q0 63 69 123t165.5 94t181.5 34q161 0 231 -90t70 -285v-442q0 -85 25.5 -117t109.5 -46l60 -10
l-14 -104q-20 -3 -50 -9.5t-57.5 -10.5t-59.5 -4zM486 1570q-51 0 -77.5 -40.5t-26.5 -96.5q0 -61 30.5 -108.5t85.5 -47.5q50 0 77.5 36t27.5 102q0 62 -31.5 108.5t-85.5 46.5zM500 1628q86 0 137.5 -55t51.5 -142q0 -86 -57.5 -149.5t-147.5 -63.5q-85 0 -136.5 54.5
t-51.5 146.5q0 85 59.5 147t144.5 62z" />
    <glyph glyph-name="ae" unicode="&#xe6;" horiz-adv-x="1547" 
d="M635 498q-111 -17 -182.5 -42t-106.5 -59t-47 -68t-12 -82q0 -145 137 -145q76 0 143.5 59.5t67.5 133.5v203zM833 616l382 45q10 33 10 86q0 227 -171 227q-80 0 -146.5 -95.5t-74.5 -262.5zM691 213q-39 -117 -141.5 -180t-236.5 -63q-103 0 -171 57t-68 164
q0 56 16 102.5t55 91t102 80.5t160.5 67.5t227.5 55.5v69q0 317 -201 317q-22 0 -39 -3t-30 -13t-22.5 -18t-17 -27.5t-12 -32t-9 -42t-6.5 -45.5t-7 -54q-24 0 -42 1.5t-43.5 8.5t-41.5 19.5t-27.5 37.5t-11.5 59q0 63 67 118t160 84t180 29q102 0 160.5 -37.5t84.5 -114.5
q71 71 160 109.5t177 38.5q140 0 233 -100t93 -285q0 -73 -22 -165l-585 -24q3 -59 17 -116.5t41.5 -111.5t65 -95t93 -66t121.5 -25q67 0 126 17.5t151 67.5l24 -63q-73 -76 -177 -119t-223 -43q-107 0 -204 52.5t-161 152.5q-10 16 -16 44z" />
    <glyph glyph-name="ccedilla" unicode="&#xe7;" horiz-adv-x="987" 
d="M582 -92q108 -94 108 -183q0 -127 -243 -199l-24 72q50 17 77.5 45t27.5 56q0 49 -89 134l92 132q-133 9 -235.5 86t-156 196t-53.5 259q0 131 43.5 243.5t116 186.5t165 116t191.5 42q144 0 218.5 -54t74.5 -132q0 -55 -39.5 -88t-114.5 -39q-16 38 -31 67t-39.5 62
t-56.5 51.5t-70 18.5q-109 0 -174 -99.5t-65 -264.5q0 -63 13 -130.5t41.5 -135.5t69.5 -121t102.5 -86.5t134.5 -33.5q56 0 105.5 13t76 26t64.5 37l30 -71q-43 -53 -131.5 -95t-187.5 -52z" />
    <glyph glyph-name="egrave" unicode="&#xe8;" horiz-adv-x="1019" 
d="M358 1576l140 46l161 -406l-70 -42zM891 548l-588 -6q4 -75 26 -146.5t61.5 -133.5t105 -100t146.5 -38h7q52 0 81.5 2.5t79.5 18t108 46.5l26 -65q-73 -76 -177 -119t-223 -43q-88 0 -168.5 36t-146 103t-104.5 175.5t-39 241.5q0 132 45 242.5t117.5 181t160 109.5
t177.5 39q140 0 233 -100t93 -285q0 -71 -21 -159zM305 637l382 26q8 27 8 84q0 227 -169 227q-82 0 -147.5 -86t-73.5 -251z" />
    <glyph glyph-name="eacute" unicode="&#xe9;" horiz-adv-x="1019" 
d="M733 1584l-223 -386l-62 39l149 395zM891 548l-588 -6q4 -75 26 -146.5t61.5 -133.5t105 -100t146.5 -38h7q52 0 81.5 2.5t79.5 18t108 46.5l26 -65q-73 -76 -177 -119t-223 -43q-88 0 -168.5 36t-146 103t-104.5 175.5t-39 241.5q0 132 45 242.5t117.5 181t160 109.5
t177.5 39q140 0 233 -100t93 -285q0 -71 -21 -159zM305 637l382 26q8 27 8 84q0 227 -169 227q-82 0 -147.5 -86t-73.5 -251z" />
    <glyph glyph-name="ecircumflex" unicode="&#xea;" horiz-adv-x="1019" 
d="M577 1480l216 -225l-60 -45l-199 133h-12l-170 -135l-46 37l204 218zM891 548l-588 -6q4 -75 26 -146.5t61.5 -133.5t105 -100t146.5 -38h7q52 0 81.5 2.5t79.5 18t108 46.5l26 -65q-73 -76 -177 -119t-223 -43q-88 0 -168.5 36t-146 103t-104.5 175.5t-39 241.5
q0 132 45 242.5t117.5 181t160 109.5t177.5 39q140 0 233 -100t93 -285q0 -71 -21 -159zM305 637l382 26q8 27 8 84q0 227 -169 227q-82 0 -147.5 -86t-73.5 -251z" />
    <glyph glyph-name="edieresis" unicode="&#xeb;" horiz-adv-x="1019" 
d="M706 1413q42 0 74.5 -26.5t32.5 -67.5q0 -43 -32 -70.5t-75 -27.5q-41 0 -71.5 27.5t-30.5 70.5q0 42 31 68t71 26zM381 1413q42 0 73 -26.5t31 -67.5q0 -43 -31 -70.5t-73 -27.5q-41 0 -71.5 27.5t-30.5 70.5q0 42 31 68t71 26zM891 548l-588 -6q4 -75 26 -146.5
t61.5 -133.5t105 -100t146.5 -38h7q52 0 81.5 2.5t79.5 18t108 46.5l26 -65q-73 -76 -177 -119t-223 -43q-88 0 -168.5 36t-146 103t-104.5 175.5t-39 241.5q0 132 45 242.5t117.5 181t160 109.5t177.5 39q140 0 233 -100t93 -285q0 -71 -21 -159zM305 637l382 26q8 27 8 84
q0 227 -169 227q-82 0 -147.5 -86t-73.5 -251z" />
    <glyph glyph-name="igrave" unicode="&#xec;" horiz-adv-x="678" 
d="M129 1606l140 46l161 -406l-70 -42zM74 96l185 45v748l-185 67l16 92l342 28l30 -30v-905l195 -43l-14 -98h-583z" />
    <glyph glyph-name="iacute" unicode="&#xed;" horiz-adv-x="678" 
d="M534 1614l-223 -386l-62 39l149 395zM74 96l185 45v748l-185 67l16 92l342 28l30 -30v-905l195 -43l-14 -98h-583z" />
    <glyph glyph-name="icircumflex" unicode="&#xee;" horiz-adv-x="678" 
d="M378 1510l216 -225l-60 -45l-199 133h-12l-170 -135l-46 37l204 218zM74 96l185 45v748l-185 67l16 92l342 28l30 -30v-905l195 -43l-14 -98h-583z" />
    <glyph glyph-name="idieresis" unicode="&#xef;" horiz-adv-x="678" 
d="M508 1443q42 0 74.5 -26.5t32.5 -67.5q0 -43 -32 -70.5t-75 -27.5q-41 0 -71.5 27.5t-30.5 70.5q0 42 31 68t71 26zM183 1443q42 0 73 -26.5t31 -67.5q0 -43 -31 -70.5t-73 -27.5q-41 0 -71.5 27.5t-30.5 70.5q0 42 31 68t71 26zM74 96l185 45v748l-185 67l16 92l342 28
l30 -30v-905l195 -43l-14 -98h-583z" />
    <glyph glyph-name="eth" unicode="&#xf0;" horiz-adv-x="1161" 
d="M1045 566q0 -137 -38.5 -251t-104 -189t-152.5 -116.5t-185 -41.5t-179 32t-136 87t-93 129.5t-55 157.5t-17 174q0 175 65.5 314.5t174.5 215t238 75.5q21 0 45.5 -5t53 -16t53 -34.5t37.5 -55.5l8 2q-28 90 -134 259l-262 -50l13 92l204 40q-89 127 -170 199h142
q89 -53 185 -160l183 36l-12 -93l-107 -22q243 -326 243 -779zM302 606q3 -244 82.5 -382t208.5 -138q69 0 117 29.5t74.5 88.5t38 134t11.5 178q0 138 -42.5 259.5t-108.5 192t-136 72.5h-8q-83 0 -137 -56t-77 -150.5t-23 -227.5z" />
    <glyph glyph-name="ntilde" unicode="&#xf1;" horiz-adv-x="1313" 
d="M384 1235q2 7 5 18.5t16 41.5t28.5 53t42 41.5t56.5 18.5q11 0 16 -1l271 -36h5q14 0 31 12.5t27 24.5l10 13l58 -2q-2 -7 -5.5 -19t-17.5 -42t-30.5 -53t-44.5 -42t-60 -19q-10 0 -15 1l-271 38h-3q-16 -1 -34 -15q-19 -14 -29 -28l-10 -15zM1116 749v-610l175 -43
l-12 -96h-548l14 88l167 51v562q0 113 -58 169t-153 56q-67 0 -130 -27.5t-109 -77.5v-682l180 -43l-16 -96h-564l12 88l183 51v738l-187 63l12 92l362 48l22 -24l-22 -154h12q68 82 164 136t203 54q142 0 217.5 -89.5t75.5 -253.5z" />
    <glyph glyph-name="ograve" unicode="&#xf2;" 
d="M404 1576l140 46l161 -406l-70 -42zM301 604q0 -99 18 -187.5t54.5 -164.5t101.5 -121t151 -45q81 0 140 53t85 130t26 167q0 96 -17.5 186t-53 170.5t-98.5 129t-146 48.5q-88 0 -148.5 -53t-86.5 -133t-26 -180zM1094 536q0 -166 -68.5 -296.5t-184.5 -201t-257 -70.5
q-234 0 -367 154t-133 396q0 134 44.5 245.5t119 183.5t169 111.5t197.5 39.5q222 0 351 -154t129 -408z" />
    <glyph glyph-name="oacute" unicode="&#xf3;" 
d="M779 1584l-223 -386l-62 39l149 395zM301 604q0 -99 18 -187.5t54.5 -164.5t101.5 -121t151 -45q81 0 140 53t85 130t26 167q0 96 -17.5 186t-53 170.5t-98.5 129t-146 48.5q-88 0 -148.5 -53t-86.5 -133t-26 -180zM1094 536q0 -166 -68.5 -296.5t-184.5 -201t-257 -70.5
q-234 0 -367 154t-133 396q0 134 44.5 245.5t119 183.5t169 111.5t197.5 39.5q222 0 351 -154t129 -408z" />
    <glyph glyph-name="ocircumflex" unicode="&#xf4;" 
d="M623 1480l216 -225l-60 -45l-199 133h-12l-170 -135l-46 37l204 218zM301 604q0 -99 18 -187.5t54.5 -164.5t101.5 -121t151 -45q81 0 140 53t85 130t26 167q0 96 -17.5 186t-53 170.5t-98.5 129t-146 48.5q-88 0 -148.5 -53t-86.5 -133t-26 -180zM1094 536
q0 -166 -68.5 -296.5t-184.5 -201t-257 -70.5q-234 0 -367 154t-133 396q0 134 44.5 245.5t119 183.5t169 111.5t197.5 39.5q222 0 351 -154t129 -408z" />
    <glyph glyph-name="otilde" unicode="&#xf5;" 
d="M308 1235q2 7 5 18.5t16 41.5t28.5 53t42 41.5t56.5 18.5q11 0 16 -1l271 -36h5q14 0 31 12.5t27 24.5l10 13l58 -2q-2 -7 -5.5 -19t-17.5 -42t-30.5 -53t-44.5 -42t-60 -19q-10 0 -15 1l-271 38h-3q-16 -1 -34 -15q-19 -14 -29 -28l-10 -15zM301 604q0 -99 18 -187.5
t54.5 -164.5t101.5 -121t151 -45q81 0 140 53t85 130t26 167q0 96 -17.5 186t-53 170.5t-98.5 129t-146 48.5q-88 0 -148.5 -53t-86.5 -133t-26 -180zM1094 536q0 -166 -68.5 -296.5t-184.5 -201t-257 -70.5q-234 0 -367 154t-133 396q0 134 44.5 245.5t119 183.5t169 111.5
t197.5 39.5q222 0 351 -154t129 -408z" />
    <glyph glyph-name="odieresis" unicode="&#xf6;" 
d="M753 1413q42 0 74.5 -26.5t32.5 -67.5q0 -43 -32 -70.5t-75 -27.5q-41 0 -71.5 27.5t-30.5 70.5q0 42 31 68t71 26zM428 1413q42 0 73 -26.5t31 -67.5q0 -43 -31 -70.5t-73 -27.5q-41 0 -71.5 27.5t-30.5 70.5q0 42 31 68t71 26zM301 604q0 -99 18 -187.5t54.5 -164.5
t101.5 -121t151 -45q81 0 140 53t85 130t26 167q0 96 -17.5 186t-53 170.5t-98.5 129t-146 48.5q-88 0 -148.5 -53t-86.5 -133t-26 -180zM1094 536q0 -166 -68.5 -296.5t-184.5 -201t-257 -70.5q-234 0 -367 154t-133 396q0 134 44.5 245.5t119 183.5t169 111.5t197.5 39.5
q222 0 351 -154t129 -408z" />
    <glyph glyph-name="divide" unicode="&#xf7;" 
d="M581 1098q61 0 104 -40t43 -98q0 -61 -43.5 -105t-103.5 -44t-102 44.5t-42 106.5q0 58 42.5 97t101.5 39zM581 414q60 0 103.5 -40.5t43.5 -98.5q0 -61 -43.5 -105t-103.5 -44t-102 44.5t-42 106.5q0 58 42.5 97.5t101.5 39.5zM103 681h988l-14 -129h-988z" />
    <glyph glyph-name="oslash" unicode="&#xf8;" 
d="M736 896l-221 -787q51 -23 111 -23q81 0 140 53t85 130t26 167q0 137 -35 262.5t-106 197.5zM637 958q-39 12 -75 12q-88 0 -148.5 -53t-86.5 -133t-26 -180q0 -127 29.5 -239.5t90.5 -183.5zM1094 536q0 -166 -68.5 -296.5t-184.5 -201t-257 -70.5q-52 0 -94 7
l-122 -425l-157 -10l139 479q-128 64 -197 195.5t-69 303.5q0 134 44.5 245.5t119 183.5t169 111.5t197.5 39.5q17 0 49 -2l113 388l161 10l-132 -432q137 -58 213 -196t76 -330z" />
    <glyph glyph-name="ugrave" unicode="&#xf9;" horiz-adv-x="1235" 
d="M424 1576l140 46l161 -406l-70 -42zM833 159h-14q-127 -187 -349 -187q-271 0 -271 353v560l-167 67l16 96l327 26l29 -30v-658q0 -247 188 -247q136 0 227 94v646l-195 51l12 110l358 34l26 -30v-783q0 -44 8 -72t29 -44t39 -22.5t56 -14.5l55 -12l-10 -102
q-93 -22 -185 -22q-88 0 -133.5 49t-45.5 128v10z" />
    <glyph glyph-name="uacute" unicode="&#xfa;" horiz-adv-x="1235" 
d="M799 1584l-223 -386l-62 39l149 395zM833 159h-14q-127 -187 -349 -187q-271 0 -271 353v560l-167 67l16 96l327 26l29 -30v-658q0 -247 188 -247q136 0 227 94v646l-195 51l12 110l358 34l26 -30v-783q0 -44 8 -72t29 -44t39 -22.5t56 -14.5l55 -12l-10 -102
q-93 -22 -185 -22q-88 0 -133.5 49t-45.5 128v10z" />
    <glyph glyph-name="ucircumflex" unicode="&#xfb;" horiz-adv-x="1235" 
d="M643 1480l216 -225l-60 -45l-199 133h-12l-170 -135l-46 37l204 218zM833 159h-14q-127 -187 -349 -187q-271 0 -271 353v560l-167 67l16 96l327 26l29 -30v-658q0 -247 188 -247q136 0 227 94v646l-195 51l12 110l358 34l26 -30v-783q0 -44 8 -72t29 -44t39 -22.5
t56 -14.5l55 -12l-10 -102q-93 -22 -185 -22q-88 0 -133.5 49t-45.5 128v10z" />
    <glyph glyph-name="udieresis" unicode="&#xfc;" horiz-adv-x="1235" 
d="M773 1413q42 0 74.5 -26.5t32.5 -67.5q0 -43 -32 -70.5t-75 -27.5q-41 0 -71.5 27.5t-30.5 70.5q0 42 31 68t71 26zM448 1413q42 0 73 -26.5t31 -67.5q0 -43 -31 -70.5t-73 -27.5q-41 0 -71.5 27.5t-30.5 70.5q0 42 31 68t71 26zM833 159h-14q-127 -187 -349 -187
q-271 0 -271 353v560l-167 67l16 96l327 26l29 -30v-658q0 -247 188 -247q136 0 227 94v646l-195 51l12 110l358 34l26 -30v-783q0 -44 8 -72t29 -44t39 -22.5t56 -14.5l55 -12l-10 -102q-93 -22 -185 -22q-88 0 -133.5 49t-45.5 128v10z" />
    <glyph glyph-name="yacute" unicode="&#xfd;" horiz-adv-x="1130" 
d="M492 0l-347 922l-151 46l14 94h510l-10 -90l-155 -46l248 -656l262 650l-158 50l16 92h417l-10 -90l-122 -50l-402 -986q-94 -230 -181 -314t-228 -84q-80 0 -133.5 44.5t-53.5 100.5q0 88 68 146q95 -66 183 -66q28 0 50 5.5t51 21.5t57 54q26 35 51 96zM735 1584
l-223 -386l-62 39l149 395z" />
    <glyph glyph-name="thorn" unicode="&#xfe;" horiz-adv-x="1157" 
d="M167 1359l-185 65l16 92l344 26l30 -28v-482l-18 -126h14q29 33 46.5 51t52.5 47.5t65 45t73.5 28t89.5 12.5q161 0 267 -139.5t106 -380.5q0 -125 -39 -234.5t-106.5 -186t-160.5 -121t-198 -44.5q-71 0 -122 18l-4 122q54 -12 106 -12q74 0 128.5 23.5t85.5 59.5t50 89
t25 102.5t6 109.5q0 436 -230 436q-134 0 -241 -111v-1126l188 -42l-14 -99h-568l10 97l185 44z" />
    <glyph glyph-name="ydieresis" unicode="&#xff;" horiz-adv-x="1130" 
d="M492 0l-347 922l-151 46l14 94h510l-10 -90l-155 -46l248 -656l262 650l-158 50l16 92h417l-10 -90l-122 -50l-402 -986q-94 -230 -181 -314t-228 -84q-80 0 -133.5 44.5t-53.5 100.5q0 88 68 146q95 -66 183 -66q28 0 50 5.5t51 21.5t57 54q26 35 51 96zM709 1413
q42 0 74.5 -26.5t32.5 -67.5q0 -43 -32 -70.5t-75 -27.5q-41 0 -71.5 27.5t-30.5 70.5q0 42 31 68t71 26zM384 1413q42 0 73 -26.5t31 -67.5q0 -43 -31 -70.5t-73 -27.5q-41 0 -71.5 27.5t-30.5 70.5q0 42 31 68t71 26z" />
    <glyph glyph-name="Amacron" unicode="&#x100;" horiz-adv-x="1487" 
d="M506 1805h536l-16 -122h-536zM849 1542l473 -1391l167 -53l-10 -98h-626l14 90l208 67l-132 369h-510l-137 -375l227 -53l-14 -98h-570l12 90l181 67l532 1347zM479 649h428l-203 608z" />
    <glyph glyph-name="amacron" unicode="&#x101;" horiz-adv-x="1032" 
d="M257 1357h536l-16 -122h-536zM637 520q-189 -37 -268.5 -101.5t-79.5 -157.5q0 -52 37 -96.5t100 -44.5q57 0 116 34t95 75v291zM849 -22q-96 0 -142 49.5t-46 113.5v18h-14q-14 -28 -38.5 -57t-64 -60.5t-99.5 -51.5t-130 -20q-101 0 -170 63.5t-69 171.5q0 69 32.5 132
t98 116.5t176 90t254.5 46.5v67q0 66 -10 120.5t-33.5 101.5t-67 73t-104.5 26q-38 0 -62.5 -15t-37 -47.5t-19 -67.5t-12.5 -90q-2 -26 -4 -39q-25 0 -43 1.5t-43.5 8.5t-42 19.5t-28.5 37.5t-12 59q0 63 69 123t165.5 94t181.5 34q161 0 231 -90t70 -285v-442
q0 -85 25.5 -117t109.5 -46l60 -10l-14 -104q-20 -3 -50 -9.5t-57.5 -10.5t-59.5 -4z" />
    <glyph glyph-name="Abreve" unicode="&#x102;" horiz-adv-x="1487" 
d="M534 1893l56 39l10 -21q21 -41 64 -71.5t100 -30.5q109 0 173 104l12 21l50 -35l-8 -24q-28 -84 -86 -141t-141 -57q-90 0 -147 56t-77 136zM849 1542l473 -1391l167 -53l-10 -98h-626l14 90l208 67l-132 369h-510l-137 -375l227 -53l-14 -98h-570l12 90l181 67l532 1347
zM479 649h428l-203 608z" />
    <glyph glyph-name="abreve" unicode="&#x103;" horiz-adv-x="1032" 
d="M286 1445l56 39l10 -21q21 -41 64 -71.5t100 -30.5q109 0 173 104l12 21l50 -35l-8 -24q-28 -84 -86 -141t-141 -57q-90 0 -147 56t-77 136zM637 520q-189 -37 -268.5 -101.5t-79.5 -157.5q0 -52 37 -96.5t100 -44.5q57 0 116 34t95 75v291zM849 -22q-96 0 -142 49.5
t-46 113.5v18h-14q-14 -28 -38.5 -57t-64 -60.5t-99.5 -51.5t-130 -20q-101 0 -170 63.5t-69 171.5q0 69 32.5 132t98 116.5t176 90t254.5 46.5v67q0 66 -10 120.5t-33.5 101.5t-67 73t-104.5 26q-38 0 -62.5 -15t-37 -47.5t-19 -67.5t-12.5 -90q-2 -26 -4 -39
q-25 0 -43 1.5t-43.5 8.5t-42 19.5t-28.5 37.5t-12 59q0 63 69 123t165.5 94t181.5 34q161 0 231 -90t70 -285v-442q0 -85 25.5 -117t109.5 -46l60 -10l-14 -104q-20 -3 -50 -9.5t-57.5 -10.5t-59.5 -4z" />
    <glyph glyph-name="Aogonek" unicode="&#x104;" horiz-adv-x="1487" 
d="M1306 -181q0 -62 36.5 -122t114.5 -105l-42 -62q-129 13 -209 75t-80 142q0 55 32 110.5t131 142.5h-436l14 90l208 67l-132 369h-510l-137 -375l227 -53l-14 -98h-570l12 90l181 67l532 1347l185 38l473 -1391l167 -53l-10 -98h-100q-73 -120 -73 -181zM479 649h428
l-203 608z" />
    <glyph glyph-name="aogonek" unicode="&#x105;" horiz-adv-x="1029" 
d="M909 -181q0 -62 36.5 -122t114.5 -105l-42 -62q-129 13 -209 75t-80 142q0 51 28 102t112 129h-20q-96 0 -142 49.5t-46 113.5v18h-14q-14 -28 -38.5 -57t-64 -60.5t-99.5 -51.5t-130 -20q-101 0 -170 63.5t-69 171.5q0 69 32.5 132t98 116.5t176 90t254.5 46.5v67
q0 66 -10 120.5t-33.5 101.5t-67 73t-104.5 26q-38 0 -62.5 -15t-37 -47.5t-19 -67.5t-12.5 -90q-2 -26 -4 -39q-25 0 -43 1.5t-43.5 8.5t-42 19.5t-28.5 37.5t-12 59q0 63 69 123t165.5 94t181.5 34q161 0 231 -90t70 -285v-442q0 -85 25.5 -117t109.5 -46l60 -10l-14 -104
q-13 -2 -37 -6q-70 -117 -70 -177zM637 520q-189 -37 -268.5 -101.5t-79.5 -157.5q0 -52 37 -96.5t100 -44.5q57 0 116 34t95 75v291z" />
    <glyph glyph-name="Cacute" unicode="&#x106;" horiz-adv-x="1444" 
d="M1043 2032l-223 -386l-62 39l149 395zM358 801q0 -158 45.5 -287t122.5 -210.5t175.5 -125t208.5 -43.5q115 0 227 51.5t197 130.5l44 -92q-83 -100 -235 -177.5t-327 -77.5q-142 0 -270 49.5t-229 141t-160.5 236t-59.5 320.5q0 79 14 159t44.5 162t74.5 155.5
t108.5 138t142.5 111.5t180.5 74t218.5 27q279 0 440 -122l-38 -404l-107 16l-50 267q-99 127 -315 127q-195 0 -323.5 -170t-128.5 -457z" />
    <glyph glyph-name="cacute" unicode="&#x107;" horiz-adv-x="980" 
d="M736 1604l-223 -386l-62 39l149 395zM663 109q56 0 105.5 13t76 26t64.5 37l30 -71q-50 -61 -156.5 -105.5t-219.5 -44.5q-142 0 -253 75t-169 198t-58 269q0 131 43.5 243.5t116 186.5t165 116t191.5 42q144 0 218.5 -54t74.5 -132q0 -55 -39.5 -88t-114.5 -39
q-16 38 -31 67t-39.5 62t-56.5 51.5t-70 18.5q-109 0 -174 -99.5t-65 -264.5q0 -63 13 -130.5t41.5 -135.5t69.5 -121t102.5 -86.5t134.5 -33.5z" />
    <glyph glyph-name="Ccaron" unicode="&#x10c;" horiz-adv-x="1444" 
d="M816 1656l-218 201l98 75l181 -175h12l150 171l53 -37l-209 -218zM358 801q0 -158 45.5 -287t122.5 -210.5t175.5 -125t208.5 -43.5q115 0 227 51.5t197 130.5l44 -92q-83 -100 -235 -177.5t-327 -77.5q-142 0 -270 49.5t-229 141t-160.5 236t-59.5 320.5q0 79 14 159
t44.5 162t74.5 155.5t108.5 138t142.5 111.5t180.5 74t218.5 27q279 0 440 -122l-38 -404l-107 16l-50 267q-99 127 -315 127q-195 0 -323.5 -170t-128.5 -457z" />
    <glyph glyph-name="ccaron" unicode="&#x10d;" horiz-adv-x="980" 
d="M509 1228l-218 201l98 75l181 -175h12l150 171l53 -37l-209 -218zM663 109q56 0 105.5 13t76 26t64.5 37l30 -71q-50 -61 -156.5 -105.5t-219.5 -44.5q-142 0 -253 75t-169 198t-58 269q0 131 43.5 243.5t116 186.5t165 116t191.5 42q144 0 218.5 -54t74.5 -132
q0 -55 -39.5 -88t-114.5 -39q-16 38 -31 67t-39.5 62t-56.5 51.5t-70 18.5q-109 0 -174 -99.5t-65 -264.5q0 -63 13 -130.5t41.5 -135.5t69.5 -121t102.5 -86.5t134.5 -33.5z" />
    <glyph glyph-name="Dcaron" unicode="&#x10e;" horiz-adv-x="1703" 
d="M780 1656l-218 201l98 75l181 -175h12l150 171l53 -37l-209 -218zM534 1399v-1273h177q157 0 280.5 48t200 131t116 190.5t39.5 231.5q0 113 -26 213.5t-79.5 186t-131.5 147.5t-187.5 96.5t-240.5 34.5q-98 0 -148 -6zM1604 795q0 -126 -36 -242.5t-112 -217t-184 -175
t-261 -117.5t-335 -43h-600l16 90l209 67v1184l-209 36l10 93q377 60 625 60q143 0 263.5 -21t209.5 -58.5t159 -92t115.5 -117t75 -137t42 -150.5t12.5 -159z" />
    <glyph glyph-name="dcaron" unicode="&#x10f;" horiz-adv-x="1326" 
d="M1089 1020q112 29 166.5 87.5t54.5 123.5q0 53 -39.5 91.5t-101.5 38.5q-24 0 -36 -2q-18 47 -18 76q0 68 48 107.5t101 39.5q34 0 69 -14.5t68.5 -43t54.5 -79.5t21 -116q0 -40 -6.5 -77t-29 -86t-59.5 -89t-105.5 -78.5t-159.5 -62.5zM832 159h-12q-134 -185 -337 -185
q-169 0 -282.5 135.5t-113.5 376.5q0 128 48 243.5t124 194.5t171 125.5t189 46.5q59 0 118.5 -16.5t90.5 -39.5h10l-16 157v154l-185 67l17 90l337 30l28 -30v-1247q0 -45 7.5 -73t26.5 -43t36.5 -21.5t51.5 -13.5q7 -1 10 -2l55 -12l-14 -102q-88 -22 -179 -22
q-88 0 -134.5 49.5t-46.5 129.5v8zM820 239v570q-46 76 -120 121.5t-139 45.5q-70 0 -121 -31.5t-80.5 -89t-43.5 -130t-14 -163.5q0 -209 74.5 -321t194.5 -112q72 0 143 34t106 76z" />
    <glyph glyph-name="Dcroat" unicode="&#x110;" horiz-adv-x="1703" 
d="M562 1805h536l-16 -122h-536zM534 1399v-1273h177q157 0 280.5 48t200 131t116 190.5t39.5 231.5q0 113 -26 213.5t-79.5 186t-131.5 147.5t-187.5 96.5t-240.5 34.5q-98 0 -148 -6zM1604 795q0 -126 -36 -242.5t-112 -217t-184 -175t-261 -117.5t-335 -43h-600l16 90
l209 67v1184l-209 36l10 93q377 60 625 60q143 0 263.5 -21t209.5 -58.5t159 -92t115.5 -117t75 -137t42 -150.5t12.5 -159z" />
    <glyph glyph-name="dcroat" unicode="&#x111;" horiz-adv-x="1232" 
d="M832 159h-12q-134 -185 -337 -185q-169 0 -282.5 135.5t-113.5 376.5q0 128 48 243.5t124 194.5t171 125.5t189 46.5q59 0 118.5 -16.5t90.5 -39.5h10l-14 139h-259l16 122h241v50l-185 67l17 90l337 30l28 -30v-207h98l-16 -122h-82v-918q0 -45 7.5 -73t26.5 -43
t36.5 -21.5t51.5 -13.5q7 -1 10 -2l55 -12l-14 -102q-88 -22 -179 -22q-88 0 -134.5 49.5t-46.5 129.5v8zM820 239v570q-46 76 -120 121.5t-139 45.5q-70 0 -121 -31.5t-80.5 -89t-43.5 -130t-14 -163.5q0 -209 74.5 -321t194.5 -112q72 0 143 34t106 76z" />
    <glyph glyph-name="Emacron" unicode="&#x112;" horiz-adv-x="1428" 
d="M489 1805h536l-16 -122h-536zM93 1512h1211l-38 -388l-105 16l-50 261h-574v-578h353l52 145l115 16l-40 -472l-105 -16l-40 213h-335v-593h604l119 280l100 -15l-36 -381h-1235l10 90l203 57v1222l-221 51z" />
    <glyph glyph-name="emacron" unicode="&#x113;" horiz-adv-x="1019" 
d="M287 1357h536l-16 -122h-536zM891 548l-588 -6q4 -75 26 -146.5t61.5 -133.5t105 -100t146.5 -38h7q52 0 81.5 2.5t79.5 18t108 46.5l26 -65q-73 -76 -177 -119t-223 -43q-88 0 -168.5 36t-146 103t-104.5 175.5t-39 241.5q0 132 45 242.5t117.5 181t160 109.5t177.5 39
q140 0 233 -100t93 -285q0 -71 -21 -159zM305 637l382 26q8 27 8 84q0 227 -169 227q-82 0 -147.5 -86t-73.5 -251z" />
    <glyph glyph-name="Edotaccent" unicode="&#x116;" horiz-adv-x="1428" 
d="M878 1780q0 -55 -38.5 -93t-93.5 -38q-54 0 -91.5 38.5t-37.5 92.5q0 53 38 91.5t91 38.5q54 0 93 -38t39 -92zM93 1512h1211l-38 -388l-105 16l-50 261h-574v-578h353l52 145l115 16l-40 -472l-105 -16l-40 213h-335v-593h604l119 280l100 -15l-36 -381h-1235l10 90
l203 57v1222l-221 51z" />
    <glyph glyph-name="edotaccent" unicode="&#x117;" horiz-adv-x="1019" 
d="M542 1494q61 0 105 -40.5t44 -98.5q0 -61 -44.5 -105t-104.5 -44t-102 44.5t-42 106.5q0 58 43 97.5t101 39.5zM891 548l-588 -6q4 -75 26 -146.5t61.5 -133.5t105 -100t146.5 -38h7q52 0 81.5 2.5t79.5 18t108 46.5l26 -65q-73 -76 -177 -119t-223 -43q-88 0 -168.5 36
t-146 103t-104.5 175.5t-39 241.5q0 132 45 242.5t117.5 181t160 109.5t177.5 39q140 0 233 -100t93 -285q0 -71 -21 -159zM305 637l382 26q8 27 8 84q0 227 -169 227q-82 0 -147.5 -86t-73.5 -251z" />
    <glyph glyph-name="Eogonek" unicode="&#x118;" horiz-adv-x="1428" 
d="M1177 -181q0 -62 36.5 -122t114.5 -105l-42 -62q-129 13 -209 75t-80 142q0 55 32 110.5t131 142.5h-1071l10 90l203 57v1222l-221 51l12 92h1211l-38 -388l-105 16l-50 261h-574v-578h353l52 145l115 16l-40 -472l-105 -16l-40 213h-335v-593h604l119 280l100 -15
l-36 -381h-74q-73 -120 -73 -181z" />
    <glyph glyph-name="eogonek" unicode="&#x119;" horiz-adv-x="1023" 
d="M835 -408l-42 -62q-129 13 -209 75t-80 142q0 50 26 99.5t105 123.5q-43 -6 -89 -6q-88 0 -168.5 36t-146 103t-104.5 175.5t-39 241.5q0 132 45 242.5t117.5 181t160 109.5t177.5 39q140 0 233 -100t93 -285q0 -71 -21 -159l-588 -6q4 -75 26 -146.5t61.5 -133.5
t105 -100t146.5 -38h7q52 0 81.5 2.5t79.5 18t108 46.5l26 -65q-78 -81 -188 -123q-74 -122 -74 -184t36.5 -122t114.5 -105zM307 637l382 26q8 27 8 84q0 227 -169 227q-82 0 -147.5 -86t-73.5 -251z" />
    <glyph glyph-name="Ecaron" unicode="&#x11a;" horiz-adv-x="1428" 
d="M707 1656l-218 201l98 75l181 -175h12l150 171l53 -37l-209 -218zM93 1512h1211l-38 -388l-105 16l-50 261h-574v-578h353l52 145l115 16l-40 -472l-105 -16l-40 213h-335v-593h604l119 280l100 -15l-36 -381h-1235l10 90l203 57v1222l-221 51z" />
    <glyph glyph-name="ecaron" unicode="&#x11b;" horiz-adv-x="1019" 
d="M505 1208l-218 201l98 75l181 -175h12l150 171l53 -37l-209 -218zM891 548l-588 -6q4 -75 26 -146.5t61.5 -133.5t105 -100t146.5 -38h7q52 0 81.5 2.5t79.5 18t108 46.5l26 -65q-73 -76 -177 -119t-223 -43q-88 0 -168.5 36t-146 103t-104.5 175.5t-39 241.5
q0 132 45 242.5t117.5 181t160 109.5t177.5 39q140 0 233 -100t93 -285q0 -71 -21 -159zM305 637l382 26q8 27 8 84q0 227 -169 227q-82 0 -147.5 -86t-73.5 -251z" />
    <glyph glyph-name="Gbreve" unicode="&#x11e;" horiz-adv-x="1618" 
d="M707 1893l56 39l10 -21q21 -41 64 -71.5t100 -30.5q109 0 173 104l12 21l50 -35l-8 -24q-28 -84 -86 -141t-141 -57q-90 0 -147 56t-77 136zM1411 1414l-30 -392l-106 18l-44 233q-52 52 -158.5 95.5t-235.5 43.5q-74 0 -141.5 -21.5t-129 -70.5t-107 -120t-72 -177
t-26.5 -236q0 -137 40.5 -261t114.5 -220.5t190 -154t256 -57.5q123 0 210 51v383l-287 46l14 101h677l-14 -91l-151 -50v-438q-119 -71 -260 -102.5t-326 -31.5q-144 0 -263.5 37.5t-204.5 104t-144 159.5t-87 204t-28 236q0 189 68 348.5t180.5 263t255 160.5t295.5 57
q317 0 514 -118z" />
    <glyph glyph-name="gbreve" unicode="&#x11f;" horiz-adv-x="1103" 
d="M317 1445l56 39l10 -21q21 -41 64 -71.5t100 -30.5q109 0 173 104l12 21l50 -35l-8 -24q-28 -84 -86 -141t-141 -57q-90 0 -147 56t-77 136zM316 739q0 -119 64.5 -198t136.5 -79q84 0 131.5 59.5t47.5 183.5q0 69 -21.5 134.5t-68 113t-107.5 47.5q-91 0 -137 -69
t-46 -192zM535 183h167q76 0 130.5 -9t104.5 -34t76 -75.5t26 -126.5q0 -103 -81.5 -198t-212 -152.5t-266.5 -57.5q-89 0 -164 14t-139 44t-100.5 85t-36.5 130q0 32 16 63.5t34 52t52 45t48.5 33t44.5 25.5v10q-57 27 -87 70.5t-30 96.5q0 47 65.5 108.5t137.5 90.5v10
q-59 15 -129 106.5t-70 202.5q0 98 58.5 185t152.5 137.5t195 50.5q150 0 257 -76l261 18l24 -28l-46 -135h-20l-151 49v-20q42 -89 42 -169t-38 -150t-98 -115t-132.5 -71t-142.5 -26q-67 0 -109 12q-62 -66 -62 -108q0 -28 15 -45.5t66 -30t142 -12.5zM316 4q-3 -1 -7 -3
t-14.5 -12t-19 -24t-15 -39.5t-6.5 -56.5q0 -208 291 -208q62 0 112.5 11.5t90.5 36t62 67.5t22 102q0 78 -65.5 102t-239.5 24h-211z" />
    <glyph glyph-name="Gcommaaccent" unicode="&#x122;" horiz-adv-x="1618" 
d="M896 -103q45 0 84 -35.5t39 -108.5q0 -28 -10.5 -58t-34 -63.5t-70 -62t-110.5 -43.5l-22 65q113 28 113 109q0 28 -37 60.5t-60 35.5q9 42 38 71.5t70 29.5zM1411 1414l-30 -392l-106 18l-44 233q-52 52 -158.5 95.5t-235.5 43.5q-74 0 -141.5 -21.5t-129 -70.5
t-107 -120t-72 -177t-26.5 -236q0 -137 40.5 -261t114.5 -220.5t190 -154t256 -57.5q123 0 210 51v383l-287 46l14 101h677l-14 -91l-151 -50v-438q-119 -71 -260 -102.5t-326 -31.5q-144 0 -263.5 37.5t-204.5 104t-144 159.5t-87 204t-28 236q0 189 68 348.5t180.5 263
t255 160.5t295.5 57q317 0 514 -118z" />
    <glyph glyph-name="gcommaaccent" unicode="&#x123;" horiz-adv-x="1103" 
d="M538 1206q-45 0 -84 35.5t-39 108.5q0 28 10.5 58t34 63.5t70 62t110.5 43.5l22 -65q-113 -28 -113 -109q0 -28 37 -60.5t60 -35.5q-9 -42 -38 -71.5t-70 -29.5zM316 739q0 -119 64.5 -198t136.5 -79q84 0 131.5 59.5t47.5 183.5q0 69 -21.5 134.5t-68 113t-107.5 47.5
q-91 0 -137 -69t-46 -192zM535 183h167q76 0 130.5 -9t104.5 -34t76 -75.5t26 -126.5q0 -103 -81.5 -198t-212 -152.5t-266.5 -57.5q-89 0 -164 14t-139 44t-100.5 85t-36.5 130q0 32 16 63.5t34 52t52 45t48.5 33t44.5 25.5v10q-57 27 -87 70.5t-30 96.5q0 47 65.5 108.5
t137.5 90.5v10q-59 15 -129 106.5t-70 202.5q0 98 58.5 185t152.5 137.5t195 50.5q150 0 257 -76l261 18l24 -28l-46 -135h-20l-151 49v-20q42 -89 42 -169t-38 -150t-98 -115t-132.5 -71t-142.5 -26q-67 0 -109 12q-62 -66 -62 -108q0 -28 15 -45.5t66 -30t142 -12.5z
M316 4q-3 -1 -7 -3t-14.5 -12t-19 -24t-15 -39.5t-6.5 -56.5q0 -208 291 -208q62 0 112.5 11.5t90.5 36t62 67.5t22 102q0 78 -65.5 102t-239.5 24h-211z" />
    <glyph glyph-name="Itilde" unicode="&#x128;" horiz-adv-x="840" 
d="M136 1683q2 7 5 18.5t16 41.5t28.5 53t42 41.5t56.5 18.5q11 0 16 -1l271 -36h5q14 0 31 12.5t27 24.5l10 13l58 -2q-2 -7 -5.5 -19t-17.5 -42t-30.5 -53t-44.5 -42t-60 -19q-10 0 -15 1l-271 38h-3q-16 0 -34 -14.5t-28 -28.5l-11 -15zM746 0h-657l10 90l203 57v1222
l-221 51l12 92h663l-12 -92l-207 -47v-1234l221 -41z" />
    <glyph glyph-name="itilde" unicode="&#x129;" horiz-adv-x="678" 
d="M63 1265q2 7 5 18.5t16 41.5t28.5 53t42 41.5t56.5 18.5q11 0 16 -1l271 -36h5q14 0 31 12.5t27 24.5l10 13l58 -2q-2 -7 -5.5 -19t-17.5 -42t-30.5 -53t-44.5 -42t-60 -19q-10 0 -15 1l-271 38h-3q-16 0 -34 -14.5t-28 -28.5l-11 -15zM74 96l185 45v748l-185 67l16 92
l342 28l30 -30v-905l195 -43l-14 -98h-583z" />
    <glyph glyph-name="Imacron" unicode="&#x12a;" horiz-adv-x="840" 
d="M162 1805h536l-16 -122h-536zM746 0h-657l10 90l203 57v1222l-221 51l12 92h663l-12 -92l-207 -47v-1234l221 -41z" />
    <glyph glyph-name="imacron" unicode="&#x12b;" horiz-adv-x="678" 
d="M89 1387h536l-16 -122h-536zM74 96l185 45v748l-185 67l16 92l342 28l30 -30v-905l195 -43l-14 -98h-583z" />
    <glyph glyph-name="Iogonek" unicode="&#x12e;" horiz-adv-x="839" 
d="M655 -181q0 -62 36.5 -122t114.5 -105l-42 -62q-129 13 -209 75t-80 142q0 55 32 110.5t131 142.5h-549l10 90l203 57v1222l-221 51l12 92h663l-12 -92l-207 -47v-1234l221 -41l-12 -98h-18q-73 -120 -73 -181z" />
    <glyph glyph-name="iogonek" unicode="&#x12f;" horiz-adv-x="678" 
d="M557 -181q0 -62 36.5 -122t114.5 -105l-42 -62q-129 13 -209 75t-80 142q0 55 32 110.5t131 142.5h-480l14 96l185 45v748l-185 67l16 92l342 28l30 -30v-905l195 -43l-14 -98h-13q-73 -120 -73 -181zM343 1524q61 0 105 -40.5t44 -98.5q0 -61 -44.5 -105t-104.5 -44
t-102 44.5t-42 106.5q0 58 43 97.5t101 39.5z" />
    <glyph glyph-name="Idotaccent" unicode="&#x130;" horiz-adv-x="840" 
d="M416 1942q61 0 105 -40.5t44 -98.5q0 -61 -44.5 -105t-104.5 -44t-102 44.5t-42 106.5q0 58 43 97.5t101 39.5zM746 0h-657l10 90l203 57v1222l-221 51l12 92h663l-12 -92l-207 -47v-1234l221 -41z" />
    <glyph glyph-name="dotlessi" unicode="&#x131;" horiz-adv-x="678" 
d="M74 96l185 45v748l-185 67l16 92l342 28l30 -30v-905l195 -43l-14 -98h-583z" />
    <glyph glyph-name="Kcommaaccent" unicode="&#x136;" horiz-adv-x="1521" 
d="M927 -128q45 0 84 -35.5t39 -108.5q0 -28 -10.5 -58t-34 -63.5t-70 -62t-110.5 -43.5l-22 65q113 28 113 109q0 28 -37 60.5t-60 35.5q9 42 38 71.5t70 29.5zM572 735l-2 26q29 29 94 101.5t91 107.5l299 393l-189 57l10 92h599l-15 -92l-214 -57l-454 -568l277 -327
q69 -81 102 -119t81 -88.5t80.5 -75t74.5 -48t88 -37.5l46 -14l-14 -84q-78 -28 -159 -28q-73 0 -141 25.5t-129 75.5t-112 106.5t-108 135.5zM540 151l231 -53l-14 -98h-673l12 90l209 67v1202l-229 61l16 92h669l-12 -92l-209 -57v-1212z" />
    <glyph glyph-name="kcommaaccent" unicode="&#x137;" horiz-adv-x="1185" 
d="M629 -103q45 0 84 -35.5t39 -108.5q0 -28 -10.5 -58t-34 -63.5t-70 -62t-110.5 -43.5l-22 65q113 28 113 109q0 28 -37 60.5t-60 35.5q9 42 38 71.5t70 29.5zM448 550l315 394l-163 50l14 92h517l-17 -90l-182 -50l-287 -354l96 -122q30 -38 69.5 -90t61 -80t51.5 -64
t51 -54.5t48 -38t55 -29.5t60 -14l48 -6l-14 -94q-72 -24 -145 -24q-60 0 -108.5 18.5t-104 69.5t-104.5 111t-133 174l-128 177v24zM30 96l185 45v1206l-191 65l14 92l350 28l30 -30v-70v-1291l194 -43l-14 -98h-582z" />
    <glyph glyph-name="Lacute" unicode="&#x139;" horiz-adv-x="1361" 
d="M620 2032l-223 -386l-62 39l149 395zM759 1512l-12 -92l-209 -57v-1247h538l159 302l104 -16l-46 -402h-1203l10 90l203 57v1212l-229 61l16 92h669z" />
    <glyph glyph-name="lacute" unicode="&#x13a;" horiz-adv-x="632" 
d="M484 2032l-223 -386l-62 39l149 395zM418 141l194 -43l-14 -98h-582l14 96l185 45v1218l-191 65l14 92l350 28l30 -30v-1373z" />
    <glyph glyph-name="Lcommaaccent" unicode="&#x13b;" horiz-adv-x="1361" 
d="M708 -83q45 0 84 -35.5t39 -108.5q0 -28 -10.5 -58t-34 -63.5t-70 -62t-110.5 -43.5l-22 65q113 28 113 109q0 28 -37 60.5t-60 35.5q9 42 38 71.5t70 29.5zM759 1512l-12 -92l-209 -57v-1247h538l159 302l104 -16l-46 -402h-1203l10 90l203 57v1212l-229 61l16 92h669z
" />
    <glyph glyph-name="lcommaaccent" unicode="&#x13c;" horiz-adv-x="632" 
d="M307 -103q45 0 84 -35.5t39 -108.5q0 -28 -10.5 -58t-34 -63.5t-70 -62t-110.5 -43.5l-22 65q113 28 113 109q0 28 -37 60.5t-60 35.5q9 42 38 71.5t70 29.5zM417 141l194 -43l-14 -98h-582l14 96l185 45v1218l-191 65l14 92l350 28l30 -30v-1373z" />
    <glyph glyph-name="Lcaron" unicode="&#x13d;" horiz-adv-x="1361" 
d="M825 996q112 29 166.5 87.5t54.5 123.5q0 53 -39.5 91.5t-101.5 38.5q-24 0 -36 -2q-18 47 -18 76q0 68 47.5 107.5t101.5 39.5q34 0 69 -14.5t68.5 -43t54.5 -79.5t21 -116q0 -40 -6.5 -77t-29 -86t-59.5 -89t-105.5 -78.5t-159.5 -62.5zM759 1512l-12 -92l-209 -57
v-1247h538l159 302l104 -16l-46 -402h-1203l10 90l203 57v1212l-229 61l16 92h669z" />
    <glyph glyph-name="lcaron" unicode="&#x13e;" horiz-adv-x="753" 
d="M460 996q112 29 166.5 87.5t54.5 123.5q0 53 -39.5 91.5t-101.5 38.5q-24 0 -36 -2q-18 47 -18 76q0 68 48 107.5t101 39.5q34 0 69 -14.5t68.5 -43t54.5 -79.5t21 -116q0 -40 -6.5 -77t-29 -86t-59.5 -89t-105.5 -78.5t-159.5 -62.5zM418 141l194 -43l-14 -98h-582
l14 96l185 45v1218l-191 65l14 92l350 28l30 -30v-1373z" />
    <glyph glyph-name="Lslash" unicode="&#x141;" horiz-adv-x="1360" 
d="M758 1512l-12 -92l-209 -57v-360l174 101v-136l-174 -103v-749h538l159 302l104 -16l-46 -402h-1203l10 90l203 57v579l-187 -110l-1 140l188 110v493l-229 61l16 92h669z" />
    <glyph glyph-name="lslash" unicode="&#x142;" horiz-adv-x="805" 
d="M499 141l194 -43l-14 -98h-582l14 96l185 45v527l-245 -76l-16 126l261 81v560l-191 65l14 92l350 28l30 -30v-652l245 76l17 -126l-262 -81v-590z" />
    <glyph glyph-name="Nacute" unicode="&#x143;" horiz-adv-x="1728" 
d="M1034 2032l-223 -386l-62 39l149 395zM1265 -36l-807 1205v-1030l222 -41l-12 -98h-578l10 90l203 57v1212l-221 61l12 92h428l781 -1181v1038l-225 51l14 92h578l-16 -92l-203 -47v-1371z" />
    <glyph glyph-name="nacute" unicode="&#x144;" horiz-adv-x="1313" 
d="M855 1584l-223 -386l-62 39l149 395zM1116 749v-610l175 -43l-12 -96h-548l14 88l167 51v562q0 113 -58 169t-153 56q-67 0 -130 -27.5t-109 -77.5v-682l180 -43l-16 -96h-564l12 88l183 51v738l-187 63l12 92l362 48l22 -24l-22 -154h12q68 82 164 136t203 54
q142 0 217.5 -89.5t75.5 -253.5z" />
    <glyph glyph-name="Ncommaaccent" unicode="&#x145;" horiz-adv-x="1728" 
d="M878 -103q45 0 84 -35.5t39 -108.5q0 -28 -10.5 -58t-34 -63.5t-70 -62t-110.5 -43.5l-22 65q113 28 113 109q0 28 -37 60.5t-60 35.5q9 42 38 71.5t70 29.5zM1265 -36l-807 1205v-1030l222 -41l-12 -98h-578l10 90l203 57v1212l-221 61l12 92h428l781 -1181v1038
l-225 51l14 92h578l-16 -92l-203 -47v-1371z" />
    <glyph glyph-name="ncommaaccent" unicode="&#x146;" horiz-adv-x="1312" 
d="M660 -103q45 0 84 -35.5t39 -108.5q0 -28 -10.5 -58t-34 -63.5t-70 -62t-110.5 -43.5l-22 65q113 28 113 109q0 28 -37 60.5t-60 35.5q9 42 38 71.5t70 29.5zM1116 749v-610l175 -43l-12 -96h-548l14 88l167 51v562q0 113 -58 169t-153 56q-67 0 -130 -27.5t-109 -77.5
v-682l180 -43l-16 -96h-564l12 88l183 51v738l-187 63l12 92l362 48l22 -24l-22 -154h12q68 82 164 136t203 54q142 0 217.5 -89.5t75.5 -253.5z" />
    <glyph glyph-name="Ncaron" unicode="&#x147;" horiz-adv-x="1728" 
d="M807 1656l-218 201l98 75l181 -175h12l150 171l53 -37l-209 -218zM1265 -36l-807 1205v-1030l222 -41l-12 -98h-578l10 90l203 57v1212l-221 61l12 92h428l781 -1181v1038l-225 51l14 92h578l-16 -92l-203 -47v-1371z" />
    <glyph glyph-name="ncaron" unicode="&#x148;" horiz-adv-x="1313" 
d="M628 1208l-218 201l98 75l181 -175h12l150 171l53 -37l-209 -218zM1116 749v-610l175 -43l-12 -96h-548l14 88l167 51v562q0 113 -58 169t-153 56q-67 0 -130 -27.5t-109 -77.5v-682l180 -43l-16 -96h-564l12 88l183 51v738l-187 63l12 92l362 48l22 -24l-22 -154h12
q68 82 164 136t203 54q142 0 217.5 -89.5t75.5 -253.5z" />
    <glyph glyph-name="Omacron" unicode="&#x14c;" horiz-adv-x="1684" 
d="M596 1805h536l-16 -122h-536zM826 1430q-456 0 -456 -607q0 -110 17 -212.5t55 -197t93.5 -164.5t139 -111.5t185.5 -41.5q107 0 189 35t131.5 91t81 136.5t43 162t11.5 176.5q0 107 -17 209t-55.5 198t-94 167.5t-139 115t-184.5 43.5zM1587 753q0 -159 -52.5 -300
t-150 -249.5t-249 -172t-335.5 -63.5q-205 0 -366.5 104.5t-248 283t-86.5 397.5q0 233 94.5 413t273.5 281t417 101q129 0 241.5 -41.5t196.5 -115.5t144 -174t90.5 -218t30.5 -246z" />
    <glyph glyph-name="omacron" unicode="&#x14d;" 
d="M334 1357h536l-16 -122h-536zM301 604q0 -99 18 -187.5t54.5 -164.5t101.5 -121t151 -45q81 0 140 53t85 130t26 167q0 96 -17.5 186t-53 170.5t-98.5 129t-146 48.5q-88 0 -148.5 -53t-86.5 -133t-26 -180zM1094 536q0 -166 -68.5 -296.5t-184.5 -201t-257 -70.5
q-234 0 -367 154t-133 396q0 134 44.5 245.5t119 183.5t169 111.5t197.5 39.5q222 0 351 -154t129 -408z" />
    <glyph glyph-name="Ohungarumlaut" unicode="&#x150;" horiz-adv-x="1684" 
d="M1284 1861l-353 -203l-34 61l299 243zM1039 1867l-365 -209l-34 61l309 253zM826 1430q-456 0 -456 -607q0 -110 17 -212.5t55 -197t93.5 -164.5t139 -111.5t185.5 -41.5q107 0 189 35t131.5 91t81 136.5t43 162t11.5 176.5q0 107 -17 209t-55.5 198t-94 167.5t-139 115
t-184.5 43.5zM1587 753q0 -159 -52.5 -300t-150 -249.5t-249 -172t-335.5 -63.5q-205 0 -366.5 104.5t-248 283t-86.5 397.5q0 233 94.5 413t273.5 281t417 101q129 0 241.5 -41.5t196.5 -115.5t144 -174t90.5 -218t30.5 -246z" />
    <glyph glyph-name="ohungarumlaut" unicode="&#x151;" 
d="M1022 1413l-353 -203l-34 61l299 243zM777 1419l-365 -209l-34 61l309 253zM301 604q0 -99 18 -187.5t54.5 -164.5t101.5 -121t151 -45q81 0 140 53t85 130t26 167q0 96 -17.5 186t-53 170.5t-98.5 129t-146 48.5q-88 0 -148.5 -53t-86.5 -133t-26 -180zM1094 536
q0 -166 -68.5 -296.5t-184.5 -201t-257 -70.5q-234 0 -367 154t-133 396q0 134 44.5 245.5t119 183.5t169 111.5t197.5 39.5q222 0 351 -154t129 -408z" />
    <glyph glyph-name="OE" unicode="&#x152;" horiz-adv-x="2123" 
d="M103 753q0 352 183 576q179 219 542 219q129 0 225 -36h946l-39 -388l-104 16l-50 261h-570v-578h349l52 145l115 16l-40 -472l-105 -16l-40 213h-331v-593h600l118 280l101 -15l-36 -381h-1022q-128 -32 -253 -32q-121 0 -224.5 38t-179.5 108t-129.5 167t-80.5 216.5
t-27 255.5zM796 96q111 0 205 53v1220q-104 61 -231 61q-396 0 -396 -607q0 -100 13 -197.5t45 -195t79 -170.5t120.5 -118.5t164.5 -45.5z" />
    <glyph glyph-name="oe" unicode="&#x153;" horiz-adv-x="1753" 
d="M304 604q0 -97 18.5 -186.5t54 -163t93 -118t129.5 -44.5q63 0 114.5 50.5t79 129t27.5 164.5q0 96 -15.5 187t-47.5 171.5t-89 130t-131 49.5q-66 0 -113 -30t-72.5 -84t-36.5 -116.5t-11 -139.5zM1039 641l382 26q8 27 8 80q0 227 -169 227q-38 0 -74.5 -19.5
t-68 -57.5t-53 -104.5t-25.5 -151.5zM1320 1092q140 0 232.5 -100t92.5 -285q0 -75 -20 -159l-588 -6v-6v-10q4 -59 19 -115.5t43 -111t66 -95t92.5 -65.5t118.5 -25q71 0 127.5 14.5t145.5 62.5l29 -65q-73 -76 -178 -119t-224 -43q-211 0 -357 195q-81 -102 -166 -147.5
t-196 -45.5q-117 0 -208 42t-147.5 117t-85.5 174.5t-29 218.5q0 135 40 245.5t108.5 182.5t159 111t192.5 39q110 0 215 -62t137 -139q63 84 162.5 140.5t218.5 56.5z" />
    <glyph glyph-name="Racute" unicode="&#x154;" horiz-adv-x="1478" 
d="M921 2032l-223 -386l-62 39l149 395zM1267 1146q0 -124 -91.5 -241t-256.5 -176v-2l219 -303q47 -64 67 -91t54.5 -70.5t54.5 -62t51 -43t61 -38.5t68 -25l40 -12l-18 -84q-69 -24 -147 -24q-135 0 -239.5 88t-192.5 245l-194 346h-211v-500l229 -53l-12 -100h-667l12 90
l205 57v1192l-209 36l12 93q358 56 556 56q140 0 248 -19.5t191 -63t126.5 -117.5t43.5 -178zM773 763q102 34 172.5 114.5t70.5 200.5q0 153 -90 248.5t-248 95.5q-38 0 -74 -2q-36 0 -54 -2l-18 -2v-653h241z" />
    <glyph glyph-name="racute" unicode="&#x155;" horiz-adv-x="919" 
d="M713 1584l-223 -386l-62 39l149 395zM795 819q-70 60 -134 60q-57 0 -117 -70t-78 -195v-467l281 -41l-12 -106h-671l14 90l185 49v746l-197 59l16 92l348 46l24 -28l-20 -281h24q46 158 125 243.5t160 85.5q65 0 105.5 -41t40.5 -97q0 -80 -94 -145z" />
    <glyph glyph-name="Rcommaaccent" unicode="&#x156;" horiz-adv-x="1478" 
d="M922 -103q45 0 84 -35.5t39 -108.5q0 -28 -10.5 -58t-34 -63.5t-70 -62t-110.5 -43.5l-22 65q113 28 113 109q0 28 -37 60.5t-60 35.5q9 42 38 71.5t70 29.5zM1267 1146q0 -124 -91.5 -241t-256.5 -176v-2l219 -303q47 -64 67 -91t54.5 -70.5t54.5 -62t51 -43t61 -38.5
t68 -25l40 -12l-18 -84q-69 -24 -147 -24q-135 0 -239.5 88t-192.5 245l-194 346h-211v-500l229 -53l-12 -100h-667l12 90l205 57v1192l-209 36l12 93q358 56 556 56q140 0 248 -19.5t191 -63t126.5 -117.5t43.5 -178zM773 763q102 34 172.5 114.5t70.5 200.5
q0 153 -90 248.5t-248 95.5q-38 0 -74 -2q-36 0 -54 -2l-18 -2v-653h241z" />
    <glyph glyph-name="rcommaaccent" unicode="&#x157;" horiz-adv-x="919" 
d="M363 -103q45 0 84 -35.5t39 -108.5q0 -28 -10.5 -58t-34 -63.5t-70 -62t-110.5 -43.5l-22 65q113 28 113 109q0 28 -37 60.5t-60 35.5q9 42 38 71.5t70 29.5zM795 819q-70 60 -134 60q-57 0 -117 -70t-78 -195v-467l281 -41l-12 -106h-671l14 90l185 49v746l-197 59
l16 92l348 46l24 -28l-20 -281h24q46 158 125 243.5t160 85.5q65 0 105.5 -41t40.5 -97q0 -80 -94 -145z" />
    <glyph glyph-name="Rcaron" unicode="&#x158;" horiz-adv-x="1478" 
d="M694 1656l-218 201l98 75l181 -175h12l150 171l53 -37l-209 -218zM1267 1146q0 -124 -91.5 -241t-256.5 -176v-2l219 -303q47 -64 67 -91t54.5 -70.5t54.5 -62t51 -43t61 -38.5t68 -25l40 -12l-18 -84q-69 -24 -147 -24q-135 0 -239.5 88t-192.5 245l-194 346h-211v-500
l229 -53l-12 -100h-667l12 90l205 57v1192l-209 36l12 93q358 56 556 56q140 0 248 -19.5t191 -63t126.5 -117.5t43.5 -178zM773 763q102 34 172.5 114.5t70.5 200.5q0 153 -90 248.5t-248 95.5q-38 0 -74 -2q-36 0 -54 -2l-18 -2v-653h241z" />
    <glyph glyph-name="rcaron" unicode="&#x159;" horiz-adv-x="919" 
d="M485 1208l-218 201l98 75l181 -175h12l150 171l53 -37l-209 -218zM795 819q-70 60 -134 60q-57 0 -117 -70t-78 -195v-467l281 -41l-12 -106h-671l14 90l185 49v746l-197 59l16 92l348 46l24 -28l-20 -281h24q46 158 125 243.5t160 85.5q65 0 105.5 -41t40.5 -97
q0 -80 -94 -145z" />
    <glyph glyph-name="Sacute" unicode="&#x15a;" horiz-adv-x="1146" 
d="M782 2030l-223 -386l-62 39l149 395zM926 1078l-120 14l-32 233q-20 39 -79 77t-126 38q-98 0 -160.5 -58t-62.5 -171q0 -56 24.5 -103.5t65.5 -83.5t94.5 -68.5t112 -63t117.5 -62.5t112.5 -71.5t94.5 -85t65.5 -108t24.5 -135.5q0 -102 -45.5 -189.5t-120.5 -146
t-172.5 -91.5t-201.5 -33q-126 0 -237 51.5t-173 127.5l16 325l125 -18l46 -229q35 -56 102.5 -94.5t148.5 -38.5q51 0 100 15t92.5 44t70 80t26.5 116q0 64 -38.5 117.5t-100 93.5t-135.5 79t-148.5 83.5t-136 96.5t-100 127.5t-38.5 167.5q0 132 69 232t175 149t228 49
q198 0 344 -122z" />
    <glyph glyph-name="sacute" unicode="&#x15b;" horiz-adv-x="891" 
d="M634 1584l-223 -386l-62 39l149 395zM602 715l-10 52q-44 225 -180 225q-62 0 -99.5 -42t-37.5 -103q0 -46 29.5 -86.5t76.5 -72t104 -62.5t114 -66.5t104 -75t76.5 -95.5t29.5 -122q0 -131 -114.5 -220t-260.5 -89q-157 0 -254.5 63.5t-97.5 149.5q0 63 44 108.5
t117 51.5q38 -125 98 -189t131 -64t115.5 30t44.5 93q0 39 -29 74t-75 64t-101.5 58.5t-111 65t-101.5 75.5t-75 97t-29 124q0 43 14 89t44 90.5t71.5 79.5t102.5 56.5t132 21.5q126 0 211.5 -53t85.5 -150q0 -76 -45 -124t-124 -54z" />
    <glyph glyph-name="Scedilla" unicode="&#x15e;" horiz-adv-x="1150" 
d="M577 -92q108 -94 108 -183q0 -127 -243 -199l-24 72q50 17 77.5 45t27.5 56q0 49 -89 134l95 137h-10q-126 0 -237 51.5t-173 127.5l16 325l125 -18l46 -229q35 -56 102.5 -94.5t148.5 -38.5q51 0 100 15t92.5 44t70 80t26.5 116q0 64 -38.5 117.5t-100 93.5t-135.5 79
t-148.5 83.5t-136 96.5t-100 127.5t-38.5 167.5q0 132 69 232t175 149t228 49q198 0 344 -122l-27 -344l-120 14l-32 233q-20 39 -79 77t-126 38q-98 0 -160.5 -58t-62.5 -171q0 -56 24.5 -103.5t65.5 -83.5t94.5 -68.5t112 -63t117.5 -62.5t112.5 -71.5t94.5 -85t65.5 -108
t24.5 -135.5q0 -118 -60 -215t-157 -156.5t-216 -79.5z" />
    <glyph glyph-name="scedilla" unicode="&#x15f;" horiz-adv-x="896" 
d="M476 -92q108 -94 108 -183q0 -127 -243 -199l-24 72q50 17 77.5 45t27.5 56q0 49 -89 134l87 125q-150 4 -243 66.5t-93 146.5q0 63 44 108.5t117 51.5q38 -125 98 -189t131 -64t115.5 30t44.5 93q0 39 -29 74t-75 64t-101.5 58.5t-111 65t-101.5 75.5t-75 97t-29 124
q0 43 14 89t44 90.5t71.5 79.5t102.5 56.5t132 21.5q126 0 211.5 -53t85.5 -150q0 -76 -45 -124t-124 -54l-10 52q-44 225 -180 225q-62 0 -99.5 -42t-37.5 -103q0 -46 29.5 -86.5t76.5 -72t104 -62.5t114 -66.5t104 -75t76.5 -95.5t29.5 -122q0 -112 -86 -194.5
t-209 -106.5z" />
    <glyph glyph-name="Scaron" unicode="&#x160;" horiz-adv-x="1146" 
d="M555 1654l-218 201l98 75l181 -175h12l150 171l53 -37l-209 -218zM926 1078l-120 14l-32 233q-20 39 -79 77t-126 38q-98 0 -160.5 -58t-62.5 -171q0 -56 24.5 -103.5t65.5 -83.5t94.5 -68.5t112 -63t117.5 -62.5t112.5 -71.5t94.5 -85t65.5 -108t24.5 -135.5
q0 -102 -45.5 -189.5t-120.5 -146t-172.5 -91.5t-201.5 -33q-126 0 -237 51.5t-173 127.5l16 325l125 -18l46 -229q35 -56 102.5 -94.5t148.5 -38.5q51 0 100 15t92.5 44t70 80t26.5 116q0 64 -38.5 117.5t-100 93.5t-135.5 79t-148.5 83.5t-136 96.5t-100 127.5
t-38.5 167.5q0 132 69 232t175 149t228 49q198 0 344 -122z" />
    <glyph glyph-name="scaron" unicode="&#x161;" horiz-adv-x="891" 
d="M407 1208l-218 201l98 75l181 -175h12l150 171l53 -37l-209 -218zM602 715l-10 52q-44 225 -180 225q-62 0 -99.5 -42t-37.5 -103q0 -46 29.5 -86.5t76.5 -72t104 -62.5t114 -66.5t104 -75t76.5 -95.5t29.5 -122q0 -131 -114.5 -220t-260.5 -89q-157 0 -254.5 63.5
t-97.5 149.5q0 63 44 108.5t117 51.5q38 -125 98 -189t131 -64t115.5 30t44.5 93q0 39 -29 74t-75 64t-101.5 58.5t-111 65t-101.5 75.5t-75 97t-29 124q0 43 14 89t44 90.5t71.5 79.5t102.5 56.5t132 21.5q126 0 211.5 -53t85.5 -150q0 -76 -45 -124t-124 -54z" />
    <glyph glyph-name="Tcedilla" unicode="&#x162;" horiz-adv-x="1413" 
d="M733 -92q108 -94 108 -183q0 -127 -243 -199l-24 72q50 17 77.5 45t27.5 56q0 49 -89 134l116 167h-339l10 90l205 57v1254h-359l-64 -295l-111 16l-10 390h1351l-42 -410l-114 18l-48 281h-370v-1262l225 -41l-16 -98h-228z" />
    <glyph glyph-name="tcedilla" unicode="&#x163;" horiz-adv-x="819" 
d="M446 -92q108 -94 108 -183q0 -127 -243 -199l-24 72q50 17 77.5 45t27.5 56q0 49 -89 134l99 143q-63 10 -106.5 43t-70 107.5t-26.5 188.5v38l4 599h-155v66q153 120 301 305h65v-267h343l-10 -106h-335l-4 -554v-8q0 -134 41.5 -186.5t136.5 -52.5q40 0 84 17t68 34
l23 17l26 -66q-52 -76 -128.5 -123.5t-167.5 -54.5z" />
    <glyph glyph-name="Tcaron" unicode="&#x164;" horiz-adv-x="1413" 
d="M650 1656l-218 201l98 75l181 -175h12l150 171l53 -37l-209 -218zM38 1512h1351l-42 -410l-114 18l-48 281h-370v-1262l225 -41l-16 -98h-657l10 90l205 57v1254h-359l-64 -295l-111 16z" />
    <glyph glyph-name="tcaron" unicode="&#x165;" horiz-adv-x="809" 
d="M543 1246q112 29 166.5 87.5t54.5 123.5q0 53 -39.5 91.5t-101.5 38.5q-24 0 -36 -2q-18 47 -18 77q0 68 47.5 107t101.5 39q34 0 69 -14.5t68.5 -43t54.5 -79.5t21 -116q0 -40 -6.5 -77t-29 -86t-59.5 -89t-105.5 -78.5t-159.5 -62.5zM345 1323h65v-267h343l-10 -106
h-335l-4 -554v-8q0 -134 41.5 -186.5t136.5 -52.5q40 0 84 17t68 34l23 17l26 -66q-57 -83 -142 -131t-187 -48q-59 0 -104 16t-81 53.5t-55 106t-19 167.5v38l4 599h-155v66q153 120 301 305z" />
    <glyph glyph-name="Utilde" unicode="&#x168;" horiz-adv-x="1724" 
d="M617 1683q2 7 5 18.5t16 41.5t28.5 53t42 41.5t56.5 18.5q11 0 16 -1l271 -36h5q14 0 31 12.5t27 24.5l10 13l58 -2q-2 -7 -5.5 -19t-17.5 -42t-30.5 -53t-44.5 -42t-60 -19q-10 0 -15 1l-271 38h-3q-16 0 -34 -14.5t-28 -28.5l-11 -15zM917 129q189 0 292 112.5
t104 344.5l2 783l-221 51l12 92h582l-14 -92l-202 -47l-6 -747q-3 -333 -149.5 -495.5t-459.5 -162.5q-93 0 -170.5 13t-159.5 52t-138 103.5t-92 175t-36 258.5v799l-225 51l16 92h659l-12 -92l-205 -47v-753q0 -250 113.5 -370.5t309.5 -120.5z" />
    <glyph glyph-name="utilde" unicode="&#x169;" horiz-adv-x="1235" 
d="M328 1235q2 7 5 18.5t16 41.5t28.5 53t42 41.5t56.5 18.5q11 0 16 -1l271 -36h5q14 0 31 12.5t27 24.5l10 13l58 -2q-2 -7 -5.5 -19t-17.5 -42t-30.5 -53t-44.5 -42t-60 -19q-10 0 -15 1l-271 38h-3q-16 -1 -34 -15q-19 -14 -29 -28l-10 -15zM833 159h-14
q-127 -187 -349 -187q-271 0 -271 353v560l-167 67l16 96l327 26l29 -30v-658q0 -247 188 -247q136 0 227 94v646l-195 51l12 110l358 34l26 -30v-783q0 -44 8 -72t29 -44t39 -22.5t56 -14.5l55 -12l-10 -102q-93 -22 -185 -22q-88 0 -133.5 49t-45.5 128v10z" />
    <glyph glyph-name="umacron" unicode="&#x16b;" horiz-adv-x="1235" 
d="M336 1357h536l-16 -122h-536zM833 159h-14q-127 -187 -349 -187q-271 0 -271 353v560l-167 67l16 96l327 26l29 -30v-658q0 -247 188 -247q136 0 227 94v646l-195 51l12 110l358 34l26 -30v-783q0 -44 8 -72t29 -44t39 -22.5t56 -14.5l55 -12l-10 -102q-93 -22 -185 -22
q-88 0 -133.5 49t-45.5 128v10z" />
    <glyph glyph-name="Uring" unicode="&#x16e;" horiz-adv-x="1724" 
d="M917 129q189 0 292 112.5t104 344.5l2 783l-221 51l12 92h582l-14 -92l-202 -47l-6 -747q-3 -333 -149.5 -495.5t-459.5 -162.5q-93 0 -170.5 13t-159.5 52t-138 103.5t-92 175t-36 258.5v799l-225 51l16 92h659l-12 -92l-205 -47v-753q0 -250 113.5 -370.5t309.5 -120.5
zM898 1978q-51 0 -77.5 -40.5t-26.5 -96.5q0 -61 30.5 -108.5t85.5 -47.5q50 0 77.5 36t27.5 102q0 62 -31.5 108.5t-85.5 46.5zM912 2036q86 0 137.5 -55t51.5 -142q0 -86 -57.5 -149.5t-147.5 -63.5q-85 0 -136.5 54.5t-51.5 146.5q0 85 59.5 147t144.5 62z" />
    <glyph glyph-name="uring" unicode="&#x16f;" horiz-adv-x="1235" 
d="M833 159h-14q-127 -187 -349 -187q-271 0 -271 353v560l-167 67l16 96l327 26l29 -30v-658q0 -247 188 -247q136 0 227 94v646l-195 51l12 110l358 34l26 -30v-783q0 -44 8 -72t29 -44t39 -22.5t56 -14.5l55 -12l-10 -102q-93 -22 -185 -22q-88 0 -133.5 49t-45.5 128v10
zM614 1520q-51 0 -77.5 -40.5t-26.5 -96.5q0 -61 30.5 -108.5t85.5 -47.5q50 0 77.5 36t27.5 102q0 62 -31.5 108.5t-85.5 46.5zM628 1578q86 0 137.5 -55t51.5 -142q0 -86 -57.5 -149.5t-147.5 -63.5q-85 0 -136.5 54.5t-51.5 146.5q0 85 59.5 147t144.5 62z" />
    <glyph glyph-name="Uhungarumlaut" unicode="&#x170;" horiz-adv-x="1724" 
d="M1331 1861l-353 -203l-34 61l299 243zM1086 1867l-365 -209l-34 61l309 253zM917 129q189 0 292 112.5t104 344.5l2 783l-221 51l12 92h582l-14 -92l-202 -47l-6 -747q-3 -333 -149.5 -495.5t-459.5 -162.5q-93 0 -170.5 13t-159.5 52t-138 103.5t-92 175t-36 258.5v799
l-225 51l16 92h659l-12 -92l-205 -47v-753q0 -250 113.5 -370.5t309.5 -120.5z" />
    <glyph glyph-name="uhungarumlaut" unicode="&#x171;" horiz-adv-x="1235" 
d="M1027 1403l-353 -203l-34 61l299 243zM782 1409l-365 -209l-34 61l309 253zM833 159h-14q-127 -187 -349 -187q-271 0 -271 353v560l-167 67l16 96l327 26l29 -30v-658q0 -247 188 -247q136 0 227 94v646l-195 51l12 110l358 34l26 -30v-783q0 -44 8 -72t29 -44t39 -22.5
t56 -14.5l55 -12l-10 -102q-93 -22 -185 -22q-88 0 -133.5 49t-45.5 128v10z" />
    <glyph glyph-name="Uogonek" unicode="&#x172;" horiz-adv-x="1731" 
d="M999 -181q0 -62 36.5 -122t114.5 -105l-42 -62q-129 13 -209 75t-80 142q0 50 26.5 100t106.5 125q-40 -4 -95 -4q-93 0 -170.5 13t-159.5 52t-138 103.5t-92 175t-36 258.5v799l-225 51l16 92h659l-12 -92l-205 -47v-753q0 -250 113.5 -370.5t309.5 -120.5
q189 0 292 112.5t104 344.5l2 783l-221 51l12 92h582l-14 -92l-202 -47l-6 -747q-2 -272 -99.5 -429.5t-300.5 -206.5q-67 -113 -67 -171z" />
    <glyph glyph-name="uogonek" unicode="&#x173;" horiz-adv-x="1233" 
d="M1102 -181q0 -62 36.5 -122t114.5 -105l-42 -62q-129 13 -209 75t-80 142q0 51 26.5 101t106.5 125q-6 0 -20.5 -0.5t-22.5 -0.5q-88 0 -133.5 49t-45.5 128v10h-14q-127 -187 -349 -187q-271 0 -271 353v560l-167 67l16 96l327 26l29 -30v-658q0 -247 188 -247
q136 0 227 94v646l-195 51l12 110l358 34l26 -30v-783q0 -44 8 -72t29 -44t39 -22.5t56 -14.5l55 -12l-10 -102q-7 -2 -30 -7q-65 -111 -65 -168z" />
    <glyph glyph-name="Wcircumflex" unicode="&#x174;" horiz-adv-x="2163" 
d="M1410 -30l-318 1187l-347 -1151l-197 -36l-397 1399l-169 51l10 92h625l-17 -92l-204 -47l295 -1042l341 1121l215 30l301 -1133l317 1020l-220 51l14 92h546l-14 -92l-149 -47l-444 -1367zM1172 1854l216 -225l-60 -45l-199 133h-12l-170 -135l-46 37l204 218z" />
    <glyph glyph-name="wcircumflex" unicode="&#x175;" horiz-adv-x="1500" 
d="M804 1480l216 -225l-60 -45l-199 133h-12l-170 -135l-46 37l204 218zM855 1008l167 -588l26 -135l165 637l-183 50l12 92h466l-14 -90l-131 -50l-259 -936l-144 -22l-211 747l-191 -725l-144 -22l-277 956l-141 50l12 92h506l-12 -90l-165 -50l137 -486l28 -145l185 693z
" />
    <glyph glyph-name="Zacute" unicode="&#x179;" horiz-adv-x="1374" 
d="M879 2032l-223 -386l-62 39l149 395zM138 1512h1129v-92l-930 -1298h693l150 304l113 -18l-69 -408h-1138l-10 126l906 1271h-653l-94 -299l-109 22z" />
    <glyph glyph-name="zacute" unicode="&#x17a;" horiz-adv-x="1040" 
d="M711 1584l-223 -386l-62 39l149 395zM117 1062h817v-90l-611 -852h438l115 215l82 -10l-50 -325h-816l-6 106l597 842h-410l-72 -225l-94 16z" />
    <glyph glyph-name="Zdotaccent" unicode="&#x17b;" horiz-adv-x="1374" 
d="M688 1942q61 0 105 -40.5t44 -98.5q0 -61 -44.5 -105t-104.5 -44t-102 44.5t-42 106.5q0 58 43 97.5t101 39.5zM138 1512h1129v-92l-930 -1298h693l150 304l113 -18l-69 -408h-1138l-10 126l906 1271h-653l-94 -299l-109 22z" />
    <glyph glyph-name="zdotaccent" unicode="&#x17c;" horiz-adv-x="1040" 
d="M520 1494q61 0 105 -40.5t44 -98.5q0 -61 -44.5 -105t-104.5 -44t-102 44.5t-42 106.5q0 58 43 97.5t101 39.5zM117 1062h817v-90l-611 -852h438l115 215l82 -10l-50 -325h-816l-6 106l597 842h-410l-72 -225l-94 16z" />
    <glyph glyph-name="Zcaron" unicode="&#x17d;" horiz-adv-x="1374" 
d="M652 1656l-218 201l98 75l181 -175h12l150 171l53 -37l-209 -218zM138 1512h1129v-92l-930 -1298h693l150 304l113 -18l-69 -408h-1138l-10 126l906 1271h-653l-94 -299l-109 22z" />
    <glyph glyph-name="zcaron" unicode="&#x17e;" horiz-adv-x="1040" 
d="M484 1208l-218 201l98 75l181 -175h12l150 171l53 -37l-209 -218zM117 1062h817v-90l-611 -852h438l115 215l82 -10l-50 -325h-816l-6 106l597 842h-410l-72 -225l-94 16z" />
    <glyph glyph-name="Ereversed" unicode="&#x18e;" horiz-adv-x="1428" 
d="M1335 1512l12 -92l-221 -51v-1222l203 -57l10 -90h-1235l-36 381l100 15l119 -280h604v593h-335l-40 -213l-105 16l-40 472l115 -16l52 -145h353v578h-574l-50 -261l-105 -16l-38 388h1211z" />
    <glyph glyph-name="Acaron" unicode="&#x1cd;" horiz-adv-x="1487" 
d="M724 1656l-218 201l98 75l181 -175h12l150 171l53 -37l-209 -218zM849 1542l473 -1391l167 -53l-10 -98h-626l14 90l208 67l-132 369h-510l-137 -375l227 -53l-14 -98h-570l12 90l181 67l532 1347zM479 649h428l-203 608z" />
    <glyph glyph-name="acaron" unicode="&#x1ce;" horiz-adv-x="1032" 
d="M475 1208l-218 201l98 75l181 -175h12l150 171l53 -37l-209 -218zM637 520q-189 -37 -268.5 -101.5t-79.5 -157.5q0 -52 37 -96.5t100 -44.5q57 0 116 34t95 75v291zM849 -22q-96 0 -142 49.5t-46 113.5v18h-14q-14 -28 -38.5 -57t-64 -60.5t-99.5 -51.5t-130 -20
q-101 0 -170 63.5t-69 171.5q0 69 32.5 132t98 116.5t176 90t254.5 46.5v67q0 66 -10 120.5t-33.5 101.5t-67 73t-104.5 26q-38 0 -62.5 -15t-37 -47.5t-19 -67.5t-12.5 -90q-2 -26 -4 -39q-25 0 -43 1.5t-43.5 8.5t-42 19.5t-28.5 37.5t-12 59q0 63 69 123t165.5 94
t181.5 34q161 0 231 -90t70 -285v-442q0 -85 25.5 -117t109.5 -46l60 -10l-14 -104q-20 -3 -50 -9.5t-57.5 -10.5t-59.5 -4z" />
    <glyph glyph-name="Icaron" unicode="&#x1cf;" horiz-adv-x="840" 
d="M380 1656l-218 201l98 75l181 -175h12l150 171l53 -37l-209 -218zM746 0h-657l10 90l203 57v1222l-221 51l12 92h663l-12 -92l-207 -47v-1234l221 -41z" />
    <glyph glyph-name="icaron" unicode="&#x1d0;" horiz-adv-x="678" 
d="M307 1238l-218 201l98 75l181 -175h12l150 171l53 -37l-209 -218zM74 96l185 45v748l-185 67l16 92l342 28l30 -30v-905l195 -43l-14 -98h-583z" />
    <glyph glyph-name="Ocaron" unicode="&#x1d1;" horiz-adv-x="1684" 
d="M814 1656l-218 201l98 75l181 -175h12l150 171l53 -37l-209 -218zM826 1430q-456 0 -456 -607q0 -110 17 -212.5t55 -197t93.5 -164.5t139 -111.5t185.5 -41.5q107 0 189 35t131.5 91t81 136.5t43 162t11.5 176.5q0 107 -17 209t-55.5 198t-94 167.5t-139 115
t-184.5 43.5zM1587 753q0 -159 -52.5 -300t-150 -249.5t-249 -172t-335.5 -63.5q-205 0 -366.5 104.5t-248 283t-86.5 397.5q0 233 94.5 413t273.5 281t417 101q129 0 241.5 -41.5t196.5 -115.5t144 -174t90.5 -218t30.5 -246z" />
    <glyph glyph-name="ocaron" unicode="&#x1d2;" 
d="M552 1208l-218 201l98 75l181 -175h12l150 171l53 -37l-209 -218zM301 604q0 -99 18 -187.5t54.5 -164.5t101.5 -121t151 -45q81 0 140 53t85 130t26 167q0 96 -17.5 186t-53 170.5t-98.5 129t-146 48.5q-88 0 -148.5 -53t-86.5 -133t-26 -180zM1094 536
q0 -166 -68.5 -296.5t-184.5 -201t-257 -70.5q-234 0 -367 154t-133 396q0 134 44.5 245.5t119 183.5t169 111.5t197.5 39.5q222 0 351 -154t129 -408z" />
    <glyph glyph-name="Ucaron" unicode="&#x1d3;" horiz-adv-x="1724" 
d="M861 1656l-218 201l98 75l181 -175h12l150 171l53 -37l-209 -218zM917 129q189 0 292 112.5t104 344.5l2 783l-221 51l12 92h582l-14 -92l-202 -47l-6 -747q-3 -333 -149.5 -495.5t-459.5 -162.5q-93 0 -170.5 13t-159.5 52t-138 103.5t-92 175t-36 258.5v799l-225 51
l16 92h659l-12 -92l-205 -47v-753q0 -250 113.5 -370.5t309.5 -120.5z" />
    <glyph glyph-name="ucaron" unicode="&#x1d4;" horiz-adv-x="1235" 
d="M572 1208l-218 201l98 75l181 -175h12l150 171l53 -37l-209 -218zM833 159h-14q-127 -187 -349 -187q-271 0 -271 353v560l-167 67l16 96l327 26l29 -30v-658q0 -247 188 -247q136 0 227 94v646l-195 51l12 110l358 34l26 -30v-783q0 -44 8 -72t29 -44t39 -22.5t56 -14.5
l55 -12l-10 -102q-93 -22 -185 -22q-88 0 -133.5 49t-45.5 128v10z" />
    <glyph glyph-name="Udieresismacron" unicode="&#x1d5;" horiz-adv-x="1724" 
d="M917 129q189 0 292 112.5t104 344.5l2 783l-221 51l12 92h582l-14 -92l-202 -47l-6 -747q-3 -333 -149.5 -495.5t-459.5 -162.5q-93 0 -170.5 13t-159.5 52t-138 103.5t-92 175t-36 258.5v799l-225 51l16 92h659l-12 -92l-205 -47v-753q0 -250 113.5 -370.5t309.5 -120.5
zM1062 1799q42 0 74.5 -26.5t32.5 -67.5q0 -43 -32 -70.5t-75 -27.5q-41 0 -71.5 27.5t-30.5 70.5q0 42 31 68t71 26zM737 1799q42 0 73 -26.5t31 -67.5q0 -43 -31 -70.5t-73 -27.5q-41 0 -71.5 27.5t-30.5 70.5q0 42 31 68t71 26zM643 1974h536l-16 -122h-536z" />
    <glyph glyph-name="udieresismacron" unicode="&#x1d6;" horiz-adv-x="1235" 
d="M358 1594h536l-16 -122h-536zM773 1393q42 0 74.5 -26.5t32.5 -67.5q0 -43 -32 -70.5t-75 -27.5q-41 0 -71.5 27.5t-30.5 70.5q0 42 31 68t71 26zM448 1393q42 0 73 -26.5t31 -67.5q0 -43 -31 -70.5t-73 -27.5q-41 0 -71.5 27.5t-30.5 70.5q0 42 31 68t71 26zM833 159
h-14q-127 -187 -349 -187q-271 0 -271 353v560l-167 67l16 96l327 26l29 -30v-658q0 -247 188 -247q136 0 227 94v646l-195 51l12 110l358 34l26 -30v-783q0 -44 8 -72t29 -44t39 -22.5t56 -14.5l55 -12l-10 -102q-93 -22 -185 -22q-88 0 -133.5 49t-45.5 128v10z" />
    <glyph glyph-name="Udieresisacute" unicode="&#x1d7;" horiz-adv-x="1724" 
d="M917 129q189 0 292 112.5t104 344.5l2 783l-221 51l12 92h582l-14 -92l-202 -47l-6 -747q-3 -333 -149.5 -495.5t-459.5 -162.5q-93 0 -170.5 13t-159.5 52t-138 103.5t-92 175t-36 258.5v799l-225 51l16 92h659l-12 -92l-205 -47v-753q0 -250 113.5 -370.5t309.5 -120.5
zM1062 1841q42 0 74.5 -26.5t32.5 -67.5q0 -43 -32 -70.5t-75 -27.5q-41 0 -71.5 27.5t-30.5 70.5q0 42 31 68t71 26zM737 1841q42 0 73 -26.5t31 -67.5q0 -43 -31 -70.5t-73 -27.5q-41 0 -71.5 27.5t-30.5 70.5q0 42 31 68t71 26zM1128 2221l-223 -386l-62 39l149 395z" />
    <glyph glyph-name="udieresisacute" unicode="&#x1d8;" horiz-adv-x="1235" 
d="M843 1805l-223 -386l-62 39l149 395zM773 1413q42 0 74.5 -26.5t32.5 -67.5q0 -43 -32 -70.5t-75 -27.5q-41 0 -71.5 27.5t-30.5 70.5q0 42 31 68t71 26zM448 1413q42 0 73 -26.5t31 -67.5q0 -43 -31 -70.5t-73 -27.5q-41 0 -71.5 27.5t-30.5 70.5q0 42 31 68t71 26z
M833 159h-14q-127 -187 -349 -187q-271 0 -271 353v560l-167 67l16 96l327 26l29 -30v-658q0 -247 188 -247q136 0 227 94v646l-195 51l12 110l358 34l26 -30v-783q0 -44 8 -72t29 -44t39 -22.5t56 -14.5l55 -12l-10 -102q-93 -22 -185 -22q-88 0 -133.5 49t-45.5 128v10z
" />
    <glyph glyph-name="Udieresiscaron" unicode="&#x1d9;" horiz-adv-x="1724" 
d="M917 129q189 0 292 112.5t104 344.5l2 783l-221 51l12 92h582l-14 -92l-202 -47l-6 -747q-3 -333 -149.5 -495.5t-459.5 -162.5q-93 0 -170.5 13t-159.5 52t-138 103.5t-92 175t-36 258.5v799l-225 51l16 92h659l-12 -92l-205 -47v-753q0 -250 113.5 -370.5t309.5 -120.5
zM1062 1817q42 0 74.5 -26.5t32.5 -67.5q0 -43 -32 -70.5t-75 -27.5q-41 0 -71.5 27.5t-30.5 70.5q0 42 31 68t71 26zM737 1817q42 0 73 -26.5t31 -67.5q0 -43 -31 -70.5t-73 -27.5q-41 0 -71.5 27.5t-30.5 70.5q0 42 31 68t71 26zM872 1811l-218 201l98 75l181 -175h12
l150 171l53 -37l-209 -218z" />
    <glyph glyph-name="udieresiscaron" unicode="&#x1da;" horiz-adv-x="1235" 
d="M586 1395l-218 201l98 75l181 -175h12l150 171l53 -37l-209 -218zM773 1413q42 0 74.5 -26.5t32.5 -67.5q0 -43 -32 -70.5t-75 -27.5q-41 0 -71.5 27.5t-30.5 70.5q0 42 31 68t71 26zM448 1413q42 0 73 -26.5t31 -67.5q0 -43 -31 -70.5t-73 -27.5q-41 0 -71.5 27.5
t-30.5 70.5q0 42 31 68t71 26zM833 159h-14q-127 -187 -349 -187q-271 0 -271 353v560l-167 67l16 96l327 26l29 -30v-658q0 -247 188 -247q136 0 227 94v646l-195 51l12 110l358 34l26 -30v-783q0 -44 8 -72t29 -44t39 -22.5t56 -14.5l55 -12l-10 -102q-93 -22 -185 -22
q-88 0 -133.5 49t-45.5 128v10z" />
    <glyph glyph-name="Udieresisgrave" unicode="&#x1db;" horiz-adv-x="1724" 
d="M917 129q189 0 292 112.5t104 344.5l2 783l-221 51l12 92h582l-14 -92l-202 -47l-6 -747q-3 -333 -149.5 -495.5t-459.5 -162.5q-93 0 -170.5 13t-159.5 52t-138 103.5t-92 175t-36 258.5v799l-225 51l16 92h659l-12 -92l-205 -47v-753q0 -250 113.5 -370.5t309.5 -120.5
zM1062 1819q42 0 74.5 -26.5t32.5 -67.5q0 -43 -32 -70.5t-75 -27.5q-41 0 -71.5 27.5t-30.5 70.5q0 42 31 68t71 26zM737 1819q42 0 73 -26.5t31 -67.5q0 -43 -31 -70.5t-73 -27.5q-41 0 -71.5 27.5t-30.5 70.5q0 42 31 68t71 26zM653 2190l140 46l161 -406l-70 -42z" />
    <glyph glyph-name="udieresisgrave" unicode="&#x1dc;" horiz-adv-x="1235" 
d="M368 1807l140 46l161 -406l-70 -42zM773 1413q42 0 74.5 -26.5t32.5 -67.5q0 -43 -32 -70.5t-75 -27.5q-41 0 -71.5 27.5t-30.5 70.5q0 42 31 68t71 26zM448 1413q42 0 73 -26.5t31 -67.5q0 -43 -31 -70.5t-73 -27.5q-41 0 -71.5 27.5t-30.5 70.5q0 42 31 68t71 26z
M833 159h-14q-127 -187 -349 -187q-271 0 -271 353v560l-167 67l16 96l327 26l29 -30v-658q0 -247 188 -247q136 0 227 94v646l-195 51l12 110l358 34l26 -30v-783q0 -44 8 -72t29 -44t39 -22.5t56 -14.5l55 -12l-10 -102q-93 -22 -185 -22q-88 0 -133.5 49t-45.5 128v10z
" />
    <glyph glyph-name="Adieresismacron" unicode="&#x1de;" horiz-adv-x="1483" 
d="M421 -160h536l-16 -122h-536zM921 1861q42 0 74.5 -26.5t32.5 -67.5q0 -43 -32 -70.5t-75 -27.5q-41 0 -71.5 27.5t-30.5 70.5q0 42 31 68t71 26zM596 1861q42 0 73 -26.5t31 -67.5q0 -43 -31 -70.5t-73 -27.5q-41 0 -71.5 27.5t-30.5 70.5q0 42 31 68t71 26zM845 1542
l473 -1391l167 -53l-10 -98h-626l14 90l208 67l-132 369h-510l-137 -375l227 -53l-14 -98h-570l12 90l181 67l532 1347zM475 649h428l-203 608z" />
    <glyph glyph-name="adieresismacron" unicode="&#x1df;" horiz-adv-x="1032" 
d="M271 1637h536l-16 -122h-536zM676 1413q42 0 74.5 -26.5t32.5 -67.5q0 -43 -32 -70.5t-75 -27.5q-41 0 -71.5 27.5t-30.5 70.5q0 42 31 68t71 26zM351 1413q42 0 73 -26.5t31 -67.5q0 -43 -31 -70.5t-73 -27.5q-41 0 -71.5 27.5t-30.5 70.5q0 42 31 68t71 26zM637 520
q-189 -37 -268.5 -101.5t-79.5 -157.5q0 -52 37 -96.5t100 -44.5q57 0 116 34t95 75v291zM849 -22q-96 0 -142 49.5t-46 113.5v18h-14q-14 -28 -38.5 -57t-64 -60.5t-99.5 -51.5t-130 -20q-101 0 -170 63.5t-69 171.5q0 69 32.5 132t98 116.5t176 90t254.5 46.5v67
q0 66 -10 120.5t-33.5 101.5t-67 73t-104.5 26q-38 0 -62.5 -15t-37 -47.5t-19 -67.5t-12.5 -90q-2 -26 -4 -39q-25 0 -43 1.5t-43.5 8.5t-42 19.5t-28.5 37.5t-12 59q0 63 69 123t165.5 94t181.5 34q161 0 231 -90t70 -285v-442q0 -85 25.5 -117t109.5 -46l60 -10l-14 -104
q-20 -3 -50 -9.5t-57.5 -10.5t-59.5 -4z" />
    <glyph glyph-name="Gcaron" unicode="&#x1e6;" horiz-adv-x="1618" 
d="M897 1656l-218 201l98 75l181 -175h12l150 171l53 -37l-209 -218zM1411 1414l-30 -392l-106 18l-44 233q-52 52 -158.5 95.5t-235.5 43.5q-74 0 -141.5 -21.5t-129 -70.5t-107 -120t-72 -177t-26.5 -236q0 -137 40.5 -261t114.5 -220.5t190 -154t256 -57.5q123 0 210 51
v383l-287 46l14 101h677l-14 -91l-151 -50v-438q-119 -71 -260 -102.5t-326 -31.5q-144 0 -263.5 37.5t-204.5 104t-144 159.5t-87 204t-28 236q0 189 68 348.5t180.5 263t255 160.5t295.5 57q317 0 514 -118z" />
    <glyph glyph-name="gcaron" unicode="&#x1e7;" horiz-adv-x="1103" 
d="M506 1208l-218 201l98 75l181 -175h12l150 171l53 -37l-209 -218zM316 739q0 -119 64.5 -198t136.5 -79q84 0 131.5 59.5t47.5 183.5q0 69 -21.5 134.5t-68 113t-107.5 47.5q-91 0 -137 -69t-46 -192zM535 183h167q76 0 130.5 -9t104.5 -34t76 -75.5t26 -126.5
q0 -103 -81.5 -198t-212 -152.5t-266.5 -57.5q-89 0 -164 14t-139 44t-100.5 85t-36.5 130q0 32 16 63.5t34 52t52 45t48.5 33t44.5 25.5v10q-57 27 -87 70.5t-30 96.5q0 47 65.5 108.5t137.5 90.5v10q-59 15 -129 106.5t-70 202.5q0 98 58.5 185t152.5 137.5t195 50.5
q150 0 257 -76l261 18l24 -28l-46 -135h-20l-151 49v-20q42 -89 42 -169t-38 -150t-98 -115t-132.5 -71t-142.5 -26q-67 0 -109 12q-62 -66 -62 -108q0 -28 15 -45.5t66 -30t142 -12.5zM316 4q-3 -1 -7 -3t-14.5 -12t-19 -24t-15 -39.5t-6.5 -56.5q0 -208 291 -208
q62 0 112.5 11.5t90.5 36t62 67.5t22 102q0 78 -65.5 102t-239.5 24h-211z" />
    <glyph glyph-name="Oslashacute" unicode="&#x1fe;" horiz-adv-x="1710" 
d="M1117 2072l-223 -386l-62 39l149 395zM1075 1358l-351 -1236q69 -26 150 -26q90 0 163 23.5t123.5 67t87 99t57.5 125t30.5 139.5t9.5 147q0 205 -69 387.5t-201 273.5zM840 1430q-106 0 -188.5 -33t-135 -88.5t-86.5 -135t-47.5 -165t-13.5 -185.5q0 -199 61 -371.5
t181 -266.5l347 1229q-58 16 -118 16zM1616 753q0 -158 -55 -300t-155.5 -250t-253.5 -171.5t-338 -63.5q-66 0 -123 10l-69 -234l-157 -10l83 285q-206 84 -328 282.5t-122 451.5q0 232 98.5 412.5t280.5 281.5t421 101q41 0 88 -5l39 135l161 10l-52 -179
q148 -52 258 -165.5t167 -266t57 -324.5z" />
    <glyph glyph-name="oslashacute" unicode="&#x1ff;" 
d="M611 1530l-223 -386l-62 39l149 395zM736 896l-221 -787q51 -23 111 -23q81 0 140 53t85 130t26 167q0 137 -35 262.5t-106 197.5zM637 958q-39 12 -75 12q-88 0 -148.5 -53t-86.5 -133t-26 -180q0 -127 29.5 -239.5t90.5 -183.5zM1094 536q0 -166 -68.5 -296.5
t-184.5 -201t-257 -70.5q-52 0 -94 7l-122 -425l-157 -10l139 479q-128 64 -197 195.5t-69 303.5q0 134 44.5 245.5t119 183.5t169 111.5t197.5 39.5q17 0 49 -2l113 388l161 10l-132 -432q137 -58 213 -196t76 -330z" />
    <glyph glyph-name="Scommaaccent" unicode="&#x218;" horiz-adv-x="1146" 
d="M551 -98q45 0 84 -35.5t39 -108.5q0 -28 -10.5 -58t-34 -63.5t-70 -62t-110.5 -43.5l-22 65q113 28 113 109q0 28 -37 60.5t-60 35.5q9 42 38 71.5t70 29.5zM926 1078l-120 14l-32 233q-20 39 -79 77t-126 38q-98 0 -160.5 -58t-62.5 -171q0 -56 24.5 -103.5t65.5 -83.5
t94.5 -68.5t112 -63t117.5 -62.5t112.5 -71.5t94.5 -85t65.5 -108t24.5 -135.5q0 -102 -45.5 -189.5t-120.5 -146t-172.5 -91.5t-201.5 -33q-126 0 -237 51.5t-173 127.5l16 325l125 -18l46 -229q35 -56 102.5 -94.5t148.5 -38.5q51 0 100 15t92.5 44t70 80t26.5 116
q0 64 -38.5 117.5t-100 93.5t-135.5 79t-148.5 83.5t-136 96.5t-100 127.5t-38.5 167.5q0 132 69 232t175 149t228 49q198 0 344 -122z" />
    <glyph glyph-name="scommaaccent" unicode="&#x219;" horiz-adv-x="891" 
d="M413 -103q45 0 84 -35.5t39 -108.5q0 -28 -10.5 -58t-34 -63.5t-70 -62t-110.5 -43.5l-22 65q113 28 113 109q0 28 -37 60.5t-60 35.5q9 42 38 71.5t70 29.5zM602 715l-10 52q-44 225 -180 225q-62 0 -99.5 -42t-37.5 -103q0 -46 29.5 -86.5t76.5 -72t104 -62.5
t114 -66.5t104 -75t76.5 -95.5t29.5 -122q0 -131 -114.5 -220t-260.5 -89q-157 0 -254.5 63.5t-97.5 149.5q0 63 44 108.5t117 51.5q38 -125 98 -189t131 -64t115.5 30t44.5 93q0 39 -29 74t-75 64t-101.5 58.5t-111 65t-101.5 75.5t-75 97t-29 124q0 43 14 89t44 90.5
t71.5 79.5t102.5 56.5t132 21.5q126 0 211.5 -53t85.5 -150q0 -76 -45 -124t-124 -54z" />
    <glyph glyph-name="Tcommaaccent" unicode="&#x21a;" horiz-adv-x="1415" 
d="M683 -103q45 0 84 -35.5t39 -108.5q0 -28 -10.5 -58t-34 -63.5t-70 -62t-110.5 -43.5l-22 65q113 28 113 109q0 28 -37 60.5t-60 35.5q9 42 38 71.5t70 29.5zM40 1512h1351l-42 -410l-114 18l-48 281h-370v-1262l225 -41l-16 -98h-657l10 90l205 57v1254h-359l-64 -295
l-111 16z" />
    <glyph glyph-name="tcommaaccent" unicode="&#x21b;" horiz-adv-x="813" 
d="M444 -103q45 0 84 -35.5t39 -108.5q0 -28 -10.5 -58t-34 -63.5t-70 -62t-110.5 -43.5l-22 65q113 28 113 109q0 28 -37 60.5t-60 35.5q9 42 38 71.5t70 29.5zM345 1323h65v-267h343l-10 -106h-335l-4 -554v-8q0 -134 41.5 -186.5t136.5 -52.5q40 0 84 17t68 34l23 17
l26 -66q-57 -83 -142 -131t-187 -48q-59 0 -104 16t-81 53.5t-55 106t-19 167.5v38l4 599h-155v66q153 120 301 305z" />
    <glyph glyph-name="Ecedilla" unicode="&#x228;" horiz-adv-x="1428" 
d="M770 -92q108 -94 108 -183q0 -127 -243 -199l-24 72q50 17 77.5 45t27.5 56q0 49 -89 134l116 167h-654l10 90l203 57v1222l-221 51l12 92h1211l-38 -388l-105 16l-50 261h-574v-578h353l52 145l115 16l-40 -472l-105 -16l-40 213h-335v-593h604l119 280l100 -15
l-36 -381h-491z" />
    <glyph glyph-name="ecedilla" unicode="&#x229;" horiz-adv-x="1023" 
d="M582 -92q108 -94 108 -183q0 -127 -243 -199l-24 72q50 17 77.5 45t27.5 56q0 49 -89 134l91 131q-86 3 -164 40t-140.5 104.5t-100 174t-37.5 237.5q0 132 45 242.5t117.5 181t160 109.5t177.5 39q140 0 233 -100t93 -285q0 -71 -21 -159l-588 -6q4 -75 26 -146.5
t61.5 -133.5t105 -100t146.5 -38h7q52 0 81.5 2.5t79.5 18t108 46.5l26 -65q-125 -131 -322 -157zM307 637l382 26q8 27 8 84q0 227 -169 227q-82 0 -147.5 -86t-73.5 -251z" />
    <glyph glyph-name="Odiaeresismacron" unicode="&#x22a;" horiz-adv-x="1684" 
d="M589 -138h536l-16 -122h-536zM1015 1861q42 0 74.5 -26.5t32.5 -67.5q0 -43 -32 -70.5t-75 -27.5q-41 0 -71.5 27.5t-30.5 70.5q0 42 31 68t71 26zM690 1861q42 0 73 -26.5t31 -67.5q0 -43 -31 -70.5t-73 -27.5q-41 0 -71.5 27.5t-30.5 70.5q0 42 31 68t71 26zM826 1430
q-456 0 -456 -607q0 -110 17 -212.5t55 -197t93.5 -164.5t139 -111.5t185.5 -41.5q107 0 189 35t131.5 91t81 136.5t43 162t11.5 176.5q0 107 -17 209t-55.5 198t-94 167.5t-139 115t-184.5 43.5zM1587 753q0 -159 -52.5 -300t-150 -249.5t-249 -172t-335.5 -63.5
q-205 0 -366.5 104.5t-248 283t-86.5 397.5q0 233 94.5 413t273.5 281t417 101q129 0 241.5 -41.5t196.5 -115.5t144 -174t90.5 -218t30.5 -246z" />
    <glyph glyph-name="odiaeresismacron" unicode="&#x22b;" 
d="M343 1625h536l-16 -122h-536zM753 1413q42 0 74.5 -26.5t32.5 -67.5q0 -43 -32 -70.5t-75 -27.5q-41 0 -71.5 27.5t-30.5 70.5q0 42 31 68t71 26zM428 1413q42 0 73 -26.5t31 -67.5q0 -43 -31 -70.5t-73 -27.5q-41 0 -71.5 27.5t-30.5 70.5q0 42 31 68t71 26zM301 604
q0 -99 18 -187.5t54.5 -164.5t101.5 -121t151 -45q81 0 140 53t85 130t26 167q0 96 -17.5 186t-53 170.5t-98.5 129t-146 48.5q-88 0 -148.5 -53t-86.5 -133t-26 -180zM1094 536q0 -166 -68.5 -296.5t-184.5 -201t-257 -70.5q-234 0 -367 154t-133 396q0 134 44.5 245.5
t119 183.5t169 111.5t197.5 39.5q222 0 351 -154t129 -408z" />
    <glyph glyph-name="uni022C" unicode="&#x22c;" horiz-adv-x="1684" 
d="M594 2087h536l-16 -122h-536zM569 1683q2 7 5 18.5t16 41.5t28.5 53t42 41.5t56.5 18.5q11 0 16 -1l271 -36h5q14 0 31 12.5t27 24.5l10 13l58 -2q-2 -7 -5.5 -19t-17.5 -42t-30.5 -53t-44.5 -42t-60 -19q-10 0 -15 1l-271 38h-3q-16 -1 -34 -15q-19 -14 -29 -28l-10 -15
zM826 1430q-456 0 -456 -607q0 -110 17 -212.5t55 -197t93.5 -164.5t139 -111.5t185.5 -41.5q107 0 189 35t131.5 91t81 136.5t43 162t11.5 176.5q0 107 -17 209t-55.5 198t-94 167.5t-139 115t-184.5 43.5zM1587 753q0 -159 -52.5 -300t-150 -249.5t-249 -172t-335.5 -63.5
q-205 0 -366.5 104.5t-248 283t-86.5 397.5q0 233 94.5 413t273.5 281t417 101q129 0 241.5 -41.5t196.5 -115.5t144 -174t90.5 -218t30.5 -246z" />
    <glyph glyph-name="uni022D" unicode="&#x22d;" 
d="M358 1656h536l-16 -122h-536zM308 1235q2 7 5 18.5t16 41.5t28.5 53t42 41.5t56.5 18.5q11 0 16 -1l271 -36h5q14 0 31 12.5t27 24.5l10 13l58 -2q-2 -7 -5.5 -19t-17.5 -42t-30.5 -53t-44.5 -42t-60 -19q-10 0 -15 1l-271 38h-3q-16 -1 -34 -15q-19 -14 -29 -28l-10 -15
zM301 604q0 -99 18 -187.5t54.5 -164.5t101.5 -121t151 -45q81 0 140 53t85 130t26 167q0 96 -17.5 186t-53 170.5t-98.5 129t-146 48.5q-88 0 -148.5 -53t-86.5 -133t-26 -180zM1094 536q0 -166 -68.5 -296.5t-184.5 -201t-257 -70.5q-234 0 -367 154t-133 396
q0 134 44.5 245.5t119 183.5t169 111.5t197.5 39.5q222 0 351 -154t129 -408z" />
    <glyph glyph-name="uni022E" unicode="&#x22e;" horiz-adv-x="1684" 
d="M850 1942q61 0 105 -40.5t44 -98.5q0 -61 -44.5 -105t-104.5 -44t-102 44.5t-42 106.5q0 58 43 97.5t101 39.5zM826 1430q-456 0 -456 -607q0 -110 17 -212.5t55 -197t93.5 -164.5t139 -111.5t185.5 -41.5q107 0 189 35t131.5 91t81 136.5t43 162t11.5 176.5
q0 107 -17 209t-55.5 198t-94 167.5t-139 115t-184.5 43.5zM1587 753q0 -159 -52.5 -300t-150 -249.5t-249 -172t-335.5 -63.5q-205 0 -366.5 104.5t-248 283t-86.5 397.5q0 233 94.5 413t273.5 281t417 101q129 0 241.5 -41.5t196.5 -115.5t144 -174t90.5 -218t30.5 -246z
" />
    <glyph glyph-name="uni022F" unicode="&#x22f;" 
d="M588 1494q61 0 105 -40.5t44 -98.5q0 -61 -44.5 -105t-104.5 -44t-102 44.5t-42 106.5q0 58 43 97.5t101 39.5zM301 604q0 -99 18 -187.5t54.5 -164.5t101.5 -121t151 -45q81 0 140 53t85 130t26 167q0 96 -17.5 186t-53 170.5t-98.5 129t-146 48.5q-88 0 -148.5 -53
t-86.5 -133t-26 -180zM1094 536q0 -166 -68.5 -296.5t-184.5 -201t-257 -70.5q-234 0 -367 154t-133 396q0 134 44.5 245.5t119 183.5t169 111.5t197.5 39.5q222 0 351 -154t129 -408z" />
    <glyph glyph-name="smallOE" unicode="&#x276;" horiz-adv-x="1810" 
d="M301 604q0 -99 18 -187.5t54.5 -164.5t101.5 -121t151 -45q81 0 140 53t85 130t26 167q0 96 -17.5 186t-53 170.5t-98.5 129t-146 48.5q-88 0 -148.5 -53t-86.5 -133t-26 -180zM1095 637l382 26q8 27 8 84q0 227 -169 227q-82 0 -147.5 -86t-73.5 -251zM1681 548l-588 -6
q4 -75 26 -146.5t61.5 -133.5t105 -100t146.5 -38h7q52 0 81.5 2.5t79.5 18t108 46.5l26 -65q-73 -76 -177 -119t-223 -43q-105 0 -199.5 50.5t-159.5 145.5q-70 -91 -172 -141.5t-219 -50.5q-234 0 -367 154t-133 396q0 134 44.5 245.5t119 183.5t169 111.5t197.5 39.5
q126 0 224 -52t161 -148q73 93 173.5 143.5t203.5 50.5q140 0 233 -100t93 -285q0 -71 -21 -159z" />
    <glyph glyph-name="apostrophemod" unicode="&#x2bc;" horiz-adv-x="1155" 
d="M460 1584l223 -20l-44 -466l-114 -14z" />
    <glyph glyph-name="circumflex" unicode="&#x2c6;" horiz-adv-x="789" 
d="M418 1922l216 -225l-60 -45l-199 133h-12l-170 -135l-46 37l204 218z" />
    <glyph glyph-name="caron" unicode="&#x2c7;" horiz-adv-x="795" 
d="M369 1650l-218 201l98 75l181 -175h12l150 171l53 -37l-209 -218z" />
    <glyph glyph-name="breve" unicode="&#x2d8;" horiz-adv-x="766" 
d="M147 1887l56 39l10 -21q21 -41 64 -71.5t100 -30.5q109 0 173 104l12 21l50 -35l-8 -24q-28 -84 -86 -141t-141 -57q-90 0 -147 56t-77 136z" />
    <glyph glyph-name="dotaccent" unicode="&#x2d9;" horiz-adv-x="594" 
d="M295 1936q61 0 105 -40.5t44 -98.5q0 -61 -44.5 -105t-104.5 -44t-102 44.5t-42 106.5q0 58 43 97.5t101 39.5z" />
    <glyph glyph-name="ring" unicode="&#x2da;" horiz-adv-x="668" 
d="M335 2008q-51 0 -77.5 -40.5t-26.5 -96.5q0 -61 30.5 -108.5t85.5 -47.5q50 0 77.5 36t27.5 102q0 62 -31.5 108.5t-85.5 46.5zM349 2066q86 0 137.5 -55t51.5 -142q0 -86 -57.5 -149.5t-147.5 -63.5q-85 0 -136.5 54.5t-51.5 146.5q0 85 59.5 147t144.5 62z" />
    <glyph glyph-name="ogonek" unicode="&#x2db;" horiz-adv-x="632" 
d="M331 -181q0 -62 36.5 -122t114.5 -105l-42 -62q-129 13 -209 75t-80 142q0 55 33 111.5t135 145.5h87q-75 -123 -75 -185z" />
    <glyph glyph-name="tilde" unicode="&#x2dc;" horiz-adv-x="867" 
d="M151 1677q2 7 5 18.5t16 41.5t28.5 53t42 41.5t56.5 18.5q11 0 16 -1l271 -36h5q14 0 31 12.5t27 24.5l10 13l58 -2q-2 -7 -5.5 -19t-17.5 -42t-30.5 -53t-44.5 -42t-60 -19q-10 0 -15 1l-271 38h-3q-16 0 -34 -14.5t-28 -28.5l-11 -15z" />
    <glyph glyph-name="hungarumlaut" unicode="&#x2dd;" horiz-adv-x="945" 
d="M795 1855l-353 -203l-34 61l299 243zM550 1861l-365 -209l-34 61l309 253z" />
    <glyph glyph-name="dotaccentcomb" unicode="&#x307;" horiz-adv-x="0" 
d="M408 1763q0 -55 -38.5 -93t-93.5 -38q-54 0 -91.5 38.5t-37.5 92.5q0 53 38 91.5t91 38.5q54 0 93 -38t39 -92z" />
    <glyph glyph-name="dieresiscomb" unicode="&#x308;" horiz-adv-x="0" 
d="M578 1875q42 0 74.5 -26.5t32.5 -67.5q0 -43 -32 -70.5t-75 -27.5q-41 0 -71.5 27.5t-30.5 70.5q0 42 31 68t71 26zM253 1875q42 0 73 -26.5t31 -67.5q0 -43 -31 -70.5t-73 -27.5q-41 0 -71.5 27.5t-30.5 70.5q0 42 31 68t71 26z" />
    <glyph glyph-name="dotbelowcomb" unicode="&#x323;" horiz-adv-x="0" 
d="M261 -331q0 -55 -38.5 -93t-93.5 -38q-54 0 -91.5 38.5t-37.5 92.5q0 53 38 91.5t91 38.5q54 0 93 -38t39 -92z" />
    <glyph glyph-name="commaaccent" unicode="&#x326;" horiz-adv-x="1199" 
d="M128 -103q45 0 84 -35.5t39 -108.5q0 -28 -10.5 -58t-34 -63.5t-70 -62t-110.5 -43.5l-22 65q113 28 113 109q0 28 -37 60.5t-60 35.5q9 42 38 71.5t70 29.5z" />
    <glyph glyph-name="mu" unicode="&#x3bc;" horiz-adv-x="1247" 
d="M211 600v295l-167 67l16 96l327 26l29 -30v-671q0 -131 50.5 -192.5t137.5 -61.5q20 0 39.5 3t33.5 5.5t31.5 11t26.5 12t26.5 16t22.5 16t24.5 19t22.5 17.5v660l-195 51l12 110l358 34l26 -30v-795q0 -45 7.5 -73t26.5 -43t36.5 -21.5t51.5 -13.5q7 -1 10 -2l55 -12
l-10 -102q-93 -22 -185 -22q-88 0 -133.5 49t-45.5 128v10h-14q-86 -96 -168 -141.5t-181 -45.5q-113 0 -171 76h-10q11 -62 18 -150l22 -368l-162 32q2 34 9 200.5t15 423.5t8 416z" />
    <glyph glyph-name="alef_hb" unicode="&#x5d0;" horiz-adv-x="1094" 
d="M256 1191l72 -32l-10 -95l370 -486h4l110 181q21 39 21 59q0 12 -7 17l-152 125l-10 34l108 199l62 -12l4 -73l91 -86q49 -47 49 -96q0 -61 -61 -155l-175 -251l253 -333l-40 -227h-36l-549 715q-66 -86 -66 -161q0 -37 23.5 -84.5t52 -87.5t52 -97.5t23.5 -111.5
q0 -59 -28 -133h-253l-20 78l74 36q6 14 6 30q0 29 -31 126.5t-31 155.5q0 64 46 147.5t110 155.5l-182 237v26z" />
    <glyph glyph-name="bet_hb" unicode="&#x5d1;" horiz-adv-x="1145" 
d="M164 873l-30 45l18 269l89 12l52 -129h562q67 0 97.5 -52.5t33.5 -186.5l13 -606l35 -34l-32 -171l-856 -40l-32 36l40 161l744 38q2 70 2 113q0 50 -1 70l-18 383q-3 56 -18 75t-50 19z" />
    <glyph glyph-name="gimel_hb" unicode="&#x5d2;" horiz-adv-x="756" 
d="M567 809l16 -367q4 -75 20.5 -164t37.5 -170t23 -94l-113 -20l-28 30l-21 289h-15q-56 -248 -169 -313h-219q-25 56 -25 120q0 67 23 101q57 -20 111 -20q98 0 165.5 61t103.5 148l2 331q0 42 -16 62.5t-52 31.5l-233 69l-22 28l20 257l82 8l42 -111l137 -40
q28 -8 47 -20t38.5 -36.5t30.5 -69.5t14 -111z" />
    <glyph glyph-name="dalet_hb" unicode="&#x5d3;" horiz-adv-x="1039" 
d="M897 1070l32 -38l-34 -157l-60 -15l20 -567l36 -285l-116 -20l-42 30l21 857h-664l-32 37l20 275l90 12l43 -129h686z" />
    <glyph glyph-name="he_hb" unicode="&#x5d4;" horiz-adv-x="1101" 
d="M959 1070l32 -38l-34 -157l-60 -15l24 -531q7 -172 32 -321l-116 -20l-42 30l21 857h-664l-32 37l20 275l90 12l43 -129h686zM176 10l34 681l83 10l18 -372q8 -138 28 -329l-121 -20z" />
    <glyph glyph-name="vav_hb" unicode="&#x5d5;" horiz-adv-x="643" 
d="M391 741q1 7 1 19q0 33 -17 49t-52 26l-233 69l-22 28l20 257l83 8l42 -111l136 -40q28 -8 47.5 -19.5t40.5 -36.5t31.5 -70.5t11.5 -110.5l4 -484q2 -181 20 -325l-117 -20l-44 30z" />
    <glyph glyph-name="zayin_hb" unicode="&#x5d6;" horiz-adv-x="599" 
d="M298 858l-169 46l-32 36l24 253l81 6l40 -105l239 -66l32 -38l-6 -179l-12 -4l-134 34q-41 -61 -41 -167q0 -37 8 -112l26 -237q23 -180 56 -329l-126 -20l-42 30l-28 520q-2 24 -2 54q0 203 86 265v13z" />
    <glyph glyph-name="het_hb" unicode="&#x5d7;" horiz-adv-x="1148" 
d="M288 875l12 -506q6 -216 26 -369l-121 -20l-42 30l38 902l12 275l91 12l42 -129h659l32 -38l-34 -157l-61 -15l24 -531q7 -164 33 -321l-117 -20l-42 30l21 857h-573z" />
    <glyph glyph-name="tet_hb" unicode="&#x5d8;" horiz-adv-x="1156" 
d="M716 875q-47 -26 -76 -123t-41 -190l-86 -10l90 554q23 10 48 10q168 0 288 -112.5t120 -276.5q0 -102 -18 -207.5t-52.5 -208t-57.5 -161t-61 -144.5l-612 -26l-32 36q-53 321 -53 528q0 95 25.5 178.5t69.5 124.5v13l-103 40l-32 36l36 251l81 6l40 -105l181 -80
l16 -38l-28 -175l-12 -4l-110 47q-67 -76 -67 -216q0 -75 27 -214.5t57 -230.5l428 20q60 46 119.5 178t59.5 263q0 96 -77 166.5t-168 70.5z" />
    <glyph glyph-name="yod_hb" unicode="&#x5d9;" horiz-adv-x="638" 
d="M325 496q12 17 29.5 45t46.5 88.5t29 91.5q0 73 -69 94l-233 89l-22 28l20 257l83 8l42 -111l136 -60q49 -14 90 -86.5t41 -150.5q0 -31 -6 -75q-6 -46 -12 -74l-6 -28q-3 -27 -32 -158l-115 6z" />
    <glyph glyph-name="kaf_hb.fina" unicode="&#x5da;" horiz-adv-x="1039" 
d="M897 1070l32 -38l-34 -157l-60 -15l44 -878q1 -22 4 -120t7 -180.5t9 -125.5l-116 -20l-44 30l16 1309h-665l-32 37l20 275l90 12l43 -129h686z" />
    <glyph glyph-name="kaf_hb" unicode="&#x5db;" horiz-adv-x="1134" 
d="M149 -16l-33 36l41 161l550 34q90 3 153.5 77t63.5 216q0 157 -65 236.5t-219 96.5l-479 52l-31 45l19 271l88 12l52 -129l394 -44q178 -20 264.5 -138.5t86.5 -339.5q0 -200 -47.5 -334.5t-145.5 -217.5z" />
    <glyph glyph-name="lamed_hb" unicode="&#x5dc;" horiz-adv-x="1020" 
d="M474 -20l-213 24l-24 32l153 109q67 48 120 89t121 102.5t113 116.5t77 120.5t32 123.5q0 112 -43.5 147t-174.5 35h-520l-31 45l19 672l186 2l32 -28l-8 -165l-118 -10l22 -321h494q81 0 130 -15.5t77 -55.5t37 -95.5t9 -148.5q0 -49 -9.5 -98t-22.5 -88t-38 -84
t-44 -74.5t-52.5 -71t-51.5 -61.5t-54 -59t-47 -52z" />
    <glyph glyph-name="mem_hb.fina" unicode="&#x5dd;" horiz-adv-x="1157" 
d="M1014 233q0 -233 -141 -233h-658l-32 36q-14 474 -14 570q0 34 10 73.5t42 90.5t82 85v16h-116l-22 22l12 294l90 12l42 -129h574q67 0 99 -53.5t32 -185.5v-598zM313 197h580q10 23 17 72t7 94v14l-8 404q-1 56 -17 75t-51 19h-456q-102 -100 -102 -232q0 -314 30 -446z
" />
    <glyph glyph-name="mem_hb" unicode="&#x5de;" horiz-adv-x="1162" 
d="M187 1120q138 -81 220 -265q6 9 16.5 24t43.5 53.5t65.5 68t78 53.5t85.5 24q87 0 155 -45t107.5 -120.5t60.5 -164t23 -186.5q0 -151 -44 -315.5t-87 -238.5l-439 -20l-33 26l41 171l427 18q16 37 24 185l6 124q-4 86 -43 167t-112 136.5t-162 55.5q-90 0 -155.5 -51.5
t-99.5 -138.5t-49 -179.5t-15 -196.5q0 -193 14 -305l-116 -20l-45 30q3 238 40.5 422t132.5 323l-181 149l8 192z" />
    <glyph glyph-name="nun_hb.fina" unicode="&#x5df;" horiz-adv-x="554" 
d="M404 -38q14 -302 30 -426l-117 -20l-44 30l14 940q0 53 8 106l16 149v10q0 40 -28 65t-68 35l-109 30l-24 29l24 245l71 6l38 -101l82 -26q51 -16 75.5 -53t24.5 -130q0 -25 -1 -38l-12 -231q-2 -50 -2 -84q0 -65 3.5 -150.5t9.5 -202t9 -183.5z" />
    <glyph glyph-name="nun_hb" unicode="&#x5e0;" horiz-adv-x="615" 
d="M362 741v10q0 40 -28 65t-68 35l-109 30l-24 29l24 245l71 6l38 -101l82 -26q51 -16 75.5 -53t24.5 -130q0 -25 -1 -38l-12 -231q-1 -11 -1 -34q0 -76 20.5 -210t20.5 -177q0 -58 -6 -89t-30 -72h-314l-32 36l40 161h117q35 0 61.5 23.5t26.5 66.5v199q0 53 8 106z" />
    <glyph glyph-name="samekh_hb" unicode="&#x5e1;" horiz-adv-x="1122" 
d="M414 0q-119 63 -191 201.5t-72 304.5q0 117 24 208t64 141v16h-76l-22 22l12 294l90 12l42 -129h396q167 0 256 -117.5t89 -318.5q0 -453 -345 -634h-267zM486 197h162q63 18 107.5 42t83 65.5t58 107.5t19.5 158q0 179 -66 242t-246 63h-283q-62 -74 -62 -293
q0 -129 75.5 -243.5t151.5 -141.5z" />
    <glyph glyph-name="ayin_hb" unicode="&#x5e2;" horiz-adv-x="1050" 
d="M632 261q31 6 55.5 26t33.5 46l132 414q14 43 14 68q0 21 -9.5 30.5t-28.5 13.5l-169 47l-16 32l57 239l72 4l18 -89l114 -40q29 -10 43 -33t14 -68q0 -51 -21 -148l-128 -558q-19 -79 -59 -123.5t-114 -57.5l-506 -88l-32 36l40 173l218 34l-21 235q-8 91 -8 187
q0 29 11 84.5t11 71.5q0 26 -21.5 39.5t-64.5 26.5l-111 30l-22 29l20 245l71 8l40 -101l82 -26q29 -9 39.5 -13.5t30.5 -18t28 -36t8 -55.5q0 -40 -13 -96l-27 -110q-4 -26 -4 -46q0 -131 82 -434z" />
    <glyph glyph-name="pe_hb.fina" unicode="&#x5e3;" horiz-adv-x="999" 
d="M751 741q0 46 -17.5 67t-58.5 27l-474 71q-4 -23 -4 -49q0 -221 333 -255q1 -6 1 -18q0 -51 -26.5 -99.5t-64.5 -78.5q-191 8 -278 88t-87 214q0 101 48 234l96 261l84 6l10 -123l404 -56q53 -7 75.5 -24.5t32.5 -58t15 -138.5l44 -829q1 -22 4 -120t7 -180.5t9 -125.5
l-117 -20l-44 30z" />
    <glyph glyph-name="pe_hb" unicode="&#x5e4;" horiz-adv-x="1117" 
d="M173 942l96 261l84 6l10 -123l484 -60q68 -9 97.5 -58t33.5 -181l20 -456v-11q0 -90 -55 -179.5t-110 -124.5l-703 -32l-32 26l40 171l739 34q20 47 20 129q0 14 -2 44l-22 349q-3 55 -17.5 72t-50.5 22l-554 75q-4 -23 -4 -49q0 -221 333 -255q1 -6 1 -18
q0 -51 -26.5 -99.5t-64.5 -78.5q-191 8 -278 88t-87 214q0 101 48 234z" />
    <glyph glyph-name="tsadi_hb.fina" unicode="&#x5e5;" horiz-adv-x="866" 
d="M396 408l255 359q23 32 23 56q0 15 -9 20l-167 91l-10 34l102 209l65 -12l4 -73l108 -62q54 -31 54 -93q0 -66 -66 -158l-285 -396q-40 -63 -46 -76q-15 -39 -34 -92l12 -253q14 -302 30 -426l-117 -20l-44 30l14 946q0 53 8 106l16 149v10q0 40 -28 64t-68 34l-109 32
l-24 29l24 245l71 8l38 -101l82 -28q34 -10 53.5 -25.5t33 -54.5t13.5 -103q0 -25 -1 -38l-12 -231q-2 -50 -2 -84q0 -28 2 -96h14z" />
    <glyph glyph-name="tsadi_hb" unicode="&#x5e6;" horiz-adv-x="1152" 
d="M721 552l136 243q22 34 22 58q0 14 -8 18l-166 91l-10 34l102 209l64 -12l4 -73l109 -62q53 -30 53 -90q0 -64 -65 -161l-197 -310l176 -156q51 -43 76 -87t25 -109q0 -58 -56 -125l-844 -40l-32 36l40 161l659 32l2 10l-263 271q-68 70 -91 118q-22 46 -22 127t-24 111
q-23 29 -65 29h-3l-183 -2l-30 45l18 269l89 12l52 -129h76q62 0 104.5 -53t42.5 -122q0 -107 13 -151t67 -93l111 -99h18z" />
    <glyph glyph-name="qof_hb" unicode="&#x5e7;" horiz-adv-x="1087" 
d="M181 -434l20 1125l78 10l34 -719q14 -317 28 -426l-116 -20zM749 165l-90 -151l-193 24l-24 32l110 115q22 23 65.5 67.5t66.5 68.5t57.5 63.5t53 70t38 69.5t28 79t8.5 84q0 38 -10 69t-33 60t-67 45t-106 16l-500 -2l-31 45l19 271l88 12l52 -129h394q177 0 254 -78
t77 -225q0 -52 -11 -103t-25.5 -94.5t-53 -116.5t-69.5 -126t-98 -166z" />
    <glyph glyph-name="resh_hb" unicode="&#x5e8;" horiz-adv-x="1067" 
d="M783 10l24 771v8q0 50 -16.5 68t-51.5 18l-649 -2l-30 45l18 269l89 12l52 -129h562q67 0 97.5 -52.5t33.5 -186.5l12 -506q5 -202 20 -325l-117 -20z" />
    <glyph glyph-name="shin_hb" unicode="&#x5e9;" horiz-adv-x="1243" 
d="M417 190l387 31q73 62 163 263t90 277q0 65 -80 94l-109 38l-22 29l32 255l72 12l43 -111l44 -20q59 -28 85.5 -61.5t26.5 -94.5q0 -123 -59 -310t-121 -322.5t-119 -239.5l-592 -42q-15 14 -32 36q-53 315 -53 520q0 95 25.5 178.5t69.5 124.5v13l-103 40l-32 36l36 251
l81 6l40 -105l126 -52l31 -38l-45 -175l-10 -4l-53 20q-69 -77 -69 -217q0 -68 22.5 -189t51.5 -216l213 968l82 6l40 -109l97 -38l22 -42l-36 -171l-14 -2l-157 50z" />
    <glyph glyph-name="tav_hb" unicode="&#x5ea;" horiz-adv-x="1168" 
d="M898 20v761q0 55 -16 74.5t-52 19.5l-485 -1q-23 -42 -43 -115t-20 -129q0 -44 15.5 -93.5t38 -96.5t45 -94.5t38 -102.5t15.5 -106q0 -15 -1.5 -27.5t-6.5 -28.5t-6.5 -21.5t-11.5 -29t-12 -28.5l-249 -2l-22 86l97 47q8 20 8 57q0 48 -23.5 172.5t-23.5 175.5
q0 187 85 325v10h-87l-30 45l18 269l89 12l52 -129h562q65 0 94 -51.5t37 -187.5l28 -478q11 -182 22 -343l-113 -20z" />
    <glyph glyph-name="Bdotbelow" unicode="&#x1e04;" horiz-adv-x="1438" 
d="M842 -332q0 -55 -38.5 -93t-93.5 -38q-54 0 -91.5 38.5t-37.5 92.5q0 53 38 91.5t91 38.5q54 0 93 -38t39 -92zM803 735h-271v-619h267q150 0 235.5 90t85.5 216q0 58 -20 113t-58 100t-100 72.5t-139 27.5zM982 827v-10q90 -5 163.5 -38.5t119 -84t70 -110.5t24.5 -122
q0 -72 -20 -136.5t-67.5 -125t-120 -104t-185.5 -70t-255 -26.5h-629l12 90l205 57v1196l-209 36l12 93q381 56 599 56q136 0 241 -29t167 -79t93 -112t31 -133q0 -50 -13 -98.5t-40.5 -96t-78 -88t-119.5 -65.5zM532 1416v-579h313q159 67 159 269q0 48 -10.5 91
t-37.5 85.5t-68 73t-108 49.5t-152 19q-53 0 -96 -8z" />
    <glyph glyph-name="bdotbelow" unicode="&#x1e05;" 
d="M741 -331q0 -55 -38.5 -93t-93.5 -38q-54 0 -91.5 38.5t-37.5 92.5q0 53 38 91.5t91 38.5q54 0 93 -38t39 -92zM169 60v1287l-185 65l16 92l337 26l30 -28v-470l-18 -126h14q165 186 348 186q176 0 283.5 -143.5t107.5 -374.5q0 -140 -49.5 -256t-133 -190.5t-191 -115
t-226.5 -40.5q-194 0 -333 88zM885 496q0 59 -6.5 115.5t-24.5 116.5t-46 104.5t-74.5 73t-105.5 28.5q-151 0 -261 -117v-628q38 -38 108 -60.5t149 -22.5q112 0 186.5 99t74.5 291z" />
    <glyph glyph-name="Ddotbelow" unicode="&#x1e0c;" horiz-adv-x="1702" 
d="M936 -340q0 -55 -38.5 -93t-93.5 -38q-54 0 -91.5 38.5t-37.5 92.5q0 53 38 91.5t91 38.5q54 0 93 -38t39 -92zM533 1399v-1273h177q157 0 280.5 48t200 131t116 190.5t39.5 231.5q0 113 -26 213.5t-79.5 186t-131.5 147.5t-187.5 96.5t-240.5 34.5q-98 0 -148 -6z
M1603 795q0 -126 -36 -242.5t-112 -217t-184 -175t-261 -117.5t-335 -43h-600l16 90l209 67v1184l-209 36l10 93q377 60 625 60q143 0 263.5 -21t209.5 -58.5t159 -92t115.5 -117t75 -137t42 -150.5t12.5 -159z" />
    <glyph glyph-name="ddotbelow" unicode="&#x1e0d;" horiz-adv-x="1232" 
d="M813 -331q0 -55 -38.5 -93t-93.5 -38q-54 0 -91.5 38.5t-37.5 92.5q0 53 38 91.5t91 38.5q54 0 93 -38t39 -92zM832 159h-12q-134 -185 -337 -185q-169 0 -282.5 135.5t-113.5 376.5q0 128 48 243.5t124 194.5t171 125.5t189 46.5q59 0 118.5 -16.5t90.5 -39.5h10
l-16 157v154l-185 67l17 90l337 30l28 -30v-1247q0 -45 7.5 -73t26.5 -43t36.5 -21.5t51.5 -13.5q7 -1 10 -2l55 -12l-14 -102q-88 -22 -179 -22q-88 0 -134.5 49.5t-46.5 129.5v8zM820 239v570q-46 76 -120 121.5t-139 45.5q-70 0 -121 -31.5t-80.5 -89t-43.5 -130
t-14 -163.5q0 -209 74.5 -321t194.5 -112q72 0 143 34t106 76z" />
    <glyph glyph-name="dlinebelow" unicode="&#x1e0f;" horiz-adv-x="1232" 
d="M832 159h-12q-134 -185 -337 -185q-169 0 -282.5 135.5t-113.5 376.5q0 128 48 243.5t124 194.5t171 125.5t189 46.5q59 0 118.5 -16.5t90.5 -39.5h10l-16 157v154l-185 67l17 90l337 30l28 -30v-1247q0 -45 7.5 -73t26.5 -43t36.5 -21.5t51.5 -13.5q7 -1 10 -2l55 -12
l-14 -102q-88 -22 -179 -22q-88 0 -134.5 49.5t-46.5 129.5v8zM820 239v570q-46 76 -120 121.5t-139 45.5q-70 0 -121 -31.5t-80.5 -89t-43.5 -130t-14 -163.5q0 -209 74.5 -321t194.5 -112q72 0 143 34t106 76z" />
    <glyph glyph-name="Dcircumflexbelow" unicode="&#x1e12;" horiz-adv-x="1703" 
d="M534 1399v-1273h177q157 0 280.5 48t200 131t116 190.5t39.5 231.5q0 113 -26 213.5t-79.5 186t-131.5 147.5t-187.5 96.5t-240.5 34.5q-98 0 -148 -6zM1604 795q0 -126 -36 -242.5t-112 -217t-184 -175t-261 -117.5t-335 -43h-600l16 90l209 67v1184l-209 36l10 93
q377 60 625 60q143 0 263.5 -21t209.5 -58.5t159 -92t115.5 -117t75 -137t42 -150.5t12.5 -159z" />
    <glyph glyph-name="dcircumflexbelow" unicode="&#x1e13;" horiz-adv-x="1232" 
d="M832 159h-12q-134 -185 -337 -185q-169 0 -282.5 135.5t-113.5 376.5q0 128 48 243.5t124 194.5t171 125.5t189 46.5q59 0 118.5 -16.5t90.5 -39.5h10l-16 157v154l-185 67l17 90l337 30l28 -30v-1247q0 -45 7.5 -73t26.5 -43t36.5 -21.5t51.5 -13.5q7 -1 10 -2l55 -12
l-14 -102q-88 -22 -179 -22q-88 0 -134.5 49.5t-46.5 129.5v8zM820 239v570q-46 76 -120 121.5t-139 45.5q-70 0 -121 -31.5t-80.5 -89t-43.5 -130t-14 -163.5q0 -209 74.5 -321t194.5 -112q72 0 143 34t106 76z" />
    <glyph glyph-name="Hdotbelow" unicode="&#x1e24;" horiz-adv-x="1840" 
d="M1049 -326q0 -55 -38.5 -93t-93.5 -38q-54 0 -91.5 38.5t-37.5 92.5q0 53 38 91.5t91 38.5q54 0 93 -38t39 -92zM747 0h-659l10 90l203 57v1222l-221 51l12 92h663l-12 -92l-205 -47v-532h763v528l-223 51l14 92h663l-14 -92l-203 -47v-1234l221 -41l-12 -98h-661l14 90
l201 57v572l-763 -2v-578l225 -41z" />
    <glyph glyph-name="hdotbelow" unicode="&#x1e25;" horiz-adv-x="1260" 
d="M754 -331q0 -55 -38.5 -93t-93.5 -38q-54 0 -91.5 38.5t-37.5 92.5q0 53 38 91.5t91 38.5q54 0 93 -38t39 -92zM1062 729v-590l177 -43l-14 -96h-546l14 90l164 49l4 558v8q0 62 -19 107.5t-50.5 70t-66.5 36t-74 11.5q-128 0 -235 -109v-680l178 -43l-14 -98h-566l14 96
l187 45v1218l-195 65l14 92l352 28l30 -30v-480l-20 -128h14q170 190 357 190q68 0 118.5 -16.5t92 -56t63 -113.5t21.5 -181z" />
    <glyph glyph-name="Idieresisacute" unicode="&#x1e2e;" horiz-adv-x="840" 
d="M651 2189l-223 -386l-62 39l149 395zM581 1821q42 0 74.5 -26.5t32.5 -67.5q0 -43 -32 -70.5t-75 -27.5q-41 0 -71.5 27.5t-30.5 70.5q0 42 31 68t71 26zM256 1821q42 0 73 -26.5t31 -67.5q0 -43 -31 -70.5t-73 -27.5q-41 0 -71.5 27.5t-30.5 70.5q0 42 31 68t71 26z
M746 0h-657l10 90l203 57v1222l-221 51l12 92h663l-12 -92l-207 -47v-1234l221 -41z" />
    <glyph glyph-name="idieresisacute" unicode="&#x1e2f;" horiz-adv-x="678" 
d="M564 2026l-223 -386l-62 39l149 395zM508 1443q42 0 74.5 -26.5t32.5 -67.5q0 -43 -32 -70.5t-75 -27.5q-41 0 -71.5 27.5t-30.5 70.5q0 42 31 68t71 26zM183 1443q42 0 73 -26.5t31 -67.5q0 -43 -31 -70.5t-73 -27.5q-41 0 -71.5 27.5t-30.5 70.5q0 42 31 68t71 26z
M74 96l185 45v748l-185 67l16 92l342 28l30 -30v-905l195 -43l-14 -98h-583z" />
    <glyph glyph-name="Ldotbelow" unicode="&#x1e36;" horiz-adv-x="1361" 
d="M860 -331q0 -55 -38.5 -93t-93.5 -38q-54 0 -91.5 38.5t-37.5 92.5q0 53 38 91.5t91 38.5q54 0 93 -38t39 -92zM759 1512l-12 -92l-209 -57v-1247h538l159 302l104 -16l-46 -402h-1203l10 90l203 57v1212l-229 61l16 92h669z" />
    <glyph glyph-name="ldotbelow" unicode="&#x1e37;" horiz-adv-x="632" 
d="M448 -331q0 -55 -38.5 -93t-93.5 -38q-54 0 -91.5 38.5t-37.5 92.5q0 53 38 91.5t91 38.5q54 0 93 -38t39 -92zM417 141l194 -43l-14 -98h-582l14 96l185 45v1218l-191 65l14 92l350 28l30 -30v-1373z" />
    <glyph glyph-name="Lcircumflexbelow" unicode="&#x1e3c;" horiz-adv-x="1361" 
d="M738 -114l216 -225l-60 -45l-199 133h-12l-170 -135l-46 37l204 218zM759 1512l-12 -92l-209 -57v-1247h538l159 302l104 -16l-46 -402h-1203l10 90l203 57v1212l-229 61l16 92h669z" />
    <glyph glyph-name="lcircumflexbelow" unicode="&#x1e3d;" horiz-adv-x="632" 
d="M326 -170l216 -225l-60 -45l-199 133h-12l-170 -135l-46 37l204 218zM418 141l194 -43l-14 -98h-582l14 96l185 45v1218l-191 65l14 92l350 28l30 -30v-1373z" />
    <glyph glyph-name="Macute" unicode="&#x1e3e;" horiz-adv-x="2091" 
d="M1234 1986l-223 -386l-62 39l149 395zM910 38l-417 1137l-78 -1036l224 -41l-16 -98h-584l14 90l203 57l88 1222l-223 51l14 92h486l97 -235l317 -902l377 942l85 195h480l-12 -92l-205 -47l64 -1234l221 -41l-12 -98h-651l14 90l201 57l-68 1074l-464 -1159z" />
    <glyph glyph-name="macute" unicode="&#x1e3f;" horiz-adv-x="1953" 
d="M1243 1580l-223 -386l-62 39l149 395zM1096 889h14q64 83 158 137t202 54q287 0 287 -339v-600l168 -43l-16 -96h-518l10 88l151 49v572q0 91 -54 152t-149 61q-73 0 -127 -32.5t-106 -88.5v-664l181 -43l-12 -96h-540l14 90l159 49v572q0 95 -59 154t-148 59
q-148 0 -241 -105v-680l174 -43l-12 -96h-562l12 90l183 49v736l-195 61l12 92l370 50l22 -24l-22 -154h12q65 80 161.5 135t203.5 55q92 0 166 -48.5t101 -152.5z" />
    <glyph glyph-name="Ndotaccent" unicode="&#x1e44;" horiz-adv-x="1728" 
d="M843 1942q61 0 105 -40.5t44 -98.5q0 -61 -44.5 -105t-104.5 -44t-102 44.5t-42 106.5q0 58 43 97.5t101 39.5zM1265 -36l-807 1205v-1030l222 -41l-12 -98h-578l10 90l203 57v1212l-221 61l12 92h428l781 -1181v1038l-225 51l14 92h578l-16 -92l-203 -47v-1371z" />
    <glyph glyph-name="ndotaccent" unicode="&#x1e45;" horiz-adv-x="1313" 
d="M664 1494q61 0 105 -40.5t44 -98.5q0 -61 -44.5 -105t-104.5 -44t-102 44.5t-42 106.5q0 58 43 97.5t101 39.5zM1116 749v-610l175 -43l-12 -96h-548l14 88l167 51v562q0 113 -58 169t-153 56q-67 0 -130 -27.5t-109 -77.5v-682l180 -43l-16 -96h-564l12 88l183 51v738
l-187 63l12 92l362 48l22 -24l-22 -154h12q68 82 164 136t203 54q142 0 217.5 -89.5t75.5 -253.5z" />
    <glyph glyph-name="Ndotbelow" unicode="&#x1e46;" horiz-adv-x="1728" 
d="M1036 -331q0 -55 -38.5 -93t-93.5 -38q-54 0 -91.5 38.5t-37.5 92.5q0 53 38 91.5t91 38.5q54 0 93 -38t39 -92zM1265 -36l-807 1205v-1030l222 -41l-12 -98h-578l10 90l203 57v1212l-221 61l12 92h428l781 -1181v1038l-225 51l14 92h578l-16 -92l-203 -47v-1371z" />
    <glyph glyph-name="ndotbelow" unicode="&#x1e47;" horiz-adv-x="1312" 
d="M807 -331q0 -55 -38.5 -93t-93.5 -38q-54 0 -91.5 38.5t-37.5 92.5q0 53 38 91.5t91 38.5q54 0 93 -38t39 -92zM1116 749v-610l175 -43l-12 -96h-548l14 88l167 51v562q0 113 -58 169t-153 56q-67 0 -130 -27.5t-109 -77.5v-682l180 -43l-16 -96h-564l12 88l183 51v738
l-187 63l12 92l362 48l22 -24l-22 -154h12q68 82 164 136t203 54q142 0 217.5 -89.5t75.5 -253.5z" />
    <glyph glyph-name="Ncircumflexbelow" unicode="&#x1e4a;" horiz-adv-x="1728" 
d="M838 -174l216 -225l-60 -45l-199 133h-12l-170 -135l-46 37l204 218zM1265 -36l-807 1205v-1030l222 -41l-12 -98h-578l10 90l203 57v1212l-221 61l12 92h428l781 -1181v1038l-225 51l14 92h578l-16 -92l-203 -47v-1371z" />
    <glyph glyph-name="ncircumflexbelow" unicode="&#x1e4b;" horiz-adv-x="1312" 
d="M694 -118l216 -225l-60 -45l-199 133h-12l-170 -135l-46 37l204 218zM1116 749v-610l175 -43l-12 -96h-548l14 88l167 51v562q0 113 -58 169t-153 56q-67 0 -130 -27.5t-109 -77.5v-682l180 -43l-16 -96h-564l12 88l183 51v738l-187 63l12 92l362 48l22 -24l-22 -154h12
q68 82 164 136t203 54q142 0 217.5 -89.5t75.5 -253.5z" />
    <glyph glyph-name="Otildeacute" unicode="&#x1e4c;" horiz-adv-x="1684" 
d="M737 1971l-223 -386l-62 39l149 395zM721 1659q2 7 5 18.5t16 41.5t28.5 53t42 41.5t56.5 18.5q11 0 16 -1l271 -36h5q14 0 31 12.5t27 24.5l10 13l58 -2q-2 -7 -5.5 -19t-17.5 -42t-30.5 -53t-44.5 -42t-60 -19q-10 0 -15 1l-271 38h-3q-16 -1 -34 -15q-19 -14 -29 -28
l-10 -15zM826 1430q-456 0 -456 -607q0 -110 17 -212.5t55 -197t93.5 -164.5t139 -111.5t185.5 -41.5q107 0 189 35t131.5 91t81 136.5t43 162t11.5 176.5q0 107 -17 209t-55.5 198t-94 167.5t-139 115t-184.5 43.5zM1587 753q0 -159 -52.5 -300t-150 -249.5t-249 -172
t-335.5 -63.5q-205 0 -366.5 104.5t-248 283t-86.5 397.5q0 233 94.5 413t273.5 281t417 101q129 0 241.5 -41.5t196.5 -115.5t144 -174t90.5 -218t30.5 -246z" />
    <glyph glyph-name="otildeacute" unicode="&#x1e4d;" 
d="M1019 1511l-223 -386l-62 39l149 395zM142 1235q2 7 5 18.5t16 41.5t28.5 53t42 41.5t56.5 18.5q11 0 16 -1l271 -36h5q14 0 31 12.5t27 24.5l10 13l58 -2q-2 -7 -5.5 -19t-17.5 -42t-30.5 -53t-44.5 -42t-60 -19q-10 0 -15 1l-271 38h-3q-16 -1 -34 -15q-19 -14 -29 -28
l-10 -15zM301 604q0 -99 18 -187.5t54.5 -164.5t101.5 -121t151 -45q81 0 140 53t85 130t26 167q0 96 -17.5 186t-53 170.5t-98.5 129t-146 48.5q-88 0 -148.5 -53t-86.5 -133t-26 -180zM1094 536q0 -166 -68.5 -296.5t-184.5 -201t-257 -70.5q-234 0 -367 154t-133 396
q0 134 44.5 245.5t119 183.5t169 111.5t197.5 39.5q222 0 351 -154t129 -408z" />
    <glyph glyph-name="Omacrongrave" unicode="&#x1e50;" horiz-adv-x="1684" 
d="M650 2088l140 46l161 -406l-70 -42zM571 -180h536l-16 -122h-536zM826 1430q-456 0 -456 -607q0 -110 17 -212.5t55 -197t93.5 -164.5t139 -111.5t185.5 -41.5q107 0 189 35t131.5 91t81 136.5t43 162t11.5 176.5q0 107 -17 209t-55.5 198t-94 167.5t-139 115
t-184.5 43.5zM1587 753q0 -159 -52.5 -300t-150 -249.5t-249 -172t-335.5 -63.5q-205 0 -366.5 104.5t-248 283t-86.5 397.5q0 233 94.5 413t273.5 281t417 101q129 0 241.5 -41.5t196.5 -115.5t144 -174t90.5 -218t30.5 -246z" />
    <glyph glyph-name="Omacronacute" unicode="&#x1e52;" horiz-adv-x="1684" 
d="M1095 2049l-223 -386l-62 39l149 395zM569 -155h536l-16 -122h-536zM826 1430q-456 0 -456 -607q0 -110 17 -212.5t55 -197t93.5 -164.5t139 -111.5t185.5 -41.5q107 0 189 35t131.5 91t81 136.5t43 162t11.5 176.5q0 107 -17 209t-55.5 198t-94 167.5t-139 115
t-184.5 43.5zM1587 753q0 -159 -52.5 -300t-150 -249.5t-249 -172t-335.5 -63.5q-205 0 -366.5 104.5t-248 283t-86.5 397.5q0 233 94.5 413t273.5 281t417 101q129 0 241.5 -41.5t196.5 -115.5t144 -174t90.5 -218t30.5 -246z" />
    <glyph glyph-name="Sdotbelow" unicode="&#x1e62;" horiz-adv-x="1146" 
d="M672 -331q0 -55 -38.5 -93t-93.5 -38q-54 0 -91.5 38.5t-37.5 92.5q0 53 38 91.5t91 38.5q54 0 93 -38t39 -92zM926 1078l-120 14l-32 233q-20 39 -79 77t-126 38q-98 0 -160.5 -58t-62.5 -171q0 -56 24.5 -103.5t65.5 -83.5t94.5 -68.5t112 -63t117.5 -62.5t112.5 -71.5
t94.5 -85t65.5 -108t24.5 -135.5q0 -102 -45.5 -189.5t-120.5 -146t-172.5 -91.5t-201.5 -33q-126 0 -237 51.5t-173 127.5l16 325l125 -18l46 -229q35 -56 102.5 -94.5t148.5 -38.5q51 0 100 15t92.5 44t70 80t26.5 116q0 64 -38.5 117.5t-100 93.5t-135.5 79t-148.5 83.5
t-136 96.5t-100 127.5t-38.5 167.5q0 132 69 232t175 149t228 49q198 0 344 -122z" />
    <glyph glyph-name="sdotbelow" unicode="&#x1e63;" horiz-adv-x="891" 
d="M566 -331q0 -55 -38.5 -93t-93.5 -38q-54 0 -91.5 38.5t-37.5 92.5q0 53 38 91.5t91 38.5q54 0 93 -38t39 -92zM602 715l-10 52q-44 225 -180 225q-62 0 -99.5 -42t-37.5 -103q0 -46 29.5 -86.5t76.5 -72t104 -62.5t114 -66.5t104 -75t76.5 -95.5t29.5 -122
q0 -131 -114.5 -220t-260.5 -89q-157 0 -254.5 63.5t-97.5 149.5q0 63 44 108.5t117 51.5q38 -125 98 -189t131 -64t115.5 30t44.5 93q0 39 -29 74t-75 64t-101.5 58.5t-111 65t-101.5 75.5t-75 97t-29 124q0 43 14 89t44 90.5t71.5 79.5t102.5 56.5t132 21.5
q126 0 211.5 -53t85.5 -150q0 -76 -45 -124t-124 -54z" />
    <glyph glyph-name="tdotbelow" unicode="&#x1e6d;" horiz-adv-x="813" 
d="M719 -331q0 -55 -38.5 -93t-93.5 -38q-54 0 -91.5 38.5t-37.5 92.5q0 53 38 91.5t91 38.5q54 0 93 -38t39 -92zM345 1323h65v-267h343l-10 -106h-335l-4 -554v-8q0 -134 41.5 -186.5t136.5 -52.5q40 0 84 17t68 34l23 17l26 -66q-57 -83 -142 -131t-187 -48
q-59 0 -104 16t-81 53.5t-55 106t-19 167.5v38l4 599h-155v66q153 120 301 305z" />
    <glyph glyph-name="Tcircumflexbelow" unicode="&#x1e70;" horiz-adv-x="1415" 
d="M720 -98l216 -225l-60 -45l-199 133h-12l-170 -135l-46 37l204 218zM40 1512h1351l-42 -410l-114 18l-48 281h-370v-1262l225 -41l-16 -98h-657l10 90l205 57v1254h-359l-64 -295l-111 16z" />
    <glyph glyph-name="tcircumflexbelow" unicode="&#x1e71;" horiz-adv-x="813" 
d="M490 -118l216 -225l-60 -45l-199 133h-12l-170 -135l-46 37l204 218zM345 1323h65v-267h343l-10 -106h-335l-4 -554v-8q0 -134 41.5 -186.5t136.5 -52.5q40 0 84 17t68 34l23 17l26 -66q-57 -83 -142 -131t-187 -48q-59 0 -104 16t-81 53.5t-55 106t-19 167.5v38l4 599
h-155v66q153 120 301 305z" />
    <glyph glyph-name="Wgrave" unicode="&#x1e80;" horiz-adv-x="2163" 
d="M872 2024l140 46l161 -406l-70 -42zM1410 -30l-318 1187l-347 -1151l-197 -36l-397 1399l-169 51l10 92h625l-17 -92l-204 -47l295 -1042l341 1121l215 30l301 -1133l317 1020l-220 51l14 92h546l-14 -92l-149 -47l-444 -1367z" />
    <glyph glyph-name="wgrave" unicode="&#x1e81;" horiz-adv-x="1500" 
d="M585 1576l140 46l161 -406l-70 -42zM855 1008l167 -588l26 -135l165 637l-183 50l12 92h466l-14 -90l-131 -50l-259 -936l-144 -22l-211 747l-191 -725l-144 -22l-277 956l-141 50l12 92h506l-12 -90l-165 -50l137 -486l28 -145l185 693z" />
    <glyph glyph-name="Wacute" unicode="&#x1e82;" horiz-adv-x="2163" 
d="M1377 2032l-223 -386l-62 39l149 395zM1410 -30l-318 1187l-347 -1151l-197 -36l-397 1399l-169 51l10 92h625l-17 -92l-204 -47l295 -1042l341 1121l215 30l301 -1133l317 1020l-220 51l14 92h546l-14 -92l-149 -47l-444 -1367z" />
    <glyph glyph-name="wacute" unicode="&#x1e83;" horiz-adv-x="1500" 
d="M960 1584l-223 -386l-62 39l149 395zM855 1008l167 -588l26 -135l165 637l-183 50l12 92h466l-14 -90l-131 -50l-259 -936l-144 -22l-211 747l-191 -725l-144 -22l-277 956l-141 50l12 92h506l-12 -90l-165 -50l137 -486l28 -145l185 693z" />
    <glyph glyph-name="Wdieresis" unicode="&#x1e84;" horiz-adv-x="2163" 
d="M1301 1861q42 0 74.5 -26.5t32.5 -67.5q0 -43 -32 -70.5t-75 -27.5q-41 0 -71.5 27.5t-30.5 70.5q0 42 31 68t71 26zM976 1861q42 0 73 -26.5t31 -67.5q0 -43 -31 -70.5t-73 -27.5q-41 0 -71.5 27.5t-30.5 70.5q0 42 31 68t71 26zM1410 -30l-318 1187l-347 -1151
l-197 -36l-397 1399l-169 51l10 92h625l-17 -92l-204 -47l295 -1042l341 1121l215 30l301 -1133l317 1020l-220 51l14 92h546l-14 -92l-149 -47l-444 -1367z" />
    <glyph glyph-name="wdieresis" unicode="&#x1e85;" horiz-adv-x="1500" 
d="M933 1413q42 0 74.5 -26.5t32.5 -67.5q0 -43 -32 -70.5t-75 -27.5q-41 0 -71.5 27.5t-30.5 70.5q0 42 31 68t71 26zM608 1413q42 0 73 -26.5t31 -67.5q0 -43 -31 -70.5t-73 -27.5q-41 0 -71.5 27.5t-30.5 70.5q0 42 31 68t71 26zM855 1008l167 -588l26 -135l165 637
l-183 50l12 92h466l-14 -90l-131 -50l-259 -936l-144 -22l-211 747l-191 -725l-144 -22l-277 956l-141 50l12 92h506l-12 -90l-165 -50l137 -486l28 -145l185 693z" />
    <glyph glyph-name="Zdotbelow" unicode="&#x1e92;" horiz-adv-x="1376" 
d="M831 -331q0 -55 -38.5 -93t-93.5 -38q-54 0 -91.5 38.5t-37.5 92.5q0 53 38 91.5t91 38.5q54 0 93 -38t39 -92zM138 1512h1129v-92l-930 -1298h693l150 304l113 -18l-69 -408h-1138l-10 126l906 1271h-653l-94 -299l-109 22z" />
    <glyph glyph-name="zdotbelow" unicode="&#x1e93;" horiz-adv-x="1038" 
d="M695 -328q0 -55 -38.5 -93t-93.5 -38q-54 0 -91.5 38.5t-37.5 92.5q0 53 38 91.5t91 38.5q54 0 93 -38t39 -92zM117 1062h817v-90l-611 -852h438l115 215l82 -10l-50 -325h-816l-6 106l597 842h-410l-72 -225l-94 16z" />
    <glyph glyph-name="uni1E9E" unicode="&#x1e9e;" horiz-adv-x="1617" 
d="M1075 1373q-80 0 -145.5 -68t-65.5 -159q0 -57 23 -105t61.5 -83.5t89 -67t106 -60t110.5 -58t105.5 -66.5t89 -80t61.5 -103.5t23 -132.5q0 -102 -39.5 -183t-108 -132t-159 -78t-195.5 -27q-134 0 -247 48t-163 131l16 315l117 -18l44 -219q35 -55 107 -94t154 -39
q249 0 249 215q0 63 -36 114t-93.5 87t-127.5 70.5t-140 74t-127.5 87t-93.5 120t-36 162.5q0 150 83 261t214 141l2 4q-48 4 -107 4q-357 0 -357 -478l2 -956h-448l10 90l203 57v781q0 160 43 279t123.5 192.5t190.5 109t249 35.5q75 0 150 -7t157 -25.5t143.5 -47.5
t102 -78t40.5 -111q0 -67 -36 -104t-113 -63q-15 44 -23 66t-24.5 59t-32 57t-38 42t-51 31.5t-62.5 9.5z" />
    <glyph glyph-name="Adotbelow" unicode="&#x1ea0;" horiz-adv-x="1483" 
d="M785 -332q0 -55 -38.5 -93t-93.5 -38q-54 0 -91.5 38.5t-37.5 92.5q0 53 38 91.5t91 38.5q54 0 93 -38t39 -92zM845 1542l473 -1391l167 -53l-10 -98h-626l14 90l208 67l-132 369h-510l-137 -375l227 -53l-14 -98h-570l12 90l181 67l532 1347zM475 649h428l-203 608z" />
    <glyph glyph-name="adotbelow" unicode="&#x1ea1;" horiz-adv-x="1032" 
d="M677 -331q0 -55 -38.5 -93t-93.5 -38q-54 0 -91.5 38.5t-37.5 92.5q0 53 38 91.5t91 38.5q54 0 93 -38t39 -92zM637 520q-189 -37 -268.5 -101.5t-79.5 -157.5q0 -52 37 -96.5t100 -44.5q57 0 116 34t95 75v291zM849 -22q-96 0 -142 49.5t-46 113.5v18h-14
q-14 -28 -38.5 -57t-64 -60.5t-99.5 -51.5t-130 -20q-101 0 -170 63.5t-69 171.5q0 69 32.5 132t98 116.5t176 90t254.5 46.5v67q0 66 -10 120.5t-33.5 101.5t-67 73t-104.5 26q-38 0 -62.5 -15t-37 -47.5t-19 -67.5t-12.5 -90q-2 -26 -4 -39q-25 0 -43 1.5t-43.5 8.5
t-42 19.5t-28.5 37.5t-12 59q0 63 69 123t165.5 94t181.5 34q161 0 231 -90t70 -285v-442q0 -85 25.5 -117t109.5 -46l60 -10l-14 -104q-20 -3 -50 -9.5t-57.5 -10.5t-59.5 -4z" />
    <glyph glyph-name="Acircumflexacute" unicode="&#x1ea4;" horiz-adv-x="1487" 
d="M849 1542l473 -1391l167 -53l-10 -98h-626l14 90l208 67l-132 369h-510l-137 -375l227 -53l-14 -98h-570l12 90l181 67l532 1347zM479 649h428l-203 608zM668 1926l216 -225l-60 -45l-199 133h-12l-170 -135l-46 37l204 218zM1248 2028l-223 -386l-62 39l149 395z" />
    <glyph glyph-name="acircumflexacute" unicode="&#x1ea5;" horiz-adv-x="1032" 
d="M964 1545l-223 -386l-62 39l149 395zM392 1480l216 -225l-60 -45l-199 133h-12l-170 -135l-46 37l204 218zM637 520q-189 -37 -268.5 -101.5t-79.5 -157.5q0 -52 37 -96.5t100 -44.5q57 0 116 34t95 75v291zM849 -22q-96 0 -142 49.5t-46 113.5v18h-14q-14 -28 -38.5 -57
t-64 -60.5t-99.5 -51.5t-130 -20q-101 0 -170 63.5t-69 171.5q0 69 32.5 132t98 116.5t176 90t254.5 46.5v67q0 66 -10 120.5t-33.5 101.5t-67 73t-104.5 26q-38 0 -62.5 -15t-37 -47.5t-19 -67.5t-12.5 -90q-2 -26 -4 -39q-25 0 -43 1.5t-43.5 8.5t-42 19.5t-28.5 37.5
t-12 59q0 63 69 123t165.5 94t181.5 34q161 0 231 -90t70 -285v-442q0 -85 25.5 -117t109.5 -46l60 -10l-14 -104q-20 -3 -50 -9.5t-57.5 -10.5t-59.5 -4z" />
    <glyph glyph-name="Acircumflexgrave" unicode="&#x1ea6;" horiz-adv-x="1487" 
d="M849 1542l473 -1391l167 -53l-10 -98h-626l14 90l208 67l-132 369h-510l-137 -375l227 -53l-14 -98h-570l12 90l181 67l532 1347zM479 649h428l-203 608zM604 1928l216 -225l-60 -45l-199 133h-12l-170 -135l-46 37l204 218zM759 2048l140 46l161 -406l-70 -42z" />
    <glyph glyph-name="acircumflexgrave" unicode="&#x1ea7;" horiz-adv-x="1032" 
d="M608 1559l140 46l161 -406l-70 -42zM413 1480l216 -225l-60 -45l-199 133h-12l-170 -135l-46 37l204 218zM637 520q-189 -37 -268.5 -101.5t-79.5 -157.5q0 -52 37 -96.5t100 -44.5q57 0 116 34t95 75v291zM849 -22q-96 0 -142 49.5t-46 113.5v18h-14q-14 -28 -38.5 -57
t-64 -60.5t-99.5 -51.5t-130 -20q-101 0 -170 63.5t-69 171.5q0 69 32.5 132t98 116.5t176 90t254.5 46.5v67q0 66 -10 120.5t-33.5 101.5t-67 73t-104.5 26q-38 0 -62.5 -15t-37 -47.5t-19 -67.5t-12.5 -90q-2 -26 -4 -39q-25 0 -43 1.5t-43.5 8.5t-42 19.5t-28.5 37.5
t-12 59q0 63 69 123t165.5 94t181.5 34q161 0 231 -90t70 -285v-442q0 -85 25.5 -117t109.5 -46l60 -10l-14 -104q-20 -3 -50 -9.5t-57.5 -10.5t-59.5 -4z" />
    <glyph glyph-name="acircumflexhookabove" unicode="&#x1ea9;" horiz-adv-x="1032" 
d="M547 1480l216 -225l-60 -45l-199 133h-12l-170 -135l-46 37l204 218zM637 520q-189 -37 -268.5 -101.5t-79.5 -157.5q0 -52 37 -96.5t100 -44.5q57 0 116 34t95 75v291zM849 -22q-96 0 -142 49.5t-46 113.5v18h-14q-14 -28 -38.5 -57t-64 -60.5t-99.5 -51.5t-130 -20
q-101 0 -170 63.5t-69 171.5q0 69 32.5 132t98 116.5t176 90t254.5 46.5v67q0 66 -10 120.5t-33.5 101.5t-67 73t-104.5 26q-38 0 -62.5 -15t-37 -47.5t-19 -67.5t-12.5 -90q-2 -26 -4 -39q-25 0 -43 1.5t-43.5 8.5t-42 19.5t-28.5 37.5t-12 59q0 63 69 123t165.5 94
t181.5 34q161 0 231 -90t70 -285v-442q0 -85 25.5 -117t109.5 -46l60 -10l-14 -104q-20 -3 -50 -9.5t-57.5 -10.5t-59.5 -4z" />
    <glyph glyph-name="Acircumflextilde" unicode="&#x1eaa;" horiz-adv-x="1487" 
d="M849 1542l473 -1391l167 -53l-10 -98h-626l14 90l208 67l-132 369h-510l-137 -375l227 -53l-14 -98h-570l12 90l181 67l532 1347zM479 649h428l-203 608zM795 2085l216 -225l-60 -45l-199 133h-12l-170 -135l-46 37l204 218zM480 1641q2 7 5 18.5t16 41.5t28.5 53
t42 41.5t56.5 18.5q11 0 16 -1l271 -36h5q14 0 31 12.5t27 24.5l10 13l58 -2q-2 -7 -5.5 -19t-17.5 -42t-30.5 -53t-44.5 -42t-60 -19q-10 0 -15 1l-271 38h-3q-16 0 -34 -14.5t-28 -28.5l-11 -15z" />
    <glyph glyph-name="acircumflextilde" unicode="&#x1eab;" horiz-adv-x="1032" 
d="M245 1484q2 7 5 18.5t16 41.5t28.5 53t42 41.5t56.5 18.5q11 0 16 -1l271 -36h5q14 0 31 12q17 14 27 26l10 12l58 -2q-2 -7 -5.5 -19t-17.5 -42t-30.5 -53t-44.5 -42t-60 -19q-10 0 -15 1l-271 38h-3q-16 0 -34 -14q-18 -16 -28 -30l-11 -14zM547 1440l216 -225l-60 -45
l-199 133h-12l-170 -135l-46 37l204 218zM637 520q-189 -37 -268.5 -101.5t-79.5 -157.5q0 -52 37 -96.5t100 -44.5q57 0 116 34t95 75v291zM849 -22q-96 0 -142 49.5t-46 113.5v18h-14q-14 -28 -38.5 -57t-64 -60.5t-99.5 -51.5t-130 -20q-101 0 -170 63.5t-69 171.5
q0 69 32.5 132t98 116.5t176 90t254.5 46.5v67q0 66 -10 120.5t-33.5 101.5t-67 73t-104.5 26q-38 0 -62.5 -15t-37 -47.5t-19 -67.5t-12.5 -90q-2 -26 -4 -39q-25 0 -43 1.5t-43.5 8.5t-42 19.5t-28.5 37.5t-12 59q0 63 69 123t165.5 94t181.5 34q161 0 231 -90t70 -285
v-442q0 -85 25.5 -117t109.5 -46l60 -10l-14 -104q-20 -3 -50 -9.5t-57.5 -10.5t-59.5 -4z" />
    <glyph glyph-name="Acircumflexdotbelow" unicode="&#x1eac;" horiz-adv-x="1483" 
d="M793 1901l216 -225l-60 -45l-199 133h-12l-170 -135l-46 37l204 218zM813 -335q0 -55 -38.5 -93t-93.5 -38q-54 0 -91.5 38.5t-37.5 92.5q0 53 38 91.5t91 38.5q54 0 93 -38t39 -92zM845 1542l473 -1391l167 -53l-10 -98h-626l14 90l208 67l-132 369h-510l-137 -375
l227 -53l-14 -98h-570l12 90l181 67l532 1347zM475 649h428l-203 608z" />
    <glyph glyph-name="acircumflexdotbelow" unicode="&#x1ead;" horiz-adv-x="1032" 
d="M546 1544l216 -225l-60 -45l-199 133h-12l-170 -135l-46 37l204 218zM677 -331q0 -55 -38.5 -93t-93.5 -38q-54 0 -91.5 38.5t-37.5 92.5q0 53 38 91.5t91 38.5q54 0 93 -38t39 -92zM637 520q-189 -37 -268.5 -101.5t-79.5 -157.5q0 -52 37 -96.5t100 -44.5q57 0 116 34
t95 75v291zM849 -22q-96 0 -142 49.5t-46 113.5v18h-14q-14 -28 -38.5 -57t-64 -60.5t-99.5 -51.5t-130 -20q-101 0 -170 63.5t-69 171.5q0 69 32.5 132t98 116.5t176 90t254.5 46.5v67q0 66 -10 120.5t-33.5 101.5t-67 73t-104.5 26q-38 0 -62.5 -15t-37 -47.5t-19 -67.5
t-12.5 -90q-2 -26 -4 -39q-25 0 -43 1.5t-43.5 8.5t-42 19.5t-28.5 37.5t-12 59q0 63 69 123t165.5 94t181.5 34q161 0 231 -90t70 -285v-442q0 -85 25.5 -117t109.5 -46l60 -10l-14 -104q-20 -3 -50 -9.5t-57.5 -10.5t-59.5 -4z" />
    <glyph glyph-name="Abreveacute" unicode="&#x1eae;" horiz-adv-x="1487" 
d="M849 1542l473 -1391l167 -53l-10 -98h-626l14 90l208 67l-132 369h-510l-137 -375l227 -53l-14 -98h-570l12 90l181 67l532 1347zM479 649h428l-203 608zM1167 2010l-223 -386l-62 39l149 395zM404 1926l56 39l10 -21q21 -41 64 -71.5t100 -30.5q109 0 173 104l12 21
l50 -35l-8 -24q-28 -84 -86 -141t-141 -57q-90 0 -147 56t-77 136z" />
    <glyph glyph-name="abreveacute" unicode="&#x1eaf;" horiz-adv-x="1032" 
d="M703 1855l-223 -386l-62 39l149 395zM286 1445l56 39l10 -21q21 -41 64 -71.5t100 -30.5q109 0 173 104l12 21l50 -35l-8 -24q-28 -84 -86 -141t-141 -57q-90 0 -147 56t-77 136zM637 520q-189 -37 -268.5 -101.5t-79.5 -157.5q0 -52 37 -96.5t100 -44.5q57 0 116 34
t95 75v291zM849 -22q-96 0 -142 49.5t-46 113.5v18h-14q-14 -28 -38.5 -57t-64 -60.5t-99.5 -51.5t-130 -20q-101 0 -170 63.5t-69 171.5q0 69 32.5 132t98 116.5t176 90t254.5 46.5v67q0 66 -10 120.5t-33.5 101.5t-67 73t-104.5 26q-38 0 -62.5 -15t-37 -47.5t-19 -67.5
t-12.5 -90q-2 -26 -4 -39q-25 0 -43 1.5t-43.5 8.5t-42 19.5t-28.5 37.5t-12 59q0 63 69 123t165.5 94t181.5 34q161 0 231 -90t70 -285v-442q0 -85 25.5 -117t109.5 -46l60 -10l-14 -104q-20 -3 -50 -9.5t-57.5 -10.5t-59.5 -4z" />
    <glyph glyph-name="Abrevegrave" unicode="&#x1eb0;" horiz-adv-x="1487" 
d="M849 1542l473 -1391l167 -53l-10 -98h-626l14 90l208 67l-132 369h-510l-137 -375l227 -53l-14 -98h-570l12 90l181 67l532 1347zM479 649h428l-203 608zM318 1818l56 39l10 -21q21 -41 64 -71.5t100 -30.5q109 0 173 104l12 21l50 -35l-8 -24q-28 -84 -86 -141t-141 -57
q-90 0 -147 56t-77 136zM768 1996l140 46l161 -406l-70 -42z" />
    <glyph glyph-name="abrevegrave" unicode="&#x1eb1;" horiz-adv-x="1032" 
d="M280 1855l140 46l161 -406l-70 -42zM286 1445l56 39l10 -21q21 -41 64 -71.5t100 -30.5q109 0 173 104l12 21l50 -35l-8 -24q-28 -84 -86 -141t-141 -57q-90 0 -147 56t-77 136zM637 520q-189 -37 -268.5 -101.5t-79.5 -157.5q0 -52 37 -96.5t100 -44.5q57 0 116 34
t95 75v291zM849 -22q-96 0 -142 49.5t-46 113.5v18h-14q-14 -28 -38.5 -57t-64 -60.5t-99.5 -51.5t-130 -20q-101 0 -170 63.5t-69 171.5q0 69 32.5 132t98 116.5t176 90t254.5 46.5v67q0 66 -10 120.5t-33.5 101.5t-67 73t-104.5 26q-38 0 -62.5 -15t-37 -47.5t-19 -67.5
t-12.5 -90q-2 -26 -4 -39q-25 0 -43 1.5t-43.5 8.5t-42 19.5t-28.5 37.5t-12 59q0 63 69 123t165.5 94t181.5 34q161 0 231 -90t70 -285v-442q0 -85 25.5 -117t109.5 -46l60 -10l-14 -104q-20 -3 -50 -9.5t-57.5 -10.5t-59.5 -4z" />
    <glyph glyph-name="abrevehookabove" unicode="&#x1eb3;" horiz-adv-x="1032" 
d="M286 1445l56 39l10 -21q21 -41 64 -71.5t100 -30.5q109 0 173 104l12 21l50 -35l-8 -24q-28 -84 -86 -141t-141 -57q-90 0 -147 56t-77 136zM637 520q-189 -37 -268.5 -101.5t-79.5 -157.5q0 -52 37 -96.5t100 -44.5q57 0 116 34t95 75v291zM849 -22q-96 0 -142 49.5
t-46 113.5v18h-14q-14 -28 -38.5 -57t-64 -60.5t-99.5 -51.5t-130 -20q-101 0 -170 63.5t-69 171.5q0 69 32.5 132t98 116.5t176 90t254.5 46.5v67q0 66 -10 120.5t-33.5 101.5t-67 73t-104.5 26q-38 0 -62.5 -15t-37 -47.5t-19 -67.5t-12.5 -90q-2 -26 -4 -39
q-25 0 -43 1.5t-43.5 8.5t-42 19.5t-28.5 37.5t-12 59q0 63 69 123t165.5 94t181.5 34q161 0 231 -90t70 -285v-442q0 -85 25.5 -117t109.5 -46l60 -10l-14 -104q-20 -3 -50 -9.5t-57.5 -10.5t-59.5 -4z" />
    <glyph glyph-name="Abrevetilde" unicode="&#x1eb4;" horiz-adv-x="1487" 
d="M849 1542l473 -1391l167 -53l-10 -98h-626l14 90l208 67l-132 369h-510l-137 -375l227 -53l-14 -98h-570l12 90l181 67l532 1347zM479 649h428l-203 608zM528 2072l56 39l10 -21q21 -41 64 -71.5t100 -30.5q109 0 173 104l12 21l50 -35l-8 -24q-28 -84 -86 -141t-141 -57
q-90 0 -147 56t-77 136zM480 1661q2 7 5 18.5t16 41.5t28.5 53t42 41.5t56.5 18.5q11 0 16 -1l271 -36h5q14 0 31 12.5t27 24.5l10 13l58 -2q-2 -7 -5.5 -19t-17.5 -42t-30.5 -53t-44.5 -42t-60 -19q-10 0 -15 1l-271 38h-3q-16 0 -34 -14.5t-28 -28.5l-11 -15z" />
    <glyph glyph-name="abrevetilde" unicode="&#x1eb5;" horiz-adv-x="1032" 
d="M267 1500q2 7 5 18.5t16 41.5t28.5 53t42 41.5t56.5 18.5q11 0 16 -1l271 -36h5q14 0 31 12q17 14 27 26l10 12l58 -2q-2 -7 -5.5 -19t-17.5 -42t-30.5 -53t-44.5 -42t-60 -19q-10 0 -15 1l-271 38h-3q-16 0 -34 -14q-18 -16 -28 -30l-11 -14zM286 1445l56 39l10 -21
q21 -41 64 -71.5t100 -30.5q109 0 173 104l12 21l50 -35l-8 -24q-28 -84 -86 -141t-141 -57q-90 0 -147 56t-77 136zM637 520q-189 -37 -268.5 -101.5t-79.5 -157.5q0 -52 37 -96.5t100 -44.5q57 0 116 34t95 75v291zM849 -22q-96 0 -142 49.5t-46 113.5v18h-14
q-14 -28 -38.5 -57t-64 -60.5t-99.5 -51.5t-130 -20q-101 0 -170 63.5t-69 171.5q0 69 32.5 132t98 116.5t176 90t254.5 46.5v67q0 66 -10 120.5t-33.5 101.5t-67 73t-104.5 26q-38 0 -62.5 -15t-37 -47.5t-19 -67.5t-12.5 -90q-2 -26 -4 -39q-25 0 -43 1.5t-43.5 8.5
t-42 19.5t-28.5 37.5t-12 59q0 63 69 123t165.5 94t181.5 34q161 0 231 -90t70 -285v-442q0 -85 25.5 -117t109.5 -46l60 -10l-14 -104q-20 -3 -50 -9.5t-57.5 -10.5t-59.5 -4z" />
    <glyph glyph-name="Abrevedotbelow" unicode="&#x1eb6;" horiz-adv-x="1483" 
d="M504 1887l56 39l10 -21q21 -41 64 -71.5t100 -30.5q109 0 173 104l12 21l50 -35l-8 -24q-28 -84 -86 -141t-141 -57q-90 0 -147 56t-77 136zM838 -331q0 -55 -38.5 -93t-93.5 -38q-54 0 -91.5 38.5t-37.5 92.5q0 53 38 91.5t91 38.5q54 0 93 -38t39 -92zM845 1542
l473 -1391l167 -53l-10 -98h-626l14 90l208 67l-132 369h-510l-137 -375l227 -53l-14 -98h-570l12 90l181 67l532 1347zM475 649h428l-203 608z" />
    <glyph glyph-name="abrevedotbelow" unicode="&#x1eb7;" horiz-adv-x="1032" 
d="M296 1457l56 39l10 -21q21 -41 64 -71.5t100 -30.5q109 0 173 104l12 21l50 -35l-8 -24q-28 -84 -86 -141t-141 -57q-90 0 -147 56t-77 136zM664 -331q0 -55 -38.5 -93t-93.5 -38q-54 0 -91.5 38.5t-37.5 92.5q0 53 38 91.5t91 38.5q54 0 93 -38t39 -92zM637 520
q-189 -37 -268.5 -101.5t-79.5 -157.5q0 -52 37 -96.5t100 -44.5q57 0 116 34t95 75v291zM849 -22q-96 0 -142 49.5t-46 113.5v18h-14q-14 -28 -38.5 -57t-64 -60.5t-99.5 -51.5t-130 -20q-101 0 -170 63.5t-69 171.5q0 69 32.5 132t98 116.5t176 90t254.5 46.5v67
q0 66 -10 120.5t-33.5 101.5t-67 73t-104.5 26q-38 0 -62.5 -15t-37 -47.5t-19 -67.5t-12.5 -90q-2 -26 -4 -39q-25 0 -43 1.5t-43.5 8.5t-42 19.5t-28.5 37.5t-12 59q0 63 69 123t165.5 94t181.5 34q161 0 231 -90t70 -285v-442q0 -85 25.5 -117t109.5 -46l60 -10l-14 -104
q-20 -3 -50 -9.5t-57.5 -10.5t-59.5 -4z" />
    <glyph glyph-name="Edotbelow" unicode="&#x1eb8;" horiz-adv-x="1425" 
d="M871 -332q0 -55 -38.5 -93t-93.5 -38q-54 0 -91.5 38.5t-37.5 92.5q0 53 38 91.5t91 38.5q54 0 93 -38t39 -92zM92 1512h1211l-38 -388l-105 16l-50 261h-574v-578h353l52 145l115 16l-40 -472l-105 -16l-40 213h-335v-593h604l119 280l100 -15l-36 -381h-1235l10 90
l203 57v1222l-221 51z" />
    <glyph glyph-name="edotbelow" unicode="&#x1eb9;" horiz-adv-x="1019" 
d="M683 -333q0 -55 -38.5 -93t-93.5 -38q-54 0 -91.5 38.5t-37.5 92.5q0 53 38 91.5t91 38.5q54 0 93 -38t39 -92zM891 548l-588 -6q4 -75 26 -146.5t61.5 -133.5t105 -100t146.5 -38h7q52 0 81.5 2.5t79.5 18t108 46.5l26 -65q-73 -76 -177 -119t-223 -43q-88 0 -168.5 36
t-146 103t-104.5 175.5t-39 241.5q0 132 45 242.5t117.5 181t160 109.5t177.5 39q140 0 233 -100t93 -285q0 -71 -21 -159zM305 637l382 26q8 27 8 84q0 227 -169 227q-82 0 -147.5 -86t-73.5 -251z" />
    <glyph glyph-name="Etilde" unicode="&#x1ebc;" horiz-adv-x="1428" 
d="M463 1683q2 7 5 18.5t16 41.5t28.5 53t42 41.5t56.5 18.5q11 0 16 -1l271 -36h5q14 0 31 12.5t27 24.5l10 13l58 -2q-2 -7 -5.5 -19t-17.5 -42t-30.5 -53t-44.5 -42t-60 -19q-10 0 -15 1l-271 38h-3q-16 -1 -34 -15q-19 -14 -29 -28l-10 -15zM93 1512h1211l-38 -388
l-105 16l-50 261h-574v-578h353l52 145l115 16l-40 -472l-105 -16l-40 213h-335v-593h604l119 280l100 -15l-36 -381h-1235l10 90l203 57v1222l-221 51z" />
    <glyph glyph-name="etilde" unicode="&#x1ebd;" horiz-adv-x="1019" 
d="M261 1235q2 7 5 18.5t16 41.5t28.5 53t42 41.5t56.5 18.5q11 0 16 -1l271 -36h5q14 0 31 12.5t27 24.5l10 13l58 -2q-2 -7 -5.5 -19t-17.5 -42t-30.5 -53t-44.5 -42t-60 -19q-10 0 -15 1l-271 38h-3q-16 0 -34 -14.5t-28 -28.5l-11 -15zM891 548l-588 -6q4 -75 26 -146.5
t61.5 -133.5t105 -100t146.5 -38h7q52 0 81.5 2.5t79.5 18t108 46.5l26 -65q-73 -76 -177 -119t-223 -43q-88 0 -168.5 36t-146 103t-104.5 175.5t-39 241.5q0 132 45 242.5t117.5 181t160 109.5t177.5 39q140 0 233 -100t93 -285q0 -71 -21 -159zM305 637l382 26q8 27 8 84
q0 227 -169 227q-82 0 -147.5 -86t-73.5 -251z" />
    <glyph glyph-name="Ecircumflexacute" unicode="&#x1ebe;" horiz-adv-x="1428" 
d="M93 1512h1211l-38 -388l-105 16l-50 261h-574v-578h353l52 145l115 16l-40 -472l-105 -16l-40 213h-335v-593h604l119 280l100 -15l-36 -381h-1235l10 90l203 57v1222l-221 51zM543 1902l216 -225l-60 -45l-199 133h-12l-170 -135l-46 37l204 218zM1201 1990l-223 -386
l-62 39l149 395z" />
    <glyph glyph-name="ecircumflexacute" unicode="&#x1ebf;" horiz-adv-x="1019" 
d="M1040 1549l-223 -386l-62 39l149 395zM432 1480l216 -225l-60 -45l-199 133h-12l-170 -135l-46 37l204 218zM891 548l-588 -6q4 -75 26 -146.5t61.5 -133.5t105 -100t146.5 -38h7q52 0 81.5 2.5t79.5 18t108 46.5l26 -65q-73 -76 -177 -119t-223 -43q-88 0 -168.5 36
t-146 103t-104.5 175.5t-39 241.5q0 132 45 242.5t117.5 181t160 109.5t177.5 39q140 0 233 -100t93 -285q0 -71 -21 -159zM305 637l382 26q8 27 8 84q0 227 -169 227q-82 0 -147.5 -86t-73.5 -251z" />
    <glyph glyph-name="Ecircumflexgrave" unicode="&#x1ec0;" horiz-adv-x="1428" 
d="M93 1512h1211l-38 -388l-105 16l-50 261h-574v-578h353l52 145l115 16l-40 -472l-105 -16l-40 213h-335v-593h604l119 280l100 -15l-36 -381h-1235l10 90l203 57v1222l-221 51zM545 1928l216 -225l-60 -45l-199 133h-12l-170 -135l-46 37l204 218zM800 2024l140 46
l161 -406l-70 -42z" />
    <glyph glyph-name="ecircumflexgrave" unicode="&#x1ec1;" horiz-adv-x="1019" 
d="M97 1524l140 46l161 -406l-70 -42zM723 1480l216 -225l-60 -45l-199 133h-12l-170 -135l-46 37l204 218zM891 548l-588 -6q4 -75 26 -146.5t61.5 -133.5t105 -100t146.5 -38h7q52 0 81.5 2.5t79.5 18t108 46.5l26 -65q-73 -76 -177 -119t-223 -43q-88 0 -168.5 36
t-146 103t-104.5 175.5t-39 241.5q0 132 45 242.5t117.5 181t160 109.5t177.5 39q140 0 233 -100t93 -285q0 -71 -21 -159zM305 637l382 26q8 27 8 84q0 227 -169 227q-82 0 -147.5 -86t-73.5 -251z" />
    <glyph glyph-name="ecircumflexhookabove" unicode="&#x1ec3;" horiz-adv-x="1019" 
d="M577 1480l216 -225l-60 -45l-199 133h-12l-170 -135l-46 37l204 218zM891 548l-588 -6q4 -75 26 -146.5t61.5 -133.5t105 -100t146.5 -38h7q52 0 81.5 2.5t79.5 18t108 46.5l26 -65q-73 -76 -177 -119t-223 -43q-88 0 -168.5 36t-146 103t-104.5 175.5t-39 241.5
q0 132 45 242.5t117.5 181t160 109.5t177.5 39q140 0 233 -100t93 -285q0 -71 -21 -159zM305 637l382 26q8 27 8 84q0 227 -169 227q-82 0 -147.5 -86t-73.5 -251z" />
    <glyph glyph-name="Ecircumflextilde" unicode="&#x1ec4;" horiz-adv-x="1428" 
d="M93 1512h1211l-38 -388l-105 16l-50 261h-574v-578h353l52 145l115 16l-40 -472l-105 -16l-40 213h-335v-593h604l119 280l100 -15l-36 -381h-1235l10 90l203 57v1222l-221 51zM778 2105l216 -225l-60 -45l-199 133h-12l-170 -135l-46 37l204 218zM463 1647q2 7 5 18.5
t16 41.5t28.5 53t42 41.5t56.5 18.5q11 0 16 -1l271 -36h5q14 0 31 12.5t27 24.5l10 13l58 -2q-2 -7 -5.5 -19t-17.5 -42t-30.5 -53t-44.5 -42t-60 -19q-10 0 -15 1l-271 38h-3q-16 -1 -34 -15q-19 -14 -29 -28l-10 -15z" />
    <glyph glyph-name="ecircumflextilde" unicode="&#x1ec5;" horiz-adv-x="1019" 
d="M283 1448q2 7 5 18.5t16 41.5t28.5 53t42 41.5t56.5 18.5q11 0 16 -1l271 -36h5q14 0 31 12q17 14 27 26l10 12l58 -2q-2 -7 -5.5 -19t-17.5 -42t-30.5 -53t-44.5 -42t-60 -19q-10 0 -15 1l-271 38h-3q-16 0 -34 -14q-18 -16 -28 -30l-11 -14zM581 1396l216 -225l-60 -45
l-199 133h-12l-170 -135l-46 37l204 218zM891 548l-588 -6q4 -75 26 -146.5t61.5 -133.5t105 -100t146.5 -38h7q52 0 81.5 2.5t79.5 18t108 46.5l26 -65q-73 -76 -177 -119t-223 -43q-88 0 -168.5 36t-146 103t-104.5 175.5t-39 241.5q0 132 45 242.5t117.5 181t160 109.5
t177.5 39q140 0 233 -100t93 -285q0 -71 -21 -159zM305 637l382 26q8 27 8 84q0 227 -169 227q-82 0 -147.5 -86t-73.5 -251z" />
    <glyph glyph-name="Ecircumflexdotbelow" unicode="&#x1ec6;" horiz-adv-x="1425" 
d="M733 1922l216 -225l-60 -45l-199 133h-12l-170 -135l-46 37l204 218zM849 -338q0 -55 -38.5 -93t-93.5 -38q-54 0 -91.5 38.5t-37.5 92.5q0 53 38 91.5t91 38.5q54 0 93 -38t39 -92zM92 1512h1211l-38 -388l-105 16l-50 261h-574v-578h353l52 145l115 16l-40 -472
l-105 -16l-40 213h-335v-593h604l119 280l100 -15l-36 -381h-1235l10 90l203 57v1222l-221 51z" />
    <glyph glyph-name="ecircumflexdotbelow" unicode="&#x1ec7;" horiz-adv-x="1019" 
d="M587 1494l216 -225l-60 -45l-199 133h-12l-170 -135l-46 37l204 218zM702 -331q0 -55 -38.5 -93t-93.5 -38q-54 0 -91.5 38.5t-37.5 92.5q0 53 38 91.5t91 38.5q54 0 93 -38t39 -92zM891 548l-588 -6q4 -75 26 -146.5t61.5 -133.5t105 -100t146.5 -38h7q52 0 81.5 2.5
t79.5 18t108 46.5l26 -65q-73 -76 -177 -119t-223 -43q-88 0 -168.5 36t-146 103t-104.5 175.5t-39 241.5q0 132 45 242.5t117.5 181t160 109.5t177.5 39q140 0 233 -100t93 -285q0 -71 -21 -159zM305 637l382 26q8 27 8 84q0 227 -169 227q-82 0 -147.5 -86t-73.5 -251z
" />
    <glyph glyph-name="ihookabove" unicode="&#x1ec9;" horiz-adv-x="678" 
d="M74 96l185 45v748l-185 67l16 92l342 28l30 -30v-905l195 -43l-14 -98h-583zM349 1589q61 0 105 -40.5t44 -98.5q0 -61 -44.5 -105t-104.5 -44t-102 44.5t-42 106.5q0 58 43 97.5t101 39.5z" />
    <glyph glyph-name="Idotbelow" unicode="&#x1eca;" horiz-adv-x="838" 
d="M538 -336q0 -55 -38.5 -93t-93.5 -38q-54 0 -91.5 38.5t-37.5 92.5q0 53 38 91.5t91 38.5q54 0 93 -38t39 -92zM745 0h-657l10 90l203 57v1222l-221 51l12 92h663l-12 -92l-207 -47v-1234l221 -41z" />
    <glyph glyph-name="idotbelow" unicode="&#x1ecb;" horiz-adv-x="678" 
d="M492 -331q0 -55 -38.5 -93t-93.5 -38q-54 0 -91.5 38.5t-37.5 92.5q0 53 38 91.5t91 38.5q54 0 93 -38t39 -92zM74 96l185 45v748l-185 67l16 92l342 28l30 -30v-905l195 -43l-14 -98h-583zM349 1589q61 0 105 -40.5t44 -98.5q0 -61 -44.5 -105t-104.5 -44t-102 44.5
t-42 106.5q0 58 43 97.5t101 39.5z" />
    <glyph glyph-name="Odotbelow" unicode="&#x1ecc;" horiz-adv-x="1684" 
d="M958 -331q0 -55 -38.5 -93t-93.5 -38q-54 0 -91.5 38.5t-37.5 92.5q0 53 38 91.5t91 38.5q54 0 93 -38t39 -92zM826 1430q-456 0 -456 -607q0 -110 17 -212.5t55 -197t93.5 -164.5t139 -111.5t185.5 -41.5q107 0 189 35t131.5 91t81 136.5t43 162t11.5 176.5
q0 107 -17 209t-55.5 198t-94 167.5t-139 115t-184.5 43.5zM1587 753q0 -159 -52.5 -300t-150 -249.5t-249 -172t-335.5 -63.5q-205 0 -366.5 104.5t-248 283t-86.5 397.5q0 233 94.5 413t273.5 281t417 101q129 0 241.5 -41.5t196.5 -115.5t144 -174t90.5 -218t30.5 -246z
" />
    <glyph glyph-name="odotbelow" unicode="&#x1ecd;" 
d="M737 -331q0 -55 -38.5 -93t-93.5 -38q-54 0 -91.5 38.5t-37.5 92.5q0 53 38 91.5t91 38.5q54 0 93 -38t39 -92zM301 604q0 -99 18 -187.5t54.5 -164.5t101.5 -121t151 -45q81 0 140 53t85 130t26 167q0 96 -17.5 186t-53 170.5t-98.5 129t-146 48.5q-88 0 -148.5 -53
t-86.5 -133t-26 -180zM1094 536q0 -166 -68.5 -296.5t-184.5 -201t-257 -70.5q-234 0 -367 154t-133 396q0 134 44.5 245.5t119 183.5t169 111.5t197.5 39.5q222 0 351 -154t129 -408z" />
    <glyph glyph-name="Ocircumflexacute" unicode="&#x1ed0;" horiz-adv-x="1684" 
d="M826 1430q-456 0 -456 -607q0 -110 17 -212.5t55 -197t93.5 -164.5t139 -111.5t185.5 -41.5q107 0 189 35t131.5 91t81 136.5t43 162t11.5 176.5q0 107 -17 209t-55.5 198t-94 167.5t-139 115t-184.5 43.5zM1587 753q0 -159 -52.5 -300t-150 -249.5t-249 -172
t-335.5 -63.5q-205 0 -366.5 104.5t-248 283t-86.5 397.5q0 233 94.5 413t273.5 281t417 101q129 0 241.5 -41.5t196.5 -115.5t144 -174t90.5 -218t30.5 -246zM614 1928l216 -225l-60 -45l-199 133h-12l-170 -135l-46 37l204 218zM1268 2032l-223 -386l-62 39l149 395z" />
    <glyph glyph-name="ocircumflexacute" unicode="&#x1ed1;" 
d="M1049 1534l-223 -386l-62 39l149 395zM485 1480l216 -225l-60 -45l-199 133h-12l-170 -135l-46 37l204 218zM301 604q0 -99 18 -187.5t54.5 -164.5t101.5 -121t151 -45q81 0 140 53t85 130t26 167q0 96 -17.5 186t-53 170.5t-98.5 129t-146 48.5q-88 0 -148.5 -53
t-86.5 -133t-26 -180zM1094 536q0 -166 -68.5 -296.5t-184.5 -201t-257 -70.5q-234 0 -367 154t-133 396q0 134 44.5 245.5t119 183.5t169 111.5t197.5 39.5q222 0 351 -154t129 -408z" />
    <glyph glyph-name="Ocircumflexgrave" unicode="&#x1ed2;" horiz-adv-x="1684" 
d="M826 1430q-456 0 -456 -607q0 -110 17 -212.5t55 -197t93.5 -164.5t139 -111.5t185.5 -41.5q107 0 189 35t131.5 91t81 136.5t43 162t11.5 176.5q0 107 -17 209t-55.5 198t-94 167.5t-139 115t-184.5 43.5zM1587 753q0 -159 -52.5 -300t-150 -249.5t-249 -172
t-335.5 -63.5q-205 0 -366.5 104.5t-248 283t-86.5 397.5q0 233 94.5 413t273.5 281t417 101q129 0 241.5 -41.5t196.5 -115.5t144 -174t90.5 -218t30.5 -246zM740 1928l216 -225l-60 -45l-199 133h-12l-170 -135l-46 37l204 218zM886 2024l140 46l161 -406l-70 -42z" />
    <glyph glyph-name="ocircumflexgrave" unicode="&#x1ed3;" 
d="M657 1594l140 46l161 -406l-70 -42zM443 1516l216 -225l-60 -45l-199 133h-12l-170 -135l-46 37l204 218zM301 604q0 -99 18 -187.5t54.5 -164.5t101.5 -121t151 -45q81 0 140 53t85 130t26 167q0 96 -17.5 186t-53 170.5t-98.5 129t-146 48.5q-88 0 -148.5 -53
t-86.5 -133t-26 -180zM1094 536q0 -166 -68.5 -296.5t-184.5 -201t-257 -70.5q-234 0 -367 154t-133 396q0 134 44.5 245.5t119 183.5t169 111.5t197.5 39.5q222 0 351 -154t129 -408z" />
    <glyph glyph-name="Ocircumflexhookabove" unicode="&#x1ed4;" horiz-adv-x="1684" 
d="M885 1928l216 -225l-60 -45l-199 133h-12l-170 -135l-46 37l204 218zM826 1430q-456 0 -456 -607q0 -110 17 -212.5t55 -197t93.5 -164.5t139 -111.5t185.5 -41.5q107 0 189 35t131.5 91t81 136.5t43 162t11.5 176.5q0 107 -17 209t-55.5 198t-94 167.5t-139 115
t-184.5 43.5zM1587 753q0 -159 -52.5 -300t-150 -249.5t-249 -172t-335.5 -63.5q-205 0 -366.5 104.5t-248 283t-86.5 397.5q0 233 94.5 413t273.5 281t417 101q129 0 241.5 -41.5t196.5 -115.5t144 -174t90.5 -218t30.5 -246z" />
    <glyph glyph-name="ocircumflexhookabove" unicode="&#x1ed5;" 
d="M623 1480l216 -225l-60 -45l-199 133h-12l-170 -135l-46 37l204 218zM301 604q0 -99 18 -187.5t54.5 -164.5t101.5 -121t151 -45q81 0 140 53t85 130t26 167q0 96 -17.5 186t-53 170.5t-98.5 129t-146 48.5q-88 0 -148.5 -53t-86.5 -133t-26 -180zM1094 536
q0 -166 -68.5 -296.5t-184.5 -201t-257 -70.5q-234 0 -367 154t-133 396q0 134 44.5 245.5t119 183.5t169 111.5t197.5 39.5q222 0 351 -154t129 -408z" />
    <glyph glyph-name="Ocircumflextilde" unicode="&#x1ed6;" horiz-adv-x="1684" 
d="M826 1430q-456 0 -456 -607q0 -110 17 -212.5t55 -197t93.5 -164.5t139 -111.5t185.5 -41.5q107 0 189 35t131.5 91t81 136.5t43 162t11.5 176.5q0 107 -17 209t-55.5 198t-94 167.5t-139 115t-184.5 43.5zM1587 753q0 -159 -52.5 -300t-150 -249.5t-249 -172
t-335.5 -63.5q-205 0 -366.5 104.5t-248 283t-86.5 397.5q0 233 94.5 413t273.5 281t417 101q129 0 241.5 -41.5t196.5 -115.5t144 -174t90.5 -218t30.5 -246zM598 1928l216 -225l-60 -45l-199 133h-12l-170 -135l-46 37l204 218zM824 1683q2 7 5 18.5t16 41.5t28.5 53
t42 41.5t56.5 18.5q11 0 16 -1l271 -36h5q14 0 31 12.5t27 24.5l10 13l58 -2q-2 -7 -5.5 -19t-17.5 -42t-30.5 -53t-44.5 -42t-60 -19q-10 0 -15 1l-271 38h-3q-16 0 -34 -14.5t-28 -28.5l-11 -15z" />
    <glyph glyph-name="ocircumflextilde" unicode="&#x1ed7;" 
d="M608 1262q2 7 5 18.5t16 41.5t28.5 53t42 41.5t56.5 18.5q11 0 16 -1l271 -36h5q14 0 31 12q17 14 27 26l10 12l58 -2q-2 -7 -5.5 -19t-17.5 -42t-30.5 -53t-44.5 -42t-60 -19q-10 0 -15 1l-271 38h-3q-16 0 -34 -14q-19 -16 -29 -30l-10 -14zM308 1480l216 -225l-60 -45
l-199 133h-12l-170 -135l-46 37l204 218zM301 604q0 -99 18 -187.5t54.5 -164.5t101.5 -121t151 -45q81 0 140 53t85 130t26 167q0 96 -17.5 186t-53 170.5t-98.5 129t-146 48.5q-88 0 -148.5 -53t-86.5 -133t-26 -180zM1094 536q0 -166 -68.5 -296.5t-184.5 -201
t-257 -70.5q-234 0 -367 154t-133 396q0 134 44.5 245.5t119 183.5t169 111.5t197.5 39.5q222 0 351 -154t129 -408z" />
    <glyph glyph-name="Ocircumflexdotbelow" unicode="&#x1ed8;" horiz-adv-x="1684" 
d="M851 1922l216 -225l-60 -45l-199 133h-12l-170 -135l-46 37l204 218zM970 -331q0 -55 -38.5 -93t-93.5 -38q-54 0 -91.5 38.5t-37.5 92.5q0 53 38 91.5t91 38.5q54 0 93 -38t39 -92zM826 1430q-456 0 -456 -607q0 -110 17 -212.5t55 -197t93.5 -164.5t139 -111.5
t185.5 -41.5q107 0 189 35t131.5 91t81 136.5t43 162t11.5 176.5q0 107 -17 209t-55.5 198t-94 167.5t-139 115t-184.5 43.5zM1587 753q0 -159 -52.5 -300t-150 -249.5t-249 -172t-335.5 -63.5q-205 0 -366.5 104.5t-248 283t-86.5 397.5q0 233 94.5 413t273.5 281t417 101
q129 0 241.5 -41.5t196.5 -115.5t144 -174t90.5 -218t30.5 -246z" />
    <glyph glyph-name="ocircumflexdotbelow" unicode="&#x1ed9;" 
d="M623 1506l216 -225l-60 -45l-199 133h-12l-170 -135l-46 37l204 218zM719 -331q0 -55 -38.5 -93t-93.5 -38q-54 0 -91.5 38.5t-37.5 92.5q0 53 38 91.5t91 38.5q54 0 93 -38t39 -92zM301 604q0 -99 18 -187.5t54.5 -164.5t101.5 -121t151 -45q81 0 140 53t85 130t26 167
q0 96 -17.5 186t-53 170.5t-98.5 129t-146 48.5q-88 0 -148.5 -53t-86.5 -133t-26 -180zM1094 536q0 -166 -68.5 -296.5t-184.5 -201t-257 -70.5q-234 0 -367 154t-133 396q0 134 44.5 245.5t119 183.5t169 111.5t197.5 39.5q222 0 351 -154t129 -408z" />
    <glyph glyph-name="ohornacute" unicode="&#x1edb;" 
d="M777 1572l-223 -386l-62 39l149 395zM301 604q0 -99 18 -187.5t54.5 -164.5t101.5 -121t151 -45q81 0 140 53t85 130t26 167q0 96 -17.5 186t-53 170.5t-98.5 129t-146 48.5q-88 0 -148.5 -53t-86.5 -133t-26 -180zM1094 536q0 -166 -68.5 -296.5t-184.5 -201t-257 -70.5
q-234 0 -367 154t-133 396q0 134 44.5 245.5t119 183.5t169 111.5t197.5 39.5q222 0 351 -154t129 -408z" />
    <glyph glyph-name="ohorngrave" unicode="&#x1edd;" 
d="M440 1580l140 46l161 -406l-70 -42zM301 604q0 -99 18 -187.5t54.5 -164.5t101.5 -121t151 -45q81 0 140 53t85 130t26 167q0 96 -17.5 186t-53 170.5t-98.5 129t-146 48.5q-88 0 -148.5 -53t-86.5 -133t-26 -180zM1094 536q0 -166 -68.5 -296.5t-184.5 -201t-257 -70.5
q-234 0 -367 154t-133 396q0 134 44.5 245.5t119 183.5t169 111.5t197.5 39.5q222 0 351 -154t129 -408z" />
    <glyph glyph-name="Udotbelow" unicode="&#x1ee4;" horiz-adv-x="1724" 
d="M998 -331q0 -55 -38.5 -93t-93.5 -38q-54 0 -91.5 38.5t-37.5 92.5q0 53 38 91.5t91 38.5q54 0 93 -38t39 -92zM917 129q189 0 292 112.5t104 344.5l2 783l-221 51l12 92h582l-14 -92l-202 -47l-6 -747q-3 -333 -149.5 -495.5t-459.5 -162.5q-93 0 -170.5 13t-159.5 52
t-138 103.5t-92 175t-36 258.5v799l-225 51l16 92h659l-12 -92l-205 -47v-753q0 -250 113.5 -370.5t309.5 -120.5z" />
    <glyph glyph-name="udotbelow" unicode="&#x1ee5;" horiz-adv-x="1235" 
d="M755 -332q0 -55 -38.5 -93t-93.5 -38q-54 0 -91.5 38.5t-37.5 92.5q0 53 38 91.5t91 38.5q54 0 93 -38t39 -92zM833 159h-14q-127 -187 -349 -187q-271 0 -271 353v560l-167 67l16 96l327 26l29 -30v-658q0 -247 188 -247q136 0 227 94v646l-195 51l12 110l358 34l26 -30
v-783q0 -44 8 -72t29 -44t39 -22.5t56 -14.5l55 -12l-10 -102q-93 -22 -185 -22q-88 0 -133.5 49t-45.5 128v10z" />
    <glyph glyph-name="uhornacute" unicode="&#x1ee9;" horiz-adv-x="1235" 
d="M792 1571l-223 -386l-62 39l149 395zM833 159h-14q-127 -187 -349 -187q-271 0 -271 353v560l-167 67l16 96l327 26l29 -30v-658q0 -247 188 -247q136 0 227 94v646l-195 51l12 110l358 34l26 -30v-783q0 -44 8 -72t29 -44t39 -22.5t56 -14.5l55 -12l-10 -102
q-93 -22 -185 -22q-88 0 -133.5 49t-45.5 128v10z" />
    <glyph glyph-name="uhorngrave" unicode="&#x1eeb;" horiz-adv-x="1235" 
d="M350 1584l140 46l161 -406l-70 -42zM833 159h-14q-127 -187 -349 -187q-271 0 -271 353v560l-167 67l16 96l327 26l29 -30v-658q0 -247 188 -247q136 0 227 94v646l-195 51l12 110l358 34l26 -30v-783q0 -44 8 -72t29 -44t39 -22.5t56 -14.5l55 -12l-10 -102
q-93 -22 -185 -22q-88 0 -133.5 49t-45.5 128v10z" />
    <glyph glyph-name="uhorntilde" unicode="&#x1eef;" horiz-adv-x="1235" 
d="M305 1275q2 7 5 18.5t16 41.5t28.5 53t42 41.5t56.5 18.5q11 0 16 -1l271 -36h5q14 0 31 12.5t27 24.5l10 13l58 -2q-2 -7 -5.5 -19t-17.5 -42t-30.5 -53t-44.5 -42t-60 -19q-10 0 -15 1l-271 38h-3q-16 0 -34 -14.5t-28 -28.5l-11 -15zM833 159h-14q-127 -187 -349 -187
q-271 0 -271 353v560l-167 67l16 96l327 26l29 -30v-658q0 -247 188 -247q136 0 227 94v646l-195 51l12 110l358 34l26 -30v-783q0 -44 8 -72t29 -44t39 -22.5t56 -14.5l55 -12l-10 -102q-93 -22 -185 -22q-88 0 -133.5 49t-45.5 128v10z" />
    <glyph glyph-name="Ygrave" unicode="&#x1ef2;" horiz-adv-x="1354" 
d="M520 2024l140 46l161 -406l-70 -42zM798 643v-504l199 -41l-12 -98h-616l12 90l182 57v467l-429 755l-167 51l16 92h617l-14 -92l-193 -47l337 -594l321 590l-222 51l12 92h540l-12 -92l-151 -47z" />
    <glyph glyph-name="ygrave" unicode="&#x1ef3;" horiz-adv-x="1130" 
d="M492 0l-347 922l-151 46l14 94h510l-10 -90l-155 -46l248 -656l262 650l-158 50l16 92h417l-10 -90l-122 -50l-402 -986q-94 -230 -181 -314t-228 -84q-80 0 -133.5 44.5t-53.5 100.5q0 88 68 146q95 -66 183 -66q28 0 50 5.5t51 21.5t57 54q26 35 51 96zM360 1576
l140 46l161 -406l-70 -42z" />
    <glyph glyph-name="Ydotbelow" unicode="&#x1ef4;" horiz-adv-x="1348" 
d="M809 -331q0 -55 -38.5 -93t-93.5 -38q-54 0 -91.5 38.5t-37.5 92.5q0 53 38 91.5t91 38.5q54 0 93 -38t39 -92zM794 643v-504l199 -41l-12 -98h-616l12 90l182 57v467l-429 755l-167 51l16 92h617l-14 -92l-193 -47l337 -594l321 590l-222 51l12 92h540l-12 -92l-151 -47
z" />
    <glyph glyph-name="ydotbelow" unicode="&#x1ef5;" horiz-adv-x="1130" 
d="M492 0l-347 922l-151 46l14 94h510l-10 -90l-155 -46l248 -656l262 650l-158 50l16 92h417l-10 -90l-122 -50l-402 -986q-94 -230 -181 -314t-228 -84q-80 0 -133.5 44.5t-53.5 100.5q0 88 68 146q95 -66 183 -66q28 0 50 5.5t51 21.5t57 54q26 35 51 96zM856 -326
q0 -55 -38.5 -93t-93.5 -38q-54 0 -91.5 38.5t-37.5 92.5q0 53 38 91.5t91 38.5q54 0 93 -38t39 -92z" />
    <glyph glyph-name="Yhookabove" unicode="&#x1ef6;" horiz-adv-x="1354" 
d="M798 643v-504l199 -41l-12 -98h-616l12 90l182 57v467l-429 755l-167 51l16 92h617l-14 -92l-193 -47l337 -594l321 590l-222 51l12 92h540l-12 -92l-151 -47z" />
    <glyph glyph-name="Ytilde" unicode="&#x1ef8;" horiz-adv-x="1354" 
d="M423 1683q2 7 5 18.5t16 41.5t28.5 53t42 41.5t56.5 18.5q11 0 16 -1l271 -36h5q14 0 31 12.5t27 24.5l10 13l58 -2q-2 -7 -5.5 -19t-17.5 -42t-30.5 -53t-44.5 -42t-60 -19q-10 0 -15 1l-271 38h-3q-16 -1 -34 -15q-19 -14 -29 -28l-10 -15zM798 643v-504l199 -41
l-12 -98h-616l12 90l182 57v467l-429 755l-167 51l16 92h617l-14 -92l-193 -47l337 -594l321 590l-222 51l12 92h540l-12 -92l-151 -47z" />
    <glyph glyph-name="ytilde" unicode="&#x1ef9;" horiz-adv-x="1130" 
d="M492 0l-347 922l-151 46l14 94h510l-10 -90l-155 -46l248 -656l262 650l-158 50l16 92h417l-10 -90l-122 -50l-402 -986q-94 -230 -181 -314t-228 -84q-80 0 -133.5 44.5t-53.5 100.5q0 88 68 146q95 -66 183 -66q28 0 50 5.5t51 21.5t57 54q26 35 51 96zM263 1235
q2 7 5 18.5t16 41.5t28.5 53t42 41.5t56.5 18.5q11 0 16 -1l271 -36h5q14 0 31 12.5t27 24.5l10 13l58 -2q-2 -7 -5.5 -19t-17.5 -42t-30.5 -53t-44.5 -42t-60 -19q-10 0 -15 1l-271 38h-3q-16 0 -34 -14.5t-28 -28.5l-11 -15z" />
    <glyph glyph-name="endash" unicode="&#x2013;" horiz-adv-x="1039" 
d="M160 624l743 8l-20 -126l-743 -8z" />
    <glyph glyph-name="emdash" unicode="&#x2014;" horiz-adv-x="1659" 
d="M160 624l1362 8l-20 -126l-1362 -8z" />
    <glyph glyph-name="quoteleft" unicode="&#x2018;" horiz-adv-x="555" 
d="M474 1478q-112 -29 -166.5 -87.5t-54.5 -123.5q0 -53 39.5 -91.5t101.5 -38.5q24 0 36 2q18 -47 18 -76q0 -68 -48 -107.5t-101 -39.5q-34 0 -69 14.5t-68.5 43t-54.5 79.5t-21 116q0 40 6.5 77t29 86t59.5 89t105.5 78.5t159.5 62.5z" />
    <glyph glyph-name="quoteright" unicode="&#x2019;" horiz-adv-x="565" 
d="M100 996q112 29 166.5 87.5t54.5 123.5q0 53 -39.5 91.5t-101.5 38.5q-24 0 -36 -2q-18 47 -18 76q0 68 48 107.5t101 39.5q34 0 69 -14.5t68.5 -43t54.5 -79.5t21 -116q0 -40 -6.5 -77t-29 -86t-59.5 -89t-105.5 -78.5t-159.5 -62.5z" />
    <glyph glyph-name="quotesinglbase" unicode="&#x201a;" horiz-adv-x="577" 
d="M88 -297q112 29 166.5 87.5t54.5 123.5q0 53 -39.5 91.5t-101.5 38.5q-24 0 -36 -2q-18 47 -18 76q0 68 48 107.5t101 39.5q34 0 69 -14.5t68.5 -43t54.5 -79.5t21 -116q0 -40 -6.5 -77t-29 -86t-59.5 -89t-105.5 -78.5t-159.5 -62.5z" />
    <glyph glyph-name="quotereversed" unicode="&#x201b;" horiz-adv-x="563" 
d="M464 1006l-28 -84q-91 24 -159.5 62.5t-105.5 78.5t-59.5 89t-29 86t-6.5 77q0 65 21 116t54.5 79.5t68.5 43t69 14.5q53 0 101 -39.5t48 -104.5q0 -31 -19 -75q-79 -6 -127.5 -40.5t-48.5 -91.5q0 -65 54.5 -123.5t166.5 -87.5z" />
    <glyph glyph-name="quotedblleft" unicode="&#x201c;" horiz-adv-x="939" 
d="M476 1482q-112 -29 -166.5 -87.5t-54.5 -123.5q0 -53 39.5 -91.5t101.5 -38.5q24 0 36 2q18 -47 18 -76q0 -68 -48 -107.5t-101 -39.5q-34 0 -69 14.5t-68.5 43t-54.5 79.5t-21 116q0 40 6.5 77t29 86t59.5 89t105.5 78.5t159.5 62.5zM859 1482q-112 -29 -166.5 -87.5
t-54.5 -123.5q0 -53 39.5 -91.5t101.5 -38.5q24 0 36 2q18 -47 18 -76q0 -68 -47.5 -107.5t-101.5 -39.5q-34 0 -69 14.5t-68.5 43t-54.5 79.5t-21 116q0 40 6.5 77t29 86t59.5 89t105.5 78.5t159.5 62.5z" />
    <glyph glyph-name="quotedblright" unicode="&#x201d;" horiz-adv-x="949" 
d="M486 1002q112 29 166.5 87.5t54.5 123.5q0 53 -39.5 91.5t-101.5 38.5q-24 0 -36 -2q-18 47 -18 76q0 68 48 107.5t101 39.5q34 0 69 -14.5t68.5 -43t54.5 -79.5t21 -116q0 -40 -6.5 -77t-29 -86t-59.5 -89t-105.5 -78.5t-159.5 -62.5zM100 1002q112 29 166.5 87.5
t54.5 123.5q0 53 -39.5 91.5t-101.5 38.5q-24 0 -36 -2q-18 47 -18 76q0 68 48 107.5t101 39.5q34 0 69 -14.5t68.5 -43t54.5 -79.5t21 -116q0 -40 -6.5 -77t-29 -86t-59.5 -89t-105.5 -78.5t-159.5 -62.5z" />
    <glyph glyph-name="quotedblbase" unicode="&#x201e;" horiz-adv-x="961" 
d="M474 -309q112 29 166.5 87.5t54.5 123.5q0 53 -39.5 91.5t-101.5 38.5q-24 0 -36 -2q-18 47 -18 76q0 68 48 107.5t101 39.5q34 0 69 -14.5t68.5 -43t54.5 -79.5t21 -116q0 -40 -6.5 -77t-29 -86t-59.5 -89t-105.5 -78.5t-159.5 -62.5zM88 -309q112 29 166.5 87.5
t54.5 123.5q0 53 -39.5 91.5t-101.5 38.5q-24 0 -36 -2q-18 47 -18 76q0 68 48 107.5t101 39.5q34 0 69 -14.5t68.5 -43t54.5 -79.5t21 -116q0 -40 -6.5 -77t-29 -86t-59.5 -89t-105.5 -78.5t-159.5 -62.5z" />
    <glyph glyph-name="dagger" unicode="&#x2020;" horiz-adv-x="1004" 
d="M572 996l372 10l-8 -149l-364 14l19 -1313l-177 16l18 1299l-370 -8l9 141l361 -10l-10 530l163 -14z" />
    <glyph glyph-name="daggerdbl" unicode="&#x2021;" horiz-adv-x="1055" 
d="M582 522l4 -311l380 8l-8 -141l-372 10l10 -530l-162 14l12 516l-349 -10l8 149l341 -14l10 393l-4 267l-368 -8l9 141l359 -10l-10 530l163 -14l-13 -516l370 10l-8 -149l-362 14z" />
    <glyph glyph-name="bullet" unicode="&#x2022;" horiz-adv-x="662" 
d="M329 901q88 0 151.5 -59.5t63.5 -144.5q0 -90 -63.5 -153.5t-151.5 -63.5t-150.5 65t-62.5 155q0 84 63 142.5t150 58.5z" />
    <glyph glyph-name="ellipsis" unicode="&#x2026;" horiz-adv-x="1645" 
d="M264 249q60 0 103.5 -40.5t43.5 -98.5q0 -61 -43.5 -104.5t-103.5 -43.5t-102.5 44t-42.5 106q0 58 43 97.5t102 39.5zM1380 249q60 0 103.5 -40.5t43.5 -98.5q0 -61 -43.5 -104.5t-103.5 -43.5t-102.5 44t-42.5 106q0 58 43 97.5t102 39.5zM806 249q60 0 103.5 -40.5
t43.5 -98.5q0 -61 -43.5 -104.5t-103.5 -43.5t-102.5 44t-42.5 106q0 58 43 97.5t102 39.5z" />
    <glyph glyph-name="perthousand" unicode="&#x2030;" horiz-adv-x="2096" 
d="M943 257q0 -88 35.5 -144.5t100.5 -56.5q131 0 131 203q0 91 -33.5 148t-99.5 57q-134 0 -134 -207zM1362 257q0 -119 -87 -209t-196 -90q-120 0 -204.5 84.5t-84.5 216.5q0 120 87.5 211.5t199.5 91.5q127 0 206 -87t79 -218zM244 877q0 -88 35.5 -143t100.5 -55
q131 0 131 200q0 91 -33.5 148t-99.5 57q-134 0 -134 -207zM663 879q0 -120 -87 -210.5t-196 -90.5q-120 0 -203.5 84.5t-83.5 218.5q0 120 86.5 211t198.5 91q128 0 206.5 -86.5t78.5 -217.5zM1057 1187l137 -10l-798 -1223l-146 12zM1607 257q0 -88 36 -144.5t101 -56.5
q72 0 101 53.5t29 149.5q0 91 -33 148t-99 57q-72 0 -103.5 -58t-31.5 -149zM2027 257q0 -119 -87 -209t-196 -90q-120 0 -204.5 84.5t-84.5 216.5q0 120 87.5 211.5t199.5 91.5q127 0 206 -87t79 -218z" />
    <glyph glyph-name="guilsinglleft" unicode="&#x2039;" horiz-adv-x="519" 
d="M38 570l326 428l54 -72l-201 -366l205 -389l-64 -77l-318 452z" />
    <glyph glyph-name="guilsinglright" unicode="&#x203a;" horiz-adv-x="519" 
d="M481 570l-2 -24l-318 -452l-64 77l205 389l-201 366l54 72z" />
    <glyph glyph-name="overline" unicode="&#x203e;" horiz-adv-x="657" 
d="M69 1706h536l-16 -122h-536z" />
    <glyph glyph-name="fraction" unicode="&#x2044;" horiz-adv-x="871" 
d="M786 1167l98 10l-835 -1203l-102 -10z" />
    <glyph glyph-name="Euro" unicode="&#x20ac;" horiz-adv-x="1458" 
d="M1155 211l50 267l107 16l38 -359q-115 -90 -223 -127.5t-257 -37.5q-172 0 -314.5 69.5t-240 212t-120.5 338.5h-124l22 129h94q0 28 4 84h-112l22 129h108q19 96 55 182t96.5 166t139 137.5t189 92t241.5 34.5q123 0 218.5 -28.5t181.5 -93.5l-38 -404l-107 16l-50 267
q-49 63 -108 95t-167 32q-167 0 -274.5 -131t-131.5 -365h663l-36 -129h-633v-2q0 -56 2 -82h611l-36 -129h-561q37 -237 159.5 -362.5t306.5 -125.5q63 0 123.5 26.5t101.5 82.5z" />
    <glyph glyph-name="trademark" unicode="&#x2122;" horiz-adv-x="1121" 
d="M77 1602h357l-12 -112l-36 4l-12 74h-82v-321l60 -10l-4 -32h-193l2 30l55 14v319h-79l-18 -78l-34 4zM687 1215l-110 299l-20 -267l58 -10l-4 -32h-161l2 30l55 14l24 311l-60 12l4 30h150l26 -62l83 -237l100 249l22 50h149l-4 -30l-55 -12l18 -313l59 -10l-4 -32h-185
l4 30l52 14l-18 277l-122 -305z" />
    <glyph glyph-name="partialdiff" unicode="&#x2202;" horiz-adv-x="1138" 
d="M1039 566q0 -137 -38.5 -251t-104 -189t-152.5 -116.5t-185 -41.5t-179 32t-136 87t-93 129.5t-55 157.5t-17 174q0 175 65.5 314.5t174.5 215t238 75.5q21 0 45.5 -5t53 -16t53 -34.5t37.5 -55.5l8 2q-21 102 -125.5 270.5t-223.5 269.5h142q124 -71 220 -184
t154.5 -248.5t88 -283.5t29.5 -302zM296 606q3 -244 82.5 -382t208.5 -138q69 0 117 29.5t74.5 88.5t38 134t11.5 178q0 138 -42.5 259.5t-108.5 192t-136 72.5h-8q-83 0 -137 -56t-77 -150.5t-23 -227.5z" />
    <glyph glyph-name="emptyset" unicode="&#x2205;" horiz-adv-x="1305" 
d="M933 887q-111 113 -273 113q-175 0 -289 -127t-114 -335q0 -122 44 -218zM1007 781l-635 -571q57 -63 133.5 -96.5t156.5 -33.5q178 0 287 118.5t109 341.5q0 136 -51 241zM1214 538q0 -157 -66.5 -289.5t-194 -213.5t-291.5 -81q-116 0 -218.5 41.5t-178.5 118.5
l-121 -108l-70 110l112 101q-84 141 -84 323q0 113 47.5 222t124.5 189.5t179 129.5t207 49q228 0 380 -147l110 99l70 -110l-100 -89q94 -149 94 -345z" />
    <glyph glyph-name="product" unicode="&#x220f;" horiz-adv-x="1839" 
d="M747 0h-659l10 90l203 57v1222l-221 51l12 92h1663l-14 -92l-203 -47v-1234l221 -41l-12 -98h-661l14 90l201 57v1240l-763 -2v-1246l225 -41z" />
    <glyph glyph-name="summation" unicode="&#x2211;" horiz-adv-x="1430" 
d="M86 1512h1203l-38 -388l-105 16l-50 261h-735l506 -574l-4 -56l-516 -574h759l119 279l100 -14l-36 -462h-1205v90l582 647v14l-594 689z" />
    <glyph glyph-name="minus" unicode="&#x2212;" horiz-adv-x="1080" 
d="M180 624l743 8l-20 -126l-743 -8z" />
    <glyph glyph-name="radical" unicode="&#x221a;" horiz-adv-x="1151" 
d="M390 -161l-249 663l-147 34l12 92l318 19l178 -539l544 1468l145 8l-647 -1723z" />
    <glyph glyph-name="infinity" unicode="&#x221e;" horiz-adv-x="1708" 
d="M442 877q-114 0 -173.5 -59.5t-59.5 -160.5q0 -90 84.5 -153.5t192.5 -63.5q90 0 179 37t128 87q-42 60 -71.5 100t-67.5 84t-70 69.5t-69 42.5t-73 17zM100 604q0 198 114.5 328t277.5 130q113 0 202 -54.5t169 -184.5l12 2q172 231 394 231q149 0 244 -107t95 -278
q0 -172 -122 -297t-289 -125q-209 0 -352 245h-10q-79 -126 -175.5 -186.5t-199.5 -60.5q-167 0 -263.5 97t-96.5 260zM1313 440q80 0 137.5 59.5t57.5 138.5q0 98 -87.5 161.5t-199.5 63.5q-60 0 -109 -10.5t-86.5 -32.5t-58.5 -38t-50 -43q80 -141 184.5 -220t211.5 -79z
" />
    <glyph glyph-name="integral" unicode="&#x222b;" horiz-adv-x="1037" 
d="M390 -74l6 1030q1 132 32 241.5t79.5 179.5t110 119t120.5 69.5t114 20.5q102 0 164.5 -35t62.5 -105q0 -41 -36.5 -82t-72.5 -55q-46 58 -104 103.5t-109 45.5q-73 0 -113.5 -58.5t-46.5 -206.5l-2 -1050q0 -134 -31.5 -242.5t-80 -175.5t-111 -112t-121 -63t-114.5 -18
q-102 0 -164.5 35.5t-62.5 105.5q1 41 37 81.5t71 54.5q46 -57 104 -102.5t109 -45.5q74 0 114.5 58.5t44.5 206.5z" />
    <glyph glyph-name="approxequal" unicode="&#x2248;" horiz-adv-x="1177" 
d="M114 657q2 10 7 26t23 58t40.5 74t61 58t83.5 26q11 0 16 -1l542 -54h5q20 0 45 18q25 20 40 38l15 18l78 -2q-1 -5 -4 -14t-12.5 -34.5t-21 -48.5t-31 -51.5t-41 -49t-51.5 -34.5t-62 -14q-12 0 -18 1l-542 54h-5q-22 0 -47.5 -21t-39.5 -42l-14 -21zM114 345q2 10 7 26
t23 58t40.5 74t61 58t83.5 26q11 0 16 -1l542 -54h5q20 0 45 18q25 20 40 38l15 18l78 -2q-1 -5 -4 -14t-12.5 -34.5t-21 -48.5t-31 -51.5t-41 -49t-51.5 -34.5t-62 -14q-12 0 -18 1l-542 54h-5q-22 0 -47.5 -21t-39.5 -42l-14 -21z" />
    <glyph glyph-name="notequal" unicode="&#x2260;" horiz-adv-x="972" 
d="M446 388l-160 -228l-160 -5l163 233h-183l14 128h273l122 163h-405l14 128h457l110 158l160 3l-112 -161h132l-14 -128h-225l-122 -163h357l-14 -128h-407z" />
    <glyph glyph-name="lessequal" unicode="&#x2264;" horiz-adv-x="924" 
d="M62 520l2 34l656 629l69 -87l-440 -544l464 -568l-76 -84zM110 -199l743 8l-20 -126l-743 -8z" />
    <glyph glyph-name="greaterequal" unicode="&#x2265;" horiz-adv-x="924" 
d="M91 -199l743 8l-20 -126l-743 -8zM862 520l-675 -620l-76 84l464 568l-440 544l69 87l656 -629z" />
    <glyph glyph-name="lozenge" unicode="&#x25ca;" horiz-adv-x="937" 
d="M862 574l-392 -409l-395 411l393 396z" />
    <glyph glyph-name="Alpha_latin" unicode="&#x2c6d;" horiz-adv-x="1639" 
d="M800 1257l-401 -1106l227 -53l-14 -98h-570l12 90l181 67l525 1347l185 38l480 -1391l167 -53l-10 -98h-626l14 90l208 67z" />
    </font>
</defs>
</svg>
