<?xml version="1.0" standalone="no"?>
<!DOCTYPE svg PUBLIC "-//W3C//DTD SVG 1.1//EN" "http://www.w3.org/Graphics/SVG/1.1/DTD/svg11.dtd" >
<svg xmlns="http://www.w3.org/2000/svg">
<metadata>
This is a custom SVG webfont generated by Font Squirrel.
Copyright   : Digitized data copyright C 1992  1997 The Monotype Corporation  Rockwell is a trademark of The Monotype Corporation which may be registered in certain jurisdictions Portions copyright Microsoft  Corporation  All rights reserved
Foundry     : Monotype Typography
Foundry URL : httpwwwmonotypecomhtmlmtnamemswelcomehtml
</metadata>
<defs>
<font id="RockwellRegular" horiz-adv-x="1291" >
<font-face units-per-em="2048" ascent="1638" descent="-410" />
<missing-glyph horiz-adv-x="563" />
<glyph unicode=" "  horiz-adv-x="563" />
<glyph unicode="&#x09;" horiz-adv-x="563" />
<glyph unicode="&#xa0;" horiz-adv-x="563" />
<glyph unicode="!" horiz-adv-x="657" d="M194 0v271h270v-271h-270zM217 1065v465h222v-465l-55 -650h-112z" />
<glyph unicode="&#x22;" horiz-adv-x="914" d="M145 1419q0 135 107 135q48 0 80.5 -32.5t32.5 -84.5q0 -47 -28 -202l-60 -323h-47l-61 326q-24 133 -24 181zM547 1420q0 134 112 134q49 0 79.5 -33.5t30.5 -82.5q0 -96 -21 -205l-63 -321h-53l-59 320q-26 141 -26 188z" />
<glyph unicode="#" horiz-adv-x="1502" d="M94 409v162h237l80 388h-317v162h352l89 430h161l-89 -430h436l89 430h162l-90 -430h204v-162h-238l-80 -388h318v-162h-352l-89 -430h-162l89 430h-435l-89 -430h-162l89 430h-203zM493 571h435l81 388h-436z" />
<glyph unicode="$" horiz-adv-x="1221" d="M69 431q0 10 1 31h201q16 -275 247 -306v506q-419 83 -419 425q0 182 111.5 299t307.5 133v69h166v-69q145 -14 259 -112t114 -345v-27h-193q0 141 -42 209.5t-138 90.5v-488q264 -49 353 -152t89 -261q0 -200 -115.5 -317t-326.5 -139v-170h-166v170q-204 9 -326.5 138 t-122.5 315zM319 1119q0 -181 199 -235v460q-199 -35 -199 -225zM684 158q231 43 231 246q0 82 -45 138t-186 85v-469z" />
<glyph unicode="%" horiz-adv-x="2183" d="M180 1144q0 184 82.5 297t244.5 113q151 0 239 -106.5t88 -303.5q0 -187 -84 -298t-243 -111q-151 0 -239 106t-88 303zM339 1145q0 -305 168 -305q167 0 167 304q0 305 -167 305q-168 0 -168 -304zM404 0l1214 1530h156l-1205 -1530h-165zM1349 386q0 198 88.5 303.5 t236.5 105.5q164 0 245.5 -113.5t81.5 -295.5q0 -198 -88 -304t-238 -106t-238 106t-88 304zM1507 386q0 -305 167 -305q168 0 168 304q0 305 -167 305q-168 0 -168 -304z" />
<glyph unicode="&#x26;" horiz-adv-x="1524" d="M69 492q0 306 349 458q-104 134 -104 268q0 147 111.5 241.5t259.5 94.5q154 0 260.5 -94t106.5 -234q0 -122 -75 -200t-247 -148l312 -422q83 147 118 354h314v-187h-162q-59 -213 -152 -328l81 -104h233v-191h-349l-101 134q-199 -158 -407 -158q-237 0 -392.5 147.5 t-155.5 368.5zM297 502q0 -135 100 -235.5t243 -100.5q146 0 266 122l-371 522q-238 -106 -238 -308zM528 1223q0 -59 79 -180l13 -20q132 55 180 103.5t48 106.5q0 54 -40.5 97.5t-117.5 43.5q-70 0 -116 -42t-46 -109z" />
<glyph unicode="'" horiz-adv-x="398" d="M89 1412q0 142 107 142q53 0 83.5 -34t30.5 -82q0 -44 -28 -203l-60 -324h-48l-60 325q-25 137 -25 176z" />
<glyph unicode="(" horiz-adv-x="844" d="M183 536q0 362 162 633.5t437 388.5v-171q-119 -63 -215 -196.5t-128.5 -281t-32.5 -375.5q0 -258 42 -411t132.5 -263.5t201.5 -177.5v-172q-229 94 -414 356.5t-185 669.5z" />
<glyph unicode=")" horiz-adv-x="844" d="M63 -318q136 83 224.5 209.5t120 272t31.5 370.5q0 237 -34.5 385.5t-133 278.5t-208.5 189v171q266 -119 432.5 -381t166.5 -642q0 -368 -154.5 -623t-444.5 -402v172z" />
<glyph unicode="*" horiz-adv-x="1173" d="M74 1110l60 195l184 -59q89 -96 236 -149q-2 136 -68 271v186h198v-186q-66 -135 -68 -271q147 53 236 149l184 59l61 -195l-181 -61q-36 7 -67 7q-119 0 -202 -24q104 -131 205 -174l112 -154l-163 -118l-117 155q-14 139 -99 255q-85 -116 -99 -255l-116 -155l-163 118 l111 154q101 43 206 174q-84 24 -203 24q-29 0 -67 -7z" />
<glyph unicode="+" horiz-adv-x="1502" d="M148 679v172h518v516h171v-516h517v-172h-517v-516h-171v516h-518z" />
<glyph unicode="," horiz-adv-x="657" d="M194 0v271h270v-236q0 -120 -18.5 -186t-79.5 -108t-172 -46v115q132 20 132 164q0 8 -2 26h-130z" />
<glyph unicode="-" horiz-adv-x="797" d="M69 424v208h660v-208h-660z" />
<glyph unicode="." horiz-adv-x="657" d="M194 0v271h270v-271h-270z" />
<glyph unicode="/" horiz-adv-x="986" d="M11 -24l781 1585h183l-781 -1585h-183z" />
<glyph unicode="0" horiz-adv-x="1221" d="M79 764q0 379 142.5 584.5t388.5 205.5q256 0 393.5 -213t137.5 -577q0 -376 -142 -582t-389 -206q-257 0 -394 214.5t-137 573.5zM304 764q0 -327 79 -468.5t227 -141.5q149 0 228 142t79 468q0 333 -80 472.5t-227 139.5q-164 0 -235 -159t-71 -453z" />
<glyph unicode="1" horiz-adv-x="1221" d="M324 0v186h210v1158h-210v184h418v-1342h200v-186h-618z" />
<glyph unicode="2" horiz-adv-x="1221" d="M90 0q0 158 57 302.5t159.5 252t313.5 261.5q134 98 181 163.5t47 152.5q0 107 -67 174.5t-185 67.5q-137 0 -201 -77t-64 -253q0 -44 2 -84h-203q-1 40 -1 65q0 249 117.5 389t345.5 140q230 0 352.5 -120t122.5 -294q0 -147 -80.5 -250.5t-306.5 -262.5 q-220 -156 -289 -254t-80 -174h577l8 348h186l-14 -547h-978z" />
<glyph unicode="3" horiz-adv-x="1221" d="M75 518h202q6 -176 96.5 -269t241.5 -93q137 0 216 76.5t79 193.5q0 122 -92.5 200.5t-295.5 78.5q-26 0 -61 -1v189q161 0 234 19t113.5 74.5t40.5 139.5q0 103 -60 176.5t-177 73.5q-130 0 -189.5 -77.5t-64.5 -231.5h-213q0 264 130.5 375.5t319.5 111.5 q230 0 346.5 -113t116.5 -289q0 -130 -66.5 -219t-149.5 -127q286 -84 286 -365q0 -233 -157 -349t-368 -116q-270 0 -399 144t-129 398z" />
<glyph unicode="4" horiz-adv-x="1221" d="M66 584l637 958h177v-946h244v-185h-244v-225h140v-186h-504v186h163v225h-515q-26 103 -98 173zM277 596h402v603z" />
<glyph unicode="5" horiz-adv-x="1221" d="M80 488h198q18 -154 101 -245t219 -91q138 0 221.5 94.5t83.5 243.5q0 157 -81.5 240t-202.5 83q-181 0 -307 -184q-70 69 -159 111l63 788h816v-406h-189v209h-469l-34 -448q140 114 311 114q218 0 344 -145.5t126 -359.5q0 -227 -138 -371.5t-387 -144.5 q-231 0 -365 131t-151 381z" />
<glyph unicode="6" horiz-adv-x="1221" d="M110 756q0 368 138.5 583t399.5 215q204 0 317 -134.5t120 -341.5h-186q-17 131 -92 213.5t-183 82.5q-147 0 -228 -152.5t-85 -417.5q157 170 360 170q175 0 300 -129.5t125 -346.5q0 -215 -123.5 -368.5t-336.5 -153.5q-239 0 -382.5 196t-143.5 584zM322 573 q50 -416 304 -416q130 0 202.5 96t72.5 229q0 131 -69 211t-185 80q-164 0 -325 -200z" />
<glyph unicode="7" horiz-adv-x="1221" d="M133 1125v403h956v-156q-150 -180 -284 -544.5t-134 -641.5h178v-186h-604v186h204q16 296 137 619.5t263 525.5h-527v-206h-189z" />
<glyph unicode="8" horiz-adv-x="1221" d="M75 421q0 272 271 379q-224 131 -224 353q0 195 140 298t335 103q231 0 365.5 -107.5t134.5 -293.5q0 -220 -225 -353q272 -107 272 -379q0 -202 -141.5 -323.5t-380.5 -121.5q-270 0 -408.5 121.5t-138.5 323.5zM297 430q0 -121 83.5 -198.5t228.5 -77.5q138 0 225.5 75 t87.5 202q0 122 -82 199t-237 77q-134 0 -220 -73.5t-86 -203.5zM329 1133q0 -121 77 -184t210 -63q113 0 193.5 61t80.5 186q0 240 -287 240q-125 0 -199.5 -61.5t-74.5 -178.5z" />
<glyph unicode="9" horiz-adv-x="1221" d="M103 1032q0 215 123.5 368.5t337.5 153.5q239 0 382 -196t143 -584q0 -368 -138 -583t-400 -215q-203 0 -316.5 134.5t-120.5 341.5h186q17 -131 93 -213.5t182 -82.5q148 0 229.5 153t83.5 417q-155 -169 -359 -169q-181 0 -303.5 130.5t-122.5 344.5zM298 1048 q0 -124 65.5 -207.5t189.5 -83.5q163 0 324 200q-48 416 -304 416q-126 0 -200.5 -94t-74.5 -231z" />
<glyph unicode=":" horiz-adv-x="657" d="M194 0v271h270v-271h-270zM194 794v271h270v-271h-270z" />
<glyph unicode=";" horiz-adv-x="657" d="M194 0v271h270v-236q0 -120 -18.5 -186t-79.5 -108t-172 -46v115q132 20 132 164q0 8 -2 26h-130zM194 794v271h270v-271h-270z" />
<glyph unicode="&#x3c;" horiz-adv-x="1502" d="M148 688v155l1206 506v-187l-970 -398l970 -396v-186z" />
<glyph unicode="=" horiz-adv-x="1502" d="M148 420v173h1206v-173h-1206zM148 937v173h1206v-173h-1206z" />
<glyph unicode="&#x3e;" horiz-adv-x="1502" d="M148 182v186l971 396l-971 398v187l1206 -506v-155z" />
<glyph unicode="?" horiz-adv-x="1057" d="M68 1115q0 226 134 332.5t318 106.5q222 0 344.5 -119t122.5 -314q0 -188 -116 -300.5t-274 -112.5q-12 0 -35 2l-27 -298h-114l-26 487q52 -13 103 -13q144 0 208 72.5t64 172.5q0 116 -69 180.5t-174 64.5q-129 0 -191 -73.5t-62 -183.5q0 -23 1 -54h-206q-1 29 -1 50z M342 0v271h270v-271h-270z" />
<glyph unicode="@" horiz-adv-x="2274" d="M125 487q0 451 286 789t805 338q422 0 680.5 -250.5t258.5 -607.5q0 -305 -207 -546.5t-456 -241.5q-110 0 -156.5 45t-55.5 139q-159 -183 -337 -183q-162 0 -280.5 136t-118.5 357q0 261 175 481.5t396 220.5q209 0 333 -202l37 171h197l-158 -739q-34 -153 -34 -171 q0 -32 24.5 -52t50.5 -20q59 0 166 74t184 221.5t77 313.5q0 302 -227 498t-559 196q-407 0 -662.5 -275.5t-255.5 -670.5q0 -409 253 -628t694 -219q259 0 462 87t313 245h199q-91 -189 -341 -342t-629 -153q-533 0 -823.5 270t-290.5 719zM748 443q0 -137 69.5 -224 t164.5 -87q151 0 277 168t126 386q0 147 -73 231t-182 84q-168 0 -275 -183.5t-107 -374.5z" />
<glyph unicode="A" horiz-adv-x="1573" d="M-18 0v191h185l418 1166h-186v173h782v-173h-190l428 -1166h172v-191h-600v191h190l-114 347h-550l-118 -347h186v-191h-603zM574 717h436l-204 640h-21z" />
<glyph unicode="B" horiz-adv-x="1313" d="M51 1339v191h509q210 0 315 -25t185.5 -128t80.5 -242q0 -107 -48 -192.5t-140 -129.5q127 -44 196 -146t69 -233q0 -113 -51.5 -205.5t-136 -143t-185 -68t-274.5 -17.5h-520v191h188v1148h-188zM470 191h87q170 0 249.5 17.5t129.5 80.5t50 162q0 90 -48 151 t-123.5 81.5t-212.5 20.5h-132v-513zM470 893h144q165 0 230.5 58t65.5 170q0 218 -296 218h-144v-446z" />
<glyph unicode="C" horiz-adv-x="1711" d="M96 759q0 364 211 579.5t551 215.5q300 0 505 -164v140h198v-492h-198q-66 150 -203.5 232t-289.5 82q-229 0 -375.5 -165t-146.5 -417q0 -258 157 -422t373 -164q177 0 322 113.5t205 325.5l199 -111q-67 -256 -271 -396t-469 -140q-348 0 -558 225.5t-210 557.5z" />
<glyph unicode="D" horiz-adv-x="1642" d="M29 1339v191h591q246 0 378.5 -25t256.5 -114.5t198.5 -245t74.5 -354.5q0 -227 -71.5 -394t-187.5 -249.5t-276 -115t-408 -32.5h-556v191h207v1148h-207zM468 191h120q203 0 321 25.5t199.5 86.5t132 184t50.5 291q0 199 -83 337.5t-212 181t-398 42.5h-130v-1148z" />
<glyph unicode="E" horiz-adv-x="1408" d="M62 0v191h198v1148h-198v191h1271v-461h-189v270h-653v-456h568v-191h-568v-501h653v279h189v-470h-1271z" />
<glyph unicode="F" horiz-adv-x="1243" d="M41 0v191h193v1148h-193v191h1187v-461h-190v270h-573v-453h494v-192h-494v-503h196v-191h-620z" />
<glyph unicode="G" horiz-adv-x="1806" d="M109 770q0 338 208 561t564 223q320 0 537 -194v170h195v-503h-195q-55 127 -195.5 225.5t-320.5 98.5q-251 0 -396 -169.5t-145 -408.5q0 -274 165.5 -434.5t398.5 -160.5q183 0 326 102t167 267h-276v191h556q2 -30 2 -53q0 -322 -211.5 -515.5t-557.5 -193.5 q-415 0 -618.5 236t-203.5 558z" />
<glyph unicode="H" horiz-adv-x="1595" d="M60 0v191h174v1148h-174v191h586v-191h-181v-438h666v438h-179v191h585v-191h-175v-1148h175v-191h-585v191h179v519h-666v-519h181v-191h-586z" />
<glyph unicode="I" horiz-adv-x="705" d="M70 0v191h166v1148h-166v191h564v-191h-166v-1148h166v-191h-564z" />
<glyph unicode="J" horiz-adv-x="705" d="M-79 -454v214q86 -22 165 -22q99 0 131.5 54.5t32.5 218.5v1328h-196v191h622v-191h-195v-1339q0 -173 -26 -262.5t-124.5 -153.5t-233.5 -64q-94 0 -176 26z" />
<glyph unicode="K" horiz-adv-x="1408" d="M41 0v191h191v1148h-191v191h619v-191h-197v-1148h176v-191h-598zM471 807l490 532h-175v191h600v-191h-163l-471 -532l484 -616h164v-191h-621v191h165z" />
<glyph unicode="L" horiz-adv-x="1173" d="M32 0v191h198v1148h-198v191h626v-191h-188v-1148h468v521h216v-712h-1122z" />
<glyph unicode="M" horiz-adv-x="1971" d="M55 0v191h184v1148h-184v191h524l402 -1048l407 1048h529v-191h-185v-1148h185v-191h-576v191h183v1148l-528 -1354h-46l-522 1354v-1148h168v-191h-541z" />
<glyph unicode="N" horiz-adv-x="1620" d="M11 0v191h219v1148h-219v191h523l670 -1189v998h-216v191h628v-191h-226v-1354h-237l-734 1305v-1099h219v-191h-627z" />
<glyph unicode="O" horiz-adv-x="1806" d="M112 772q0 334 218 558t568 224q353 0 575 -224t222 -562q0 -344 -226 -568t-575 -224q-222 0 -408.5 106t-280 296t-93.5 394zM364 771q0 -252 147.5 -422.5t387.5 -170.5q237 0 390 174.5t153 416.5q0 244 -155.5 413t-391.5 169q-234 0 -382.5 -166t-148.5 -414z" />
<glyph unicode="P" d="M45 0v191h193v1148h-193v191h547q241 0 360.5 -34t200.5 -154.5t81 -284.5q0 -131 -53 -235t-132 -153.5t-177.5 -66.5t-297.5 -17h-105v-394h198v-191h-622zM469 770h132q225 0 312 64.5t87 227.5q0 103 -46 171t-114.5 87t-227.5 19h-143v-569z" />
<glyph unicode="Q" horiz-adv-x="1806" d="M112 771q0 325 214.5 554t571.5 229q356 0 576 -223t220 -563q0 -181 -69.5 -344t-237.5 -293t-379 -147l45 -20q179 -74 276 -74q31 0 80 10l-81 -189q-33 -6 -61 -6q-109 0 -300 93q-165 79 -260 79q-98 0 -157 -54l-65 93q65 71 169 93q-184 58 -312.5 187.5 t-179 278.5t-50.5 296zM364 771q0 -252 147.5 -422.5t387.5 -170.5q237 0 390 174.5t153 416.5q0 244 -155.5 413t-391.5 169q-234 0 -382.5 -166t-148.5 -414z" />
<glyph unicode="R" horiz-adv-x="1360" d="M29 0v191h210v1148h-210v191h621q195 0 309.5 -30t189 -127.5t74.5 -242.5q0 -304 -315 -382l270 -557h187v-191h-331l-349 715h-215v-524h196v-191h-637zM470 906h180q131 0 193 17t101.5 69.5t39.5 140.5q0 75 -40 126.5t-99 65.5t-179 14h-196v-433z" />
<glyph unicode="S" horiz-adv-x="1195" d="M73 1132q0 192 128 307t321 115q184 0 342 -118v102h186v-464h-186v106q-118 177 -325 177q-125 0 -192.5 -57.5t-67.5 -137.5q0 -62 34.5 -109t87 -69t207.5 -61q203 -53 294 -98.5t157 -152.5t66 -245q0 -196 -138 -323.5t-341 -127.5q-209 0 -376 150v-126h-192v556 h192v-136q137 -250 359 -250q113 0 191.5 69.5t78.5 181.5q0 109 -64 157t-241 95q-206 55 -305 104t-157.5 140t-58.5 215z" />
<glyph unicode="T" d="M26 948v582h1240v-582h-189v391h-315v-1148h199v-191h-625v191h195v1148h-315v-391h-190z" />
<glyph unicode="U" horiz-adv-x="1524" d="M30 1339v191h601v-191h-181v-766q0 -178 18 -246.5t90.5 -116t187.5 -47.5q136 0 208.5 41t96.5 111t24 247v777h-177v191h598v-191h-191v-800q0 -162 -14 -235t-74.5 -152.5t-170.5 -127.5t-267 -48q-174 0 -289.5 44.5t-174 119t-77.5 159.5t-19 263v777h-189z" />
<glyph unicode="V" horiz-adv-x="1595" d="M-4 1339v191h604v-191h-178l390 -1028l379 1028h-178v191h587v-191h-185l-504 -1354h-213l-513 1354h-189z" />
<glyph unicode="W" horiz-adv-x="2252" d="M0 1339v191h585v-191h-183l289 -1001l278 1001h-183v191h703v-191h-179l280 -1001l283 1001h-181v191h562v-191h-180l-382 -1354h-219l-344 1210l-343 -1210h-213l-389 1354h-184z" />
<glyph unicode="X" horiz-adv-x="1477" d="M23 0v191h205l389 580l-389 568h-197v191h616v-191h-173l265 -389l267 389h-177v191h588v-191h-192l-377 -549l410 -599h200v-191h-629v191h177l-280 416l-279 -416h185v-191h-609z" />
<glyph unicode="Y" horiz-adv-x="1455" d="M-23 1339v191h629v-191h-192l337 -472l308 472h-192v191h610v-191h-202l-425 -643v-505h209v-191h-645v191h205v505l-455 643h-187z" />
<glyph unicode="Z" horiz-adv-x="1268" d="M56 0v191l820 1148h-593v-270h-189v461h1074v-169l-834 -1170h670v296h190v-487h-1138z" />
<glyph unicode="[" horiz-adv-x="844" d="M236 -459v1989h544v-153h-334v-1683h334v-153h-544z" />
<glyph unicode="\" horiz-adv-x="986" d="M11 1561h183l781 -1585h-183z" />
<glyph unicode="]" horiz-adv-x="844" d="M65 -306h334v1683h-334v153h543v-1989h-543v153z" />
<glyph unicode="^" horiz-adv-x="1057" d="M59 649l389 881h159l391 -881h-199l-272 657l-264 -657h-204z" />
<glyph unicode="_" horiz-adv-x="1126" d="M-13 -169h1153v-113h-1153v113z" />
<glyph unicode="`" horiz-adv-x="750" d="M122 1554h304l155 -348h-141z" />
<glyph unicode="a" horiz-adv-x="1195" d="M103 319q0 149 114 246.5t275 97.5q149 0 289 -90v106q0 81 -15.5 125t-72 79t-147.5 35q-158 0 -228 -125l-200 53q133 248 460 248q119 0 206.5 -32t130.5 -83.5t58 -111t15 -188.5v-493h179v-186h-365v130q-152 -148 -339 -148q-145 0 -252.5 95t-107.5 242zM304 320 q0 -75 51 -125.5t139 -50.5q152 0 287 128v124q-135 106 -274 106q-87 0 -145 -51t-58 -131z" />
<glyph unicode="b" horiz-adv-x="1455" d="M59 0v186h190v1158h-190v186h394v-616q157 180 386 180q220 0 369 -151t149 -399q0 -237 -145.5 -399.5t-373.5 -162.5q-127 0 -233 55t-152 123v-160h-394zM460 530q0 -166 101.5 -263.5t234.5 -97.5q140 0 241 103.5t101 277.5q0 168 -100.5 261t-235.5 93 q-133 0 -237.5 -96t-104.5 -278z" />
<glyph unicode="c" horiz-adv-x="1173" d="M79 540q0 241 158.5 397.5t365.5 156.5q177 0 299 -104v75h187v-403h-187q-14 116 -94 177.5t-185 61.5q-141 0 -229 -99.5t-88 -261.5q0 -151 83.5 -265.5t241.5 -114.5q220 0 319 208l173 -81q-143 -318 -500 -318q-253 0 -398.5 173t-145.5 398z" />
<glyph unicode="d" horiz-adv-x="1408" d="M99 528q0 263 161.5 414.5t365.5 151.5q216 0 376 -171v421h-204v186h413v-1344h191v-186h-400v156q-156 -174 -380 -174q-208 0 -365.5 142t-157.5 404zM322 534q0 -176 99.5 -271t238.5 -95q134 0 238 99.5t104 275.5q0 177 -106 267.5t-238 90.5q-142 0 -239 -106 t-97 -261z" />
<glyph unicode="e" d="M81 532q0 246 169 404t388 158q214 0 388.5 -154.5t181.5 -459.5h-896q20 -148 117 -239t247 -91q219 0 347 176l185 -82q-90 -140 -234.5 -207.5t-301.5 -67.5q-244 0 -417.5 152.5t-173.5 410.5zM320 631h672q-22 113 -116.5 203.5t-231.5 90.5q-126 0 -215 -82 t-109 -212z" />
<glyph unicode="f" horiz-adv-x="657" d="M62 0v186h155v693h-155v185h155v154q0 194 82.5 268.5t194.5 74.5q242 0 280 -245l-186 -29q-10 102 -80 102q-47 0 -64.5 -32.5t-17.5 -138.5v-154h182v-185h-182v-693h202v-186h-566z" />
<glyph unicode="g" horiz-adv-x="1408" d="M79 517q0 253 159 408.5t368 155.5q211 0 376 -168v152h401v-186h-192v-793q0 -161 -16.5 -238.5t-79.5 -158.5t-189.5 -136t-282.5 -55q-236 0 -421 142l137 152q138 -108 301 -108q90 0 167 35t115 84.5t49 94t11 149.5v97q-49 -63 -154.5 -119t-231.5 -56 q-229 0 -373 158.5t-144 389.5zM301 521q0 -161 94.5 -263.5t240.5 -102.5q143 0 246.5 103t103.5 264q0 164 -103.5 264t-240.5 100q-136 0 -238.5 -98.5t-102.5 -266.5z" />
<glyph unicode="h" d="M46 0v186h193v1158h-193v186h402v-587q188 151 357 151q106 0 174 -44t93 -116t25 -210v-538h181v-186h-390v651q0 121 -8 162t-42.5 67t-81.5 26q-121 0 -308 -137v-583h184v-186h-586z" />
<glyph unicode="i" horiz-adv-x="657" d="M73 0v186h166v693h-166v186h375v-879h164v-186h-539zM209 1427q0 50 35.5 87.5t91.5 37.5q51 0 88.5 -36t37.5 -89t-37.5 -90t-88.5 -37q-53 0 -90 37.5t-37 89.5z" />
<glyph unicode="j" horiz-adv-x="657" d="M-42 -458v190q53 -7 101 -7q83 0 124 25.5t55 73.5t14 300v755h-167v186h376v-907q0 -274 -17.5 -381.5t-104.5 -176.5t-258 -69q-65 0 -123 11zM222 1427q0 51 37.5 88t89.5 37q53 0 89.5 -36t36.5 -89t-37.5 -90t-88.5 -37q-54 0 -90.5 38t-36.5 89z" />
<glyph unicode="k" d="M55 0v186h191v1158h-191v186h400v-956l399 318h-178v173h589v-173h-163l-399 -332l375 -374h187v-186h-274l-536 536v-350h184v-186h-584z" />
<glyph unicode="l" horiz-adv-x="657" d="M45 0v186h189v1158h-189v186h398v-1344h163v-186h-561z" />
<glyph unicode="m" horiz-adv-x="1949" d="M59 0v186h191v693h-177v186h386v-134q189 150 370 150q183 0 252 -166q208 166 387 166q104 0 170.5 -45.5t89.5 -115.5t23 -206v-528h186v-186h-395v676q0 93 -8 131t-41.5 62.5t-81.5 24.5q-134 0 -304 -137v-571h182v-186h-391v696q0 105 -30.5 151.5t-103.5 46.5 q-118 0 -305 -137v-571h187v-186h-587z" />
<glyph unicode="n" d="M60 0v186h188v693h-188v186h396v-129q202 145 368 145q103 0 171 -49t88.5 -119.5t20.5 -207.5v-519h180v-186h-389v696q0 121 -36 158t-89 37q-139 0 -314 -135v-570h184v-186h-580z" />
<glyph unicode="o" d="M86 532q0 247 162.5 404.5t397.5 157.5q230 0 395 -155.5t165 -406.5q0 -250 -164.5 -406.5t-395.5 -156.5q-238 0 -399 158.5t-161 404.5zM307 532q0 -157 98.5 -257.5t240.5 -100.5q144 0 241 101.5t97 256.5q0 157 -99 258t-239 101q-148 0 -243.5 -103.5 t-95.5 -255.5z" />
<glyph unicode="p" horiz-adv-x="1408" d="M15 -292h195v1171h-179v186h388v-167q156 183 379 183q224 0 371 -154t147 -400q0 -259 -159.5 -408.5t-363.5 -149.5q-211 0 -374 163v-424h207v-185h-611v185zM416 517q0 -88 36 -168.5t115.5 -134.5t186.5 -54q149 0 246.5 100t97.5 275q0 170 -102 265.5t-232 95.5 q-138 0 -243 -103.5t-105 -275.5z" />
<glyph unicode="q" horiz-adv-x="1386" d="M81 529q0 249 148.5 400.5t370.5 151.5t378 -183v167h388v-186h-179v-1171h195v-185h-611v185h207v426q-158 -165 -377 -165q-199 0 -359.5 148.5t-160.5 411.5zM299 531q0 -155 89.5 -263t252.5 -108q164 0 252 110t88 247q0 172 -105 275.5t-244 103.5 q-134 0 -233.5 -97.5t-99.5 -267.5z" />
<glyph unicode="r" horiz-adv-x="939" d="M50 879v186h381v-240q35 93 98 155t133 81.5t190 19.5h56v-211h-42q-160 0 -238.5 -32t-116.5 -116t-38 -302v-234h232v-186h-655v186h214v693h-214z" />
<glyph unicode="s" horiz-adv-x="1031" d="M92 0v365h187v-35q10 -75 81 -123.5t168 -48.5q101 0 161.5 35.5t60.5 98.5q0 60 -50 88.5t-198 52.5q-220 38 -314 121t-94 215q0 133 102 222.5t269 89.5q151 0 260 -61v45h186v-353h-186v65q-85 131 -247 131q-82 0 -135.5 -36t-53.5 -95q0 -61 49 -83.5t211 -47.5 q155 -24 234 -56.5t131.5 -108t52.5 -175.5q0 -149 -114 -236.5t-295 -87.5q-171 0 -279 77v-59h-187z" />
<glyph unicode="t" horiz-adv-x="679" d="M68 879v186h139v164l209 191v-355h197v-186h-197v-517q0 -124 13.5 -153.5t68.5 -29.5q59 0 115 22v-190q-81 -29 -161 -29q-96 0 -155 42.5t-74.5 106.5t-15.5 220v528h-139z" />
<glyph unicode="u" horiz-adv-x="1268" d="M58 879v186h360v-649q0 -118 6.5 -158.5t38.5 -67t80 -26.5q146 0 311 138v577h-188v186h397v-879h183v-186h-392v122q-184 -140 -352 -140q-107 0 -177 47t-93 121t-23 239v490h-151z" />
<glyph unicode="v" horiz-adv-x="1221" d="M-4 879v186h535v-186h-138l229 -604l229 604h-147v186h520v-186h-164l-340 -897h-189l-347 897h-188z" />
<glyph unicode="w" horiz-adv-x="1736" d="M-3 879v186h449v-186h-140l203 -643l204 643h-117v186h515v-186h-117l204 -643l204 643h-146v186h481v-186h-153l-286 -897h-197l-244 770l-249 -770h-197l-285 897h-129z" />
<glyph unicode="x" horiz-adv-x="1243" d="M40 0v186h157l320 362l-306 331h-144v186h501v-186h-134l192 -206l185 206h-109v186h502v-186h-174l-292 -331l332 -362h134v-186h-502v186h147l-223 238l-207 -238h137v-186h-516z" />
<glyph unicode="y" horiz-adv-x="1268" d="M19 879v186h527v-186h-128l230 -590l225 590h-140v186h515v-186h-158l-527 -1356h-353v182h208l128 314l-350 860h-177z" />
<glyph unicode="z" horiz-adv-x="1009" d="M36 0v174l668 718h-438v-204h-178v377h865v-186l-670 -705h487v218h183v-392h-917z" />
<glyph unicode="{" horiz-adv-x="750" d="M64 441v171q79 2 132 39.5t74.5 109t21.5 255.5q0 237 26 329.5t101 138.5t220 46h62v-164h-34q-110 0 -150 -37t-40 -175q0 -244 -11 -342t-60.5 -167.5t-157.5 -118.5q115 -44 172 -142.5t57 -323.5q0 -206 6.5 -261t42 -84t141.5 -29h34v-163h-62q-108 0 -169.5 20.5 t-107 78.5t-58 143t-12.5 271q0 185 -21.5 256.5t-75 109t-131.5 39.5z" />
<glyph unicode="|" horiz-adv-x="1186" d="M507 -502v2063h173v-2063h-173z" />
<glyph unicode="}" horiz-adv-x="750" d="M50 1366v164h61q108 0 169.5 -21t107 -78.5t58.5 -143t13 -271.5q0 -184 20.5 -255.5t74.5 -109.5t132 -39v-171q-79 -2 -131.5 -39.5t-74 -109.5t-21.5 -256q0 -236 -26.5 -329t-101.5 -138.5t-220 -45.5h-61v162h34q110 0 149.5 37t39.5 176q0 245 11 343t60.5 166.5 t158.5 118.5q-116 44 -173 143t-57 322q0 207 -6.5 262.5t-42.5 84t-140 28.5h-34z" />
<glyph unicode="~" horiz-adv-x="1313" d="M54 612v186q173 140 335 140q103 0 323 -103q149 -69 224 -69q146 0 324 152v-185q-171 -141 -323 -141q-67 0 -131 19.5t-212 89.5q-140 65 -212 65q-149 0 -328 -154z" />
<glyph unicode="&#xa1;" horiz-adv-x="657" d="M194 805v270h270v-270h-270zM217 9l55 655h112l55 -655v-460h-222v460z" />
<glyph unicode="&#xa2;" horiz-adv-x="1173" d="M90 540q0 236 157 395t361 159q77 0 147 -24l172 493h98l-186 -521q41 -22 74 -52v80h187v-408h-173q-24 141 -150 205l-246 -690q49 -17 108 -17q223 0 322 208l173 -81q-143 -318 -503 -318q-90 0 -166 22l-170 -477h-96l183 511q-138 75 -215 215.5t-77 299.5z M317 540q0 -207 134 -318l240 673q-31 6 -59 6q-141 0 -228 -100t-87 -261z" />
<glyph unicode="&#xa3;" horiz-adv-x="1221" d="M74 657v177h268q-87 219 -87 361q0 179 120.5 269t284.5 90q174 0 294.5 -95.5t120.5 -296.5q0 -14 -1 -39h-210l2 59q0 71 -44.5 133.5t-151.5 62.5q-200 0 -200 -177q0 -90 106 -367h274v-177h-221q15 -76 15 -148q0 -107 -35 -223q179 -90 246 -90q172 0 190 192h133 q-5 -220 -97 -316t-231 -96q-138 0 -321 134q-104 -134 -241 -134q-86 0 -149.5 54t-63.5 147q0 100 68.5 158.5t156.5 58.5q72 0 162 -40q2 31 2 46q0 106 -55 257h-335zM184 178q0 -83 91 -83q80 0 145 97q-92 70 -150 70q-35 0 -60.5 -22.5t-25.5 -61.5z" />
<glyph unicode="&#xa4;" horiz-adv-x="1502" d="M201 333l144 142q-94 145 -94 297q0 151 94 283l-144 143l115 118l145 -144q125 95 288 95q157 0 293 -95l144 144l114 -118l-143 -143q95 -138 95 -295q0 -156 -95 -285l143 -142l-114 -115l-144 142q-138 -97 -296 -97q-156 0 -285 97l-143 -142zM414 764 q0 -139 99 -238t238 -99q140 0 239.5 99.5t99.5 237.5q0 141 -99.5 239.5t-239.5 98.5q-138 0 -237.5 -98.5t-99.5 -239.5z" />
<glyph unicode="&#xa5;" horiz-adv-x="1455" d="M-23 1339v191h629v-191h-192l337 -472l308 472h-192v191h610v-191h-202l-313 -472h409v-129h-493l-28 -42v-188h521v-128h-521v-189h209v-191h-645v191h205v189h-535v128h535v188l-28 42h-507v129h415l-335 472h-187z" />
<glyph unicode="&#xa6;" horiz-adv-x="1186" d="M507 354h173v-856h-173v856zM507 704v857h173v-857h-173z" />
<glyph unicode="&#xa7;" horiz-adv-x="1079" d="M55 569q0 191 223 315q-182 107 -182 302q0 165 120.5 266.5t303.5 101.5q213 0 325.5 -106t112.5 -273v-20h-207q-6 119 -77.5 169t-164.5 50q-82 0 -143 -43t-61 -119t65.5 -124t242.5 -112q222 -80 316.5 -160.5t94.5 -217.5q0 -196 -217 -322q183 -104 183 -295 q0 -154 -114.5 -264.5t-315.5 -110.5q-180 0 -302.5 96.5t-128.5 312.5h204q4 -107 67.5 -163.5t163.5 -56.5q105 0 160.5 48t55.5 115t-64.5 116.5t-253.5 116.5q-155 55 -232 98t-126 118.5t-49 161.5zM253 625q0 -61 43.5 -105t374.5 -175q162 79 162 201 q0 66 -55.5 107.5t-225.5 105.5q-80 31 -145 59q-154 -83 -154 -193z" />
<glyph unicode="&#xa8;" horiz-adv-x="750" d="M54 1380q0 50 35.5 86.5t86.5 36.5t86.5 -36t35.5 -87t-35.5 -86.5t-86.5 -35.5q-50 0 -86 36t-36 86zM452 1380q0 49 34.5 86t87.5 37q51 0 86.5 -36.5t35.5 -86.5t-35.5 -86t-86.5 -36q-52 0 -87 36t-35 86z" />
<glyph unicode="&#xa9;" horiz-adv-x="1667" d="M3 724q0 223 113.5 419t308 303.5t409.5 107.5q209 0 405.5 -106t310 -304.5t113.5 -419.5q0 -343 -242.5 -587t-586.5 -244t-587.5 244t-243.5 587zM141 724q0 -286 203 -489t490 -203t489.5 203t202.5 489q0 287 -203.5 489.5t-488.5 202.5q-174 0 -338 -88.5 t-259.5 -253.5t-95.5 -350zM399 722q0 215 118.5 341t326.5 126q146 0 244.5 -71t130.5 -188l-131 -32q-67 169 -249 169q-139 0 -214.5 -99t-75.5 -250q0 -161 76 -251t202 -90q94 0 172 55.5t101 155.5l135 -39q-31 -137 -140 -218.5t-258 -81.5q-139 0 -239.5 62.5 t-149.5 169t-49 241.5z" />
<glyph unicode="&#xaa;" horiz-adv-x="775" d="M53 1089q0 93 76.5 150t177.5 57q95 0 186 -55v64q0 70 -33.5 107t-118.5 37q-102 0 -149 -76l-130 32q86 149 297 149q102 0 165 -30.5t83.5 -77.5t20.5 -141v-296h116v-111h-237v77q-98 -88 -220 -88q-90 0 -162 55t-72 147zM183 1089q0 -41 31 -73.5t94 -32.5 q97 0 185 76v76q-87 63 -175 63q-62 0 -98.5 -31.5t-36.5 -77.5z" />
<glyph unicode="&#xab;" horiz-adv-x="1079" d="M36 532l327 533h220l-321 -533l321 -532h-220zM507 532l327 533h220l-321 -533l321 -532h-220z" />
<glyph unicode="&#xac;" horiz-adv-x="1502" d="M148 937v173h1206v-690h-173v517h-1033z" />
<glyph unicode="&#xad;" horiz-adv-x="797" d="M69 424v208h660v-208h-660z" />
<glyph unicode="&#xae;" horiz-adv-x="1667" d="M3 724q0 223 113.5 419t308 303.5t409.5 107.5q209 0 405.5 -106t310 -304.5t113.5 -419.5q0 -343 -242.5 -587t-586.5 -244t-587.5 244t-243.5 587zM141 724q0 -286 203 -489t490 -203t489.5 203t202.5 489q0 287 -203.5 489.5t-488.5 202.5q-174 0 -338 -88.5 t-259.5 -253.5t-95.5 -350zM470 265v892h307q133 0 205.5 -17.5t124 -80t51.5 -144.5q0 -94 -69 -168.5t-186 -83.5q83 -23 208 -224l109 -174h-176l-79 141q-91 158 -138 198t-129 40h-84v-379h-144zM614 767h175q216 0 216 136q0 73 -51.5 103t-175.5 30h-164v-269z" />
<glyph unicode="&#xaf;" horiz-adv-x="1126" d="M-13 1700v112h1153v-112h-1153z" />
<glyph unicode="&#xb0;" horiz-adv-x="892" d="M66 1174q0 157 111.5 268.5t269.5 111.5q156 0 268 -111.5t112 -268.5q0 -156 -111.5 -268.5t-268.5 -112.5q-159 0 -270 111.5t-111 269.5zM210 1175q0 -98 69.5 -167.5t167.5 -69.5q97 0 166.5 70t69.5 167q0 100 -70.5 168t-165.5 68q-97 0 -167 -69t-70 -167z" />
<glyph unicode="&#xb1;" horiz-adv-x="1502" d="M148 -24v172h1206v-172h-1206zM148 865v172h518v517h171v-517h517v-172h-517v-516h-171v516h-518z" />
<glyph unicode="&#xb2;" horiz-adv-x="750" d="M54 747q0 129 68 222t253 209q83 52 105 83t22 70q0 117 -138 117q-77 0 -109.5 -38t-32.5 -126q0 -21 2 -48h-147v40q0 278 291 278q134 0 211.5 -61.5t77.5 -157.5q0 -75 -49 -129t-189 -140q-186 -113 -206 -202h314v177h140l-9 -294h-604z" />
<glyph unicode="&#xb3;" horiz-adv-x="750" d="M45 1026h145q7 -184 186 -184q76 0 119 35.5t43 94.5q0 135 -220 135q-14 0 -45 -1v111q143 0 186 23.5t43 88.5q0 48 -31 84t-96 36q-136 0 -137 -158h-152q0 263 285 263q136 0 208 -62t72 -154q0 -109 -105 -174q147 -52 147 -188q0 -109 -90.5 -175t-238.5 -66 q-319 0 -319 291z" />
<glyph unicode="&#xb4;" horiz-adv-x="750" d="M172 1206l155 348h303l-318 -348h-140z" />
<glyph unicode="&#xb5;" horiz-adv-x="1243" d="M148 -477v1542h196v-392q0 -210 16 -302.5t85 -155.5t169 -63t173.5 60.5t92 148.5t18.5 309v395h194v-1065h-177v139q-98 -167 -296 -167q-170 0 -275 146v-595h-196z" />
<glyph unicode="&#xb6;" horiz-adv-x="1221" d="M0 1070q0 196 126.5 328t393.5 132h697v-190h-159v-1817h-184v1817h-245v-1817h-185v1096q-203 9 -323.5 133t-120.5 318z" />
<glyph unicode="&#xb8;" horiz-adv-x="750" d="M186 -381q116 0 158.5 20t42.5 64q0 64 -105 64l45 256h137l-23 -130q156 -38 156 -179q0 -107 -88 -162t-244 -55h-79v122z" />
<glyph unicode="&#xb9;" horiz-adv-x="750" d="M170 747v109h124v576h-124v108h274v-684h117v-109h-391z" />
<glyph unicode="&#xba;" horiz-adv-x="844" d="M58 1217q0 150 107 243.5t257 93.5q151 0 257.5 -94t106.5 -243q0 -151 -106.5 -244.5t-257.5 -93.5t-257.5 94.5t-106.5 243.5zM202 1217q0 -95 64.5 -155.5t155.5 -60.5q92 0 156 61t64 155q0 96 -65 155t-155 59t-155 -59t-65 -155z" />
<glyph unicode="&#xbb;" horiz-adv-x="1079" d="M25 0l323 532l-323 533h220l327 -533l-327 -532h-220zM496 0l322 532l-322 533h220l327 -533l-327 -532h-220z" />
<glyph unicode="&#xbc;" horiz-adv-x="2183" d="M170 747v109h124v576h-124v108h274v-684h117v-109h-391zM275 0l1213 1528h133l-1211 -1528h-135zM1057 305l382 496h126v-482h144v-110h-144v-100h83v-109h-325v109h97v100h-302q-16 59 -61 96zM1216 319h204v265z" />
<glyph unicode="&#xbd;" horiz-adv-x="2183" d="M154 747v109h123v576h-123v108h274v-684h116v-109h-390zM219 0l1213 1528h133l-1211 -1528h-135zM1128 0q0 129 68 222t253 209q80 51 103 82t23 71q0 117 -138 117q-81 0 -111 -41.5t-30 -121.5q0 -19 2 -48h-147q-1 24 -1 41q0 144 81.5 209.5t210.5 65.5 q133 0 210.5 -61.5t77.5 -156.5q0 -75 -49 -129t-188 -140q-186 -113 -206 -203h313v177h139l-9 -293h-602z" />
<glyph unicode="&#xbe;" horiz-adv-x="2183" d="M138 1026h145q6 -184 186 -184q75 0 118 35.5t43 94.5q0 135 -220 135q-14 0 -45 -1v111q143 0 186 23.5t43 88.5q0 48 -31 84t-95 36q-137 0 -138 -158h-152q0 263 285 263q137 0 209 -62t72 -154q0 -109 -106 -174q147 -52 147 -188q0 -109 -90.5 -175t-238.5 -66 q-318 0 -318 291zM365 0l1213 1528h134l-1215 -1528h-132zM1226 305l382 496h127v-482h144v-110h-144v-100h82v-109h-324v109h97v100h-303q-15 59 -61 96zM1385 319h205v265z" />
<glyph unicode="&#xbf;" horiz-adv-x="1057" d="M86 -46q0 188 116 300t273 112q12 0 35 -1l28 297h113l27 -486q-52 13 -105 13q-143 0 -207 -72.5t-64 -171.5q0 -119 68.5 -182.5t175.5 -63.5q129 0 191 74.5t62 186.5q0 25 -1 55h205q1 -30 1 -52q0 -226 -133.5 -334.5t-318.5 -108.5q-224 0 -345 119t-121 315z M460 805v270h270v-270h-270z" />
<glyph unicode="&#xc0;" horiz-adv-x="1573" d="M-18 0v191h185l418 1166h-186v173h782v-173h-190l428 -1166h172v-191h-600v191h190l-114 347h-550l-118 -347h186v-191h-603zM477 1969h304l155 -348h-141zM574 717h436l-204 640h-21z" />
<glyph unicode="&#xc1;" horiz-adv-x="1573" d="M-18 0v191h185l418 1166h-186v173h782v-173h-190l428 -1166h172v-191h-600v191h190l-114 347h-550l-118 -347h186v-191h-603zM574 717h436l-204 640h-21zM637 1621l155 348h303l-318 -348h-140z" />
<glyph unicode="&#xc2;" horiz-adv-x="1573" d="M-18 0v191h185l418 1166h-186v173h782v-173h-190l428 -1166h172v-191h-600v191h190l-114 347h-550l-118 -347h186v-191h-603zM457 1624l185 343h293l191 -343h-156l-183 191l-182 -191h-148zM574 717h436l-204 640h-21z" />
<glyph unicode="&#xc3;" horiz-adv-x="1573" d="M-18 0v191h185l418 1166h-186v173h782v-173h-190l428 -1166h172v-191h-600v191h190l-114 347h-550l-118 -347h186v-191h-603zM427 1656q1 158 59.5 226.5t140.5 68.5q66 0 203 -80q94 -56 125 -56q74 0 78 130h123q-4 -169 -64 -237.5t-137 -68.5q-78 0 -199 74 q-107 64 -140 64q-34 0 -48 -27t-14 -94h-127zM574 717h436l-204 640h-21z" />
<glyph unicode="&#xc4;" horiz-adv-x="1573" d="M-18 0v191h185l418 1166h-186v173h782v-173h-190l428 -1166h172v-191h-600v191h190l-114 347h-550l-118 -347h186v-191h-603zM470 1778q0 50 35.5 86.5t86.5 36.5t86.5 -36t35.5 -87t-35.5 -86.5t-86.5 -35.5q-50 0 -86 36t-36 86zM574 717h436l-204 640h-21zM868 1778 q0 49 34.5 86t87.5 37q51 0 86.5 -36.5t35.5 -86.5t-35.5 -86t-86.5 -36q-52 0 -87 36t-35 86z" />
<glyph unicode="&#xc5;" horiz-adv-x="1573" d="M-18 0v191h185l418 1166h-186v173h298q-149 64 -149 222q0 98 70 168.5t168 70.5q101 0 170 -70.5t69 -168.5q0 -158 -149 -222h305v-173h-190l428 -1166h172v-191h-600v191h190l-114 347h-550l-118 -347h186v-191h-603zM574 717h436l-204 640h-21zM653 1751 q0 -53 38.5 -92.5t94.5 -39.5t95 39t39 93q0 55 -38.5 94t-95.5 39q-54 0 -93.5 -39t-39.5 -94z" />
<glyph unicode="&#xc6;" horiz-adv-x="2113" d="M-133 0v191h147l592 1148h-242v191h1657v-461h-189v270h-663v-450h575v-192h-575v-506h663v280h189v-471h-1328v191h245v506h-432l-263 -506h166v-191h-542zM602 889h336v450h-100z" />
<glyph unicode="&#xc7;" horiz-adv-x="1711" d="M96 760q0 363 211 578.5t551 215.5q300 0 505 -164v140h198v-492h-198q-66 150 -203.5 232t-289.5 82q-229 0 -375.5 -165t-146.5 -417q0 -258 157 -422t373 -164q177 0 322 113.5t205 325.5l199 -111q-61 -233 -236.5 -371t-415.5 -162l-9 -54q191 -26 191 -192 q0 -81 -65 -156.5t-303 -75.5q-42 0 -94 1v125q134 0 181.5 17t47.5 59q0 40 -30.5 56.5t-108.5 16.5l40 203q-330 23 -518 246.5t-188 534.5z" />
<glyph unicode="&#xc8;" horiz-adv-x="1408" d="M62 0v191h198v1148h-198v191h1271v-461h-189v270h-653v-456h568v-191h-568v-501h653v279h189v-470h-1271zM401 1969h304l155 -348h-141z" />
<glyph unicode="&#xc9;" horiz-adv-x="1408" d="M62 0v191h198v1148h-198v191h1271v-461h-189v270h-653v-456h568v-191h-568v-501h653v279h189v-470h-1271zM561 1621l155 348h303l-318 -348h-140z" />
<glyph unicode="&#xca;" horiz-adv-x="1408" d="M62 0v191h198v1148h-198v191h1271v-461h-189v270h-653v-456h568v-191h-568v-501h653v279h189v-470h-1271zM363 1624l185 343h293l191 -343h-156l-183 191l-182 -191h-148z" />
<glyph unicode="&#xcb;" horiz-adv-x="1408" d="M62 0v191h198v1148h-198v191h1271v-461h-189v270h-653v-456h568v-191h-568v-501h653v279h189v-470h-1271zM376 1778q0 50 35.5 86.5t86.5 36.5t86.5 -36t35.5 -87t-35.5 -86.5t-86.5 -35.5q-50 0 -86 36t-36 86zM774 1778q0 49 34.5 86t87.5 37q51 0 86.5 -36.5 t35.5 -86.5t-35.5 -86t-86.5 -36q-52 0 -87 36t-35 86z" />
<glyph unicode="&#xcc;" horiz-adv-x="705" d="M70 0v191h166v1148h-166v191h564v-191h-166v-1148h166v-191h-564zM71 1969h304l155 -348h-141z" />
<glyph unicode="&#xcd;" horiz-adv-x="705" d="M70 0v191h166v1148h-166v191h564v-191h-166v-1148h166v-191h-564zM196 1621l155 348h303l-318 -348h-140z" />
<glyph unicode="&#xce;" horiz-adv-x="705" d="M18 1624l185 343h293l191 -343h-156l-183 191l-182 -191h-148zM70 0v191h166v1148h-166v191h564v-191h-166v-1148h166v-191h-564z" />
<glyph unicode="&#xcf;" horiz-adv-x="705" d="M31 1778q0 50 35.5 86.5t86.5 36.5t86.5 -36t35.5 -87t-35.5 -86.5t-86.5 -35.5q-50 0 -86 36t-36 86zM70 0v191h166v1148h-166v191h564v-191h-166v-1148h166v-191h-564zM429 1778q0 49 34.5 86t87.5 37q51 0 86.5 -36.5t35.5 -86.5t-35.5 -86t-86.5 -36q-52 0 -87 36 t-35 86z" />
<glyph unicode="&#xd0;" horiz-adv-x="1642" d="M9 683v164h229v492h-208v191h592q245 0 377.5 -25t256.5 -114.5t198.5 -245t74.5 -354.5q0 -227 -71.5 -394t-188 -249.5t-276 -115t-407.5 -32.5h-556v191h208v492h-229zM469 191h119q204 0 322 25.5t199.5 86.5t132 184t50.5 291q0 199 -83 337.5t-212 181t-399 42.5 h-129v-492h348v-164h-348v-492z" />
<glyph unicode="&#xd1;" horiz-adv-x="1620" d="M11 0v191h219v1148h-219v191h523l670 -1189v998h-216v191h628v-191h-226v-1354h-237l-734 1305v-1099h219v-191h-627zM449 1656q1 158 59.5 226.5t140.5 68.5q66 0 203 -80q94 -56 125 -56q74 0 78 130h123q-4 -169 -64 -237.5t-137 -68.5q-78 0 -199 74q-107 64 -140 64 q-34 0 -48 -27t-14 -94h-127z" />
<glyph unicode="&#xd2;" horiz-adv-x="1806" d="M112 772q0 334 218 558t568 224q353 0 575 -224t222 -562q0 -344 -226 -568t-575 -224q-222 0 -408.5 106t-280 296t-93.5 394zM364 771q0 -252 147.5 -422.5t387.5 -170.5q237 0 390 174.5t153 416.5q0 244 -155.5 413t-391.5 169q-234 0 -382.5 -166t-148.5 -414z M554 1969h304l155 -348h-141z" />
<glyph unicode="&#xd3;" horiz-adv-x="1806" d="M112 772q0 334 218 558t568 224q353 0 575 -224t222 -562q0 -344 -226 -568t-575 -224q-222 0 -408.5 106t-280 296t-93.5 394zM364 771q0 -252 147.5 -422.5t387.5 -170.5q237 0 390 174.5t153 416.5q0 244 -155.5 413t-391.5 169q-234 0 -382.5 -166t-148.5 -414z M794 1621l155 348h303l-318 -348h-140z" />
<glyph unicode="&#xd4;" horiz-adv-x="1806" d="M112 772q0 334 218 558t568 224q353 0 575 -224t222 -562q0 -344 -226 -568t-575 -224q-222 0 -408.5 106t-280 296t-93.5 394zM364 771q0 -252 147.5 -422.5t387.5 -170.5q237 0 390 174.5t153 416.5q0 244 -155.5 413t-391.5 169q-234 0 -382.5 -166t-148.5 -414z M570 1624l185 343h293l191 -343h-156l-183 191l-182 -191h-148z" />
<glyph unicode="&#xd5;" horiz-adv-x="1806" d="M112 772q0 334 218 558t568 224q353 0 575 -224t222 -562q0 -344 -226 -568t-575 -224q-222 0 -408.5 106t-280 296t-93.5 394zM364 771q0 -252 147.5 -422.5t387.5 -170.5q237 0 390 174.5t153 416.5q0 244 -155.5 413t-391.5 169q-234 0 -382.5 -166t-148.5 -414z M539 1656q1 158 59.5 226.5t140.5 68.5q66 0 203 -80q94 -56 125 -56q74 0 78 130h123q-4 -169 -64 -237.5t-137 -68.5q-78 0 -199 74q-107 64 -140 64q-34 0 -48 -27t-14 -94h-127z" />
<glyph unicode="&#xd6;" horiz-adv-x="1806" d="M112 772q0 334 218 558t568 224q353 0 575 -224t222 -562q0 -344 -226 -568t-575 -224q-222 0 -408.5 106t-280 296t-93.5 394zM364 771q0 -252 147.5 -422.5t387.5 -170.5q237 0 390 174.5t153 416.5q0 244 -155.5 413t-391.5 169q-234 0 -382.5 -166t-148.5 -414z M582 1778q0 50 35.5 86.5t86.5 36.5t86.5 -36t35.5 -87t-35.5 -86.5t-86.5 -35.5q-50 0 -86 36t-36 86zM980 1778q0 49 34.5 86t87.5 37q51 0 86.5 -36.5t35.5 -86.5t-35.5 -86t-86.5 -36q-52 0 -87 36t-35 86z" />
<glyph unicode="&#xd7;" horiz-adv-x="1502" d="M194 330l435 434l-435 436l122 122l435 -435l436 435l122 -122l-436 -436l436 -434l-122 -122l-436 436l-435 -436z" />
<glyph unicode="&#xd8;" horiz-adv-x="1806" d="M112 778q0 324 218.5 550t565.5 226q279 0 481 -144l125 141l112 -97l-125 -141q206 -217 206 -547q0 -342 -226.5 -566t-569.5 -224q-269 0 -470 142l-124 -140l-113 95l126 141q-206 228 -206 564zM364 772q0 -215 112 -379l749 846q-145 112 -329 112 q-235 0 -383.5 -166t-148.5 -413zM579 287q138 -109 321 -109q235 0 388.5 175.5t153.5 414.5q0 207 -114 364z" />
<glyph unicode="&#xd9;" horiz-adv-x="1524" d="M30 1339v191h601v-191h-181v-766q0 -178 18 -246.5t90.5 -116t187.5 -47.5q136 0 208.5 41t96.5 111t24 247v777h-177v191h598v-191h-191v-800q0 -162 -14 -235t-74.5 -152.5t-170.5 -127.5t-267 -48q-174 0 -289.5 44.5t-174 119t-77.5 159.5t-19 263v777h-189z M427 1969h304l155 -348h-141z" />
<glyph unicode="&#xda;" horiz-adv-x="1524" d="M30 1339v191h601v-191h-181v-766q0 -178 18 -246.5t90.5 -116t187.5 -47.5q136 0 208.5 41t96.5 111t24 247v777h-177v191h598v-191h-191v-800q0 -162 -14 -235t-74.5 -152.5t-170.5 -127.5t-267 -48q-174 0 -289.5 44.5t-174 119t-77.5 159.5t-19 263v777h-189z M640 1621l155 348h303l-318 -348h-140z" />
<glyph unicode="&#xdb;" horiz-adv-x="1524" d="M30 1339v191h601v-191h-181v-766q0 -178 18 -246.5t90.5 -116t187.5 -47.5q136 0 208.5 41t96.5 111t24 247v777h-177v191h598v-191h-191v-800q0 -162 -14 -235t-74.5 -152.5t-170.5 -127.5t-267 -48q-174 0 -289.5 44.5t-174 119t-77.5 159.5t-19 263v777h-189z M429 1624l185 343h293l191 -343h-156l-183 191l-182 -191h-148z" />
<glyph unicode="&#xdc;" horiz-adv-x="1524" d="M30 1339v191h601v-191h-181v-766q0 -178 18 -246.5t90.5 -116t187.5 -47.5q136 0 208.5 41t96.5 111t24 247v777h-177v191h598v-191h-191v-800q0 -162 -14 -235t-74.5 -152.5t-170.5 -127.5t-267 -48q-174 0 -289.5 44.5t-174 119t-77.5 159.5t-19 263v777h-189z M442 1778q0 50 35.5 86.5t86.5 36.5t86.5 -36t35.5 -87t-35.5 -86.5t-86.5 -35.5q-50 0 -86 36t-36 86zM840 1778q0 49 34.5 86t87.5 37q51 0 86.5 -36.5t35.5 -86.5t-35.5 -86t-86.5 -36q-52 0 -87 36t-35 86z" />
<glyph unicode="&#xdd;" horiz-adv-x="1455" d="M-23 1339v191h629v-191h-192l337 -472l308 472h-192v191h610v-191h-202l-425 -643v-505h209v-191h-645v191h205v505l-455 643h-187zM637 1621l155 348h303l-318 -348h-140z" />
<glyph unicode="&#xde;" d="M45 0v191h193v1148h-193v191h622v-191h-198v-101h123q241 0 360.5 -34.5t200.5 -155t81 -284.5q0 -130 -53 -234t-132 -153.5t-177.5 -66.5t-297.5 -17h-105v-102h198v-191h-622zM469 477h132q225 0 312 64.5t87 227.5q0 103 -46 171.5t-114.5 87t-227.5 18.5h-143v-569z " />
<glyph unicode="&#xdf;" horiz-adv-x="1455" d="M62 0v186h189v738q0 235 38 355t162 201t303 81q195 0 327 -99t132 -276q0 -209 -197 -307q164 -34 250.5 -154.5t86.5 -282.5q0 -208 -114 -334t-303 -126q-104 0 -190 42v176q68 -38 140 -38q112 0 179.5 77.5t67.5 204.5q0 115 -53.5 190.5t-130 102.5t-203.5 31v172 q116 0 183 64t67 161q0 96 -66 154.5t-174 58.5q-116 0 -183 -47.5t-90 -134.5t-23 -272v-738h165v-186h-563z" />
<glyph unicode="&#xe0;" horiz-adv-x="1195" d="M103 319q0 149 114 246.5t275 97.5q149 0 289 -90v106q0 81 -15.5 125t-72 79t-147.5 35q-158 0 -228 -125l-200 53q133 248 460 248q119 0 206.5 -32t130.5 -83.5t58 -111t15 -188.5v-493h179v-186h-365v130q-152 -148 -339 -148q-145 0 -252.5 95t-107.5 242zM304 320 q0 -75 51 -125.5t139 -50.5q152 0 287 128v124q-135 106 -274 106q-87 0 -145 -51t-58 -131zM320 1554h304l155 -348h-141z" />
<glyph unicode="&#xe1;" horiz-adv-x="1195" d="M103 319q0 149 114 246.5t275 97.5q149 0 289 -90v106q0 81 -15.5 125t-72 79t-147.5 35q-158 0 -228 -125l-200 53q133 248 460 248q119 0 206.5 -32t130.5 -83.5t58 -111t15 -188.5v-493h179v-186h-365v130q-152 -148 -339 -148q-145 0 -252.5 95t-107.5 242zM304 320 q0 -75 51 -125.5t139 -50.5q152 0 287 128v124q-135 106 -274 106q-87 0 -145 -51t-58 -131zM392 1206l155 348h303l-318 -348h-140z" />
<glyph unicode="&#xe2;" horiz-adv-x="1195" d="M103 319q0 149 114 246.5t275 97.5q149 0 289 -90v106q0 81 -15.5 125t-72 79t-147.5 35q-158 0 -228 -125l-200 53q133 248 460 248q119 0 206.5 -32t130.5 -83.5t58 -111t15 -188.5v-493h179v-186h-365v130q-152 -148 -339 -148q-145 0 -252.5 95t-107.5 242zM245 1209 l185 343h293l191 -343h-156l-183 191l-182 -191h-148zM304 320q0 -75 51 -125.5t139 -50.5q152 0 287 128v124q-135 106 -274 106q-87 0 -145 -51t-58 -131z" />
<glyph unicode="&#xe3;" horiz-adv-x="1195" d="M103 319q0 149 114 246.5t275 97.5q149 0 289 -90v106q0 81 -15.5 125t-72 79t-147.5 35q-158 0 -228 -125l-200 53q133 248 460 248q119 0 206.5 -32t130.5 -83.5t58 -111t15 -188.5v-493h179v-186h-365v130q-152 -148 -339 -148q-145 0 -252.5 95t-107.5 242zM215 1241 q1 158 59.5 226.5t140.5 68.5q66 0 203 -80q94 -56 125 -56q74 0 78 130h123q-4 -169 -64 -237.5t-137 -68.5q-78 0 -199 74q-107 64 -140 64q-34 0 -48 -27t-14 -94h-127zM304 320q0 -75 51 -125.5t139 -50.5q152 0 287 128v124q-135 106 -274 106q-87 0 -145 -51t-58 -131 z" />
<glyph unicode="&#xe4;" horiz-adv-x="1195" d="M103 319q0 149 114 246.5t275 97.5q149 0 289 -90v106q0 81 -15.5 125t-72 79t-147.5 35q-158 0 -228 -125l-200 53q133 248 460 248q119 0 206.5 -32t130.5 -83.5t58 -111t15 -188.5v-493h179v-186h-365v130q-152 -148 -339 -148q-145 0 -252.5 95t-107.5 242zM252 1380 q0 50 35.5 86.5t86.5 36.5t86.5 -36t35.5 -87t-35.5 -86.5t-86.5 -35.5q-50 0 -86 36t-36 86zM304 320q0 -75 51 -125.5t139 -50.5q152 0 287 128v124q-135 106 -274 106q-87 0 -145 -51t-58 -131zM650 1380q0 49 34.5 86t87.5 37q51 0 86.5 -36.5t35.5 -86.5t-35.5 -86 t-86.5 -36q-52 0 -87 36t-35 86z" />
<glyph unicode="&#xe5;" horiz-adv-x="1195" d="M103 319q0 149 114 246.5t275 97.5q149 0 289 -90v106q0 81 -15.5 125t-72 79t-147.5 35q-158 0 -228 -125l-200 53q133 248 460 248q119 0 206.5 -32t130.5 -83.5t58 -111t15 -188.5v-493h179v-186h-365v130q-152 -148 -339 -148q-145 0 -252.5 95t-107.5 242zM304 320 q0 -75 51 -125.5t139 -50.5q152 0 287 128v124q-135 106 -274 106q-87 0 -145 -51t-58 -131zM354 1380q0 87 63 153t156 66q91 0 155 -64t64 -155q0 -90 -64.5 -154t-154.5 -64q-93 0 -156 65t-63 153zM440 1380q0 -53 38.5 -93t94.5 -40q55 0 94 39.5t39 93.5t-39 93 t-94 39q-57 0 -95 -39.5t-38 -92.5z" />
<glyph unicode="&#xe6;" horiz-adv-x="1993" d="M94 306q0 165 128.5 258t286.5 93q153 0 311 -89v110q0 90 -19.5 134t-76 75t-149.5 31q-188 0 -267 -129l-202 56q143 249 491 249q262 0 380 -164q148 164 377 164q233 0 386.5 -173.5t157.5 -442.5h-865q10 -148 114 -238t238 -90q95 0 184 47.5t143 121.5l186 -83 q-71 -122 -211 -194.5t-297 -72.5q-298 0 -475 229q-57 -85 -176.5 -157t-257.5 -72q-161 0 -274 90.5t-113 246.5zM321 305q0 -75 59.5 -120t138.5 -45q172 0 301 135v107q-134 104 -279 104q-98 0 -159 -51t-61 -130zM1032 637h638q-24 132 -115 203t-205 71 q-115 0 -204.5 -75.5t-113.5 -198.5z" />
<glyph unicode="&#xe7;" horiz-adv-x="1173" d="M79 540q0 241 158.5 397.5t365.5 156.5q177 0 299 -104v75h187v-403h-187q-14 116 -94 177.5t-185 61.5q-141 0 -229 -99.5t-88 -261.5q0 -151 83.5 -265.5t241.5 -114.5q220 0 319 208l173 -81q-134 -297 -466 -317l-15 -77q157 -38 157 -179q0 -88 -76 -152.5 t-257 -64.5h-79v122q117 0 160 20t43 64q0 64 -107 64l38 210q-198 31 -320 194t-122 369z" />
<glyph unicode="&#xe8;" d="M81 532q0 246 169 404t388 158q214 0 388.5 -154.5t181.5 -459.5h-896q20 -148 117 -239t247 -91q219 0 347 176l185 -82q-90 -140 -234.5 -207.5t-301.5 -67.5q-244 0 -417.5 152.5t-173.5 410.5zM320 631h672q-22 113 -116.5 203.5t-231.5 90.5q-126 0 -215 -82 t-109 -212zM355 1554h304l155 -348h-141z" />
<glyph unicode="&#xe9;" d="M81 532q0 246 169 404t388 158q214 0 388.5 -154.5t181.5 -459.5h-896q20 -148 117 -239t247 -91q219 0 347 176l185 -82q-90 -140 -234.5 -207.5t-301.5 -67.5q-244 0 -417.5 152.5t-173.5 410.5zM320 631h672q-22 113 -116.5 203.5t-231.5 90.5q-126 0 -215 -82 t-109 -212zM482 1206l155 348h303l-318 -348h-140z" />
<glyph unicode="&#xea;" d="M81 532q0 246 169 404t388 158q214 0 388.5 -154.5t181.5 -459.5h-896q20 -148 117 -239t247 -91q219 0 347 176l185 -82q-90 -140 -234.5 -207.5t-301.5 -67.5q-244 0 -417.5 152.5t-173.5 410.5zM311 1209l185 343h293l191 -343h-156l-183 191l-182 -191h-148zM320 631 h672q-22 113 -116.5 203.5t-231.5 90.5q-126 0 -215 -82t-109 -212z" />
<glyph unicode="&#xeb;" d="M81 532q0 246 169 404t388 158q214 0 388.5 -154.5t181.5 -459.5h-896q20 -148 117 -239t247 -91q219 0 347 176l185 -82q-90 -140 -234.5 -207.5t-301.5 -67.5q-244 0 -417.5 152.5t-173.5 410.5zM320 631h672q-22 113 -116.5 203.5t-231.5 90.5q-126 0 -215 -82 t-109 -212zM324 1380q0 50 35.5 86.5t86.5 36.5t86.5 -36t35.5 -87t-35.5 -86.5t-86.5 -35.5q-50 0 -86 36t-36 86zM722 1380q0 49 34.5 86t87.5 37q51 0 86.5 -36.5t35.5 -86.5t-35.5 -86t-86.5 -36q-52 0 -87 36t-35 86z" />
<glyph unicode="&#xec;" horiz-adv-x="657" d="M26 1554h304l155 -348h-141zM73 0v186h166v693h-166v186h375v-879h164v-186h-539z" />
<glyph unicode="&#xed;" horiz-adv-x="657" d="M73 0v186h166v693h-166v186h375v-879h164v-186h-539zM160 1206l155 348h303l-318 -348h-140z" />
<glyph unicode="&#xee;" horiz-adv-x="657" d="M-4 1209l185 343h293l191 -343h-156l-183 191l-182 -191h-148zM73 0v186h166v693h-166v186h375v-879h164v-186h-539z" />
<glyph unicode="&#xef;" horiz-adv-x="657" d="M9 1380q0 50 35.5 86.5t86.5 36.5t86.5 -36t35.5 -87t-35.5 -86.5t-86.5 -35.5q-50 0 -86 36t-36 86zM73 0v186h166v693h-166v186h375v-879h164v-186h-539zM407 1380q0 49 34.5 86t87.5 37q51 0 86.5 -36.5t35.5 -86.5t-35.5 -86t-86.5 -36q-52 0 -87 36t-35 86z" />
<glyph unicode="&#xf0;" d="M87 536q0 147 67 271.5t183.5 205.5t268.5 81q158 0 289 -97q-94 173 -216 310l-345 -144l-36 87l312 130q-59 62 -157 150h225q54 -41 96 -81l196 81l36 -87l-162 -67q359 -402 359 -790q0 -267 -157 -442t-409 -175q-251 0 -400.5 173t-149.5 394zM307 527 q0 -150 92 -253.5t241 -103.5q145 0 243 109t98 260q0 119 -57.5 203t-140 118t-144.5 34q-136 0 -234 -99.5t-98 -267.5z" />
<glyph unicode="&#xf1;" d="M60 0v186h188v693h-188v186h396v-129q202 145 368 145q103 0 171 -49t88.5 -119.5t20.5 -207.5v-519h180v-186h-389v696q0 121 -36 158t-89 37q-139 0 -314 -135v-570h184v-186h-580zM308 1241q1 158 59.5 226.5t140.5 68.5q66 0 203 -80q94 -56 125 -56q74 0 78 130h123 q-4 -169 -64 -237.5t-137 -68.5q-78 0 -199 74q-107 64 -140 64q-34 0 -48 -27t-14 -94h-127z" />
<glyph unicode="&#xf2;" d="M86 532q0 247 162.5 404.5t397.5 157.5q230 0 395 -155.5t165 -406.5q0 -250 -164.5 -406.5t-395.5 -156.5q-238 0 -399 158.5t-161 404.5zM307 532q0 -157 98.5 -257.5t240.5 -100.5q144 0 241 101.5t97 256.5q0 157 -99 258t-239 101q-148 0 -243.5 -103.5 t-95.5 -255.5zM337 1554h304l155 -348h-141z" />
<glyph unicode="&#xf3;" d="M86 532q0 247 162.5 404.5t397.5 157.5q230 0 395 -155.5t165 -406.5q0 -250 -164.5 -406.5t-395.5 -156.5q-238 0 -399 158.5t-161 404.5zM307 532q0 -157 98.5 -257.5t240.5 -100.5q144 0 241 101.5t97 256.5q0 157 -99 258t-239 101q-148 0 -243.5 -103.5 t-95.5 -255.5zM496 1206l155 348h303l-318 -348h-140z" />
<glyph unicode="&#xf4;" d="M86 532q0 247 162.5 404.5t397.5 157.5q230 0 395 -155.5t165 -406.5q0 -250 -164.5 -406.5t-395.5 -156.5q-238 0 -399 158.5t-161 404.5zM307 532q0 -157 98.5 -257.5t240.5 -100.5q144 0 241 101.5t97 256.5q0 157 -99 258t-239 101q-148 0 -243.5 -103.5 t-95.5 -255.5zM312 1209l185 343h293l191 -343h-156l-183 191l-182 -191h-148z" />
<glyph unicode="&#xf5;" d="M86 532q0 247 162.5 404.5t397.5 157.5q230 0 395 -155.5t165 -406.5q0 -250 -164.5 -406.5t-395.5 -156.5q-238 0 -399 158.5t-161 404.5zM282 1241q1 158 59.5 226.5t140.5 68.5q66 0 203 -80q94 -56 125 -56q74 0 78 130h123q-4 -169 -64 -237.5t-137 -68.5 q-78 0 -199 74q-107 64 -140 64q-34 0 -48 -27t-14 -94h-127zM307 532q0 -157 98.5 -257.5t240.5 -100.5q144 0 241 101.5t97 256.5q0 157 -99 258t-239 101q-148 0 -243.5 -103.5t-95.5 -255.5z" />
<glyph unicode="&#xf6;" d="M86 532q0 247 162.5 404.5t397.5 157.5q230 0 395 -155.5t165 -406.5q0 -250 -164.5 -406.5t-395.5 -156.5q-238 0 -399 158.5t-161 404.5zM307 532q0 -157 98.5 -257.5t240.5 -100.5q144 0 241 101.5t97 256.5q0 157 -99 258t-239 101q-148 0 -243.5 -103.5 t-95.5 -255.5zM325 1380q0 50 35.5 86.5t86.5 36.5t86.5 -36t35.5 -87t-35.5 -86.5t-86.5 -35.5q-50 0 -86 36t-36 86zM723 1380q0 49 34.5 86t87.5 37q51 0 86.5 -36.5t35.5 -86.5t-35.5 -86t-86.5 -36q-52 0 -87 36t-35 86z" />
<glyph unicode="&#xf7;" horiz-adv-x="1502" d="M148 679v172h1206v-172h-1206zM644 305q0 45 31.5 75.5t75.5 30.5t76 -30.5t32 -75.5t-32 -76.5t-76 -31.5t-75.5 31.5t-31.5 76.5zM644 1225q0 48 32 78t75 30q44 0 76 -31.5t32 -76.5t-32 -75.5t-76 -30.5t-75.5 31t-31.5 75z" />
<glyph unicode="&#xf8;" d="M86 534q0 245 164 402.5t395 157.5q185 0 331 -102l106 126l73 -64l-106 -124q157 -159 157 -399q0 -246 -164 -404t-394 -158q-184 0 -330 100l-107 -125l-76 64l107 124q-156 161 -156 402zM307 534q0 -138 77 -236l453 532q-88 61 -191 61q-141 0 -240 -101t-99 -256z M456 232q86 -58 191 -58q135 0 236 98.5t101 258.5q0 138 -75 232z" />
<glyph unicode="&#xf9;" horiz-adv-x="1268" d="M58 879v186h360v-649q0 -118 6.5 -158.5t38.5 -67t80 -26.5q146 0 311 138v577h-188v186h397v-879h183v-186h-392v122q-184 -140 -352 -140q-107 0 -177 47t-93 121t-23 239v490h-151zM354 1554h304l155 -348h-141z" />
<glyph unicode="&#xfa;" horiz-adv-x="1268" d="M58 879v186h360v-649q0 -118 6.5 -158.5t38.5 -67t80 -26.5q146 0 311 138v577h-188v186h397v-879h183v-186h-392v122q-184 -140 -352 -140q-107 0 -177 47t-93 121t-23 239v490h-151zM477 1206l155 348h303l-318 -348h-140z" />
<glyph unicode="&#xfb;" horiz-adv-x="1268" d="M58 879v186h360v-649q0 -118 6.5 -158.5t38.5 -67t80 -26.5q146 0 311 138v577h-188v186h397v-879h183v-186h-392v122q-184 -140 -352 -140q-107 0 -177 47t-93 121t-23 239v490h-151zM318 1209l185 343h293l191 -343h-156l-183 191l-182 -191h-148z" />
<glyph unicode="&#xfc;" horiz-adv-x="1268" d="M58 879v186h360v-649q0 -118 6.5 -158.5t38.5 -67t80 -26.5q146 0 311 138v577h-188v186h397v-879h183v-186h-392v122q-184 -140 -352 -140q-107 0 -177 47t-93 121t-23 239v490h-151zM331 1380q0 50 35.5 86.5t86.5 36.5t86.5 -36t35.5 -87t-35.5 -86.5t-86.5 -35.5 q-50 0 -86 36t-36 86zM729 1380q0 49 34.5 86t87.5 37q51 0 86.5 -36.5t35.5 -86.5t-35.5 -86t-86.5 -36q-52 0 -87 36t-35 86z" />
<glyph unicode="&#xfd;" horiz-adv-x="1268" d="M19 879v186h527v-186h-128l230 -590l225 590h-140v186h515v-186h-158l-527 -1356h-353v182h208l128 314l-350 860h-177zM509 1206l155 348h303l-318 -348h-140z" />
<glyph unicode="&#xfe;" horiz-adv-x="1408" d="M15 -292h195v1636h-179v186h388v-632q156 183 379 183q224 0 371 -154t147 -400q0 -259 -159.5 -408.5t-363.5 -149.5q-211 0 -374 163v-424h207v-185h-611v185zM416 517q0 -88 36 -168.5t115.5 -134.5t186.5 -54q149 0 246.5 100t97.5 275q0 170 -102 265.5t-232 95.5 q-138 0 -243 -103.5t-105 -275.5z" />
<glyph unicode="&#xff;" horiz-adv-x="1268" d="M19 879v186h527v-186h-128l230 -590l225 590h-140v186h515v-186h-158l-527 -1356h-353v182h208l128 314l-350 860h-177zM326 1380q0 50 35.5 86.5t86.5 36.5t86.5 -36t35.5 -87t-35.5 -86.5t-86.5 -35.5q-50 0 -86 36t-36 86zM724 1380q0 49 34.5 86t87.5 37 q51 0 86.5 -36.5t35.5 -86.5t-35.5 -86t-86.5 -36q-52 0 -87 36t-35 86z" />
<glyph unicode="&#x131;" horiz-adv-x="657" d="M73 0v186h166v693h-166v186h375v-879h164v-186h-539z" />
<glyph unicode="&#x152;" horiz-adv-x="2300" d="M90 750q0 196 81 363t201.5 257t258 125t382.5 35h1212v-461h-188v270h-655v-450h566v-192h-566v-506h655v277h188v-468h-1159q-272 0 -392.5 20t-263.5 115t-231.5 261t-88.5 354zM320 766q0 -202 84 -337t219 -186.5t356 -51.5h172v1148h-201q-156 0 -249.5 -22 t-183.5 -89.5t-143.5 -187.5t-53.5 -274z" />
<glyph unicode="&#x153;" horiz-adv-x="2136" d="M80 534q0 159 75.5 287t208.5 200.5t266 72.5q256 0 429 -215q159 215 427 215q234 0 398 -173.5t164 -442.5h-880q7 -132 103 -228.5t244 -96.5q207 0 349 175l184 -79q-90 -148 -237 -214t-293 -66q-289 0 -459 217q-153 -217 -422 -217q-231 0 -394 158t-163 407z M307 529q0 -158 94.5 -257.5t234.5 -99.5q143 0 233.5 103t90.5 261q0 174 -106.5 260.5t-223.5 86.5q-137 0 -230 -100t-93 -254zM1174 637h639q-24 125 -119 198.5t-213 73.5q-114 0 -199 -70.5t-108 -201.5z" />
<glyph unicode="&#x160;" horiz-adv-x="1195" d="M73 1132q0 192 128 307t321 115q184 0 342 -118v102h186v-464h-186v106q-118 177 -325 177q-125 0 -192.5 -57.5t-67.5 -137.5q0 -62 34.5 -109t87 -69t207.5 -61q203 -53 294 -98.5t157 -152.5t66 -245q0 -196 -138 -323.5t-341 -127.5q-209 0 -376 150v-126h-192v556 h192v-136q137 -250 359 -250q113 0 191.5 69.5t78.5 181.5q0 109 -64 157t-241 95q-206 55 -305 104t-157.5 140t-58.5 215zM239 1967h155l184 -192l182 192h148l-185 -343h-293z" />
<glyph unicode="&#x161;" horiz-adv-x="1031" d="M92 0v365h187v-35q10 -75 81 -123.5t168 -48.5q101 0 161.5 35.5t60.5 98.5q0 60 -50 88.5t-198 52.5q-220 38 -314 121t-94 215q0 133 102 222.5t269 89.5q151 0 260 -61v45h186v-353h-186v65q-85 131 -247 131q-82 0 -135.5 -36t-53.5 -95q0 -61 49 -83.5t211 -47.5 q155 -24 234 -56.5t131.5 -108t52.5 -175.5q0 -149 -114 -236.5t-295 -87.5q-171 0 -279 77v-59h-187zM195 1552h155l184 -192l182 192h148l-185 -343h-293z" />
<glyph unicode="&#x178;" horiz-adv-x="1455" d="M-23 1339v191h629v-191h-192l337 -472l308 472h-192v191h610v-191h-202l-425 -643v-505h209v-191h-645v191h205v505l-455 643h-187zM406 1778q0 50 35.5 86.5t86.5 36.5t86.5 -36t35.5 -87t-35.5 -86.5t-86.5 -35.5q-50 0 -86 36t-36 86zM804 1778q0 49 34.5 86t87.5 37 q51 0 86.5 -36.5t35.5 -86.5t-35.5 -86t-86.5 -36q-52 0 -87 36t-35 86z" />
<glyph unicode="&#x192;" horiz-adv-x="1243" d="M51 -446l38 171q110 -24 167 -24q59 0 90.5 30.5t50.5 136.5l195 1146h-221l26 154h221l27 146q25 136 57 197t97 95.5t154 34.5q92 0 241 -42l-39 -168q-110 27 -169 27q-71 0 -98 -36t-46 -140l-21 -114h224l-27 -154h-225l-210 -1201q-29 -162 -96 -224.5t-183 -62.5 q-110 0 -253 28z" />
<glyph unicode="&#x2c6;" horiz-adv-x="750" d="M41 1209l185 343h293l191 -343h-156l-183 191l-182 -191h-148z" />
<glyph unicode="&#x2c7;" horiz-adv-x="750" d="M41 1552h155l184 -192l182 192h148l-185 -343h-293z" />
<glyph unicode="&#x2c9;" horiz-adv-x="750" d="M54 1284v175h642v-175h-642z" />
<glyph unicode="&#x2d8;" horiz-adv-x="750" d="M36 1537h158q26 -160 181 -160q157 0 183 160h157q-11 -138 -104.5 -226t-235.5 -88t-235 88t-104 226z" />
<glyph unicode="&#x2d9;" horiz-adv-x="750" d="M250 1380q0 52 36.5 89t89.5 37q52 0 89 -37t37 -89t-37 -89t-89 -37q-54 0 -90 38t-36 88z" />
<glyph unicode="&#x2da;" horiz-adv-x="750" d="M156 1380q0 87 63 153t156 66q91 0 155 -64t64 -155q0 -90 -64.5 -154t-154.5 -64q-93 0 -156 65t-63 153zM242 1380q0 -53 38.5 -93t94.5 -40q55 0 94 39.5t39 93.5t-39 93t-94 39q-57 0 -95 -39.5t-38 -92.5z" />
<glyph unicode="&#x2db;" horiz-adv-x="750" d="M170 -243q0 98 66 243h176q-44 -79 -44 -158q0 -143 123 -143q45 0 90 22v-148q-99 -48 -185 -48q-100 0 -163 63.5t-63 168.5z" />
<glyph unicode="&#x2dc;" horiz-adv-x="750" d="M11 1241q1 158 59.5 226.5t140.5 68.5q66 0 203 -80q94 -56 125 -56q74 0 78 130h123q-4 -169 -64 -237.5t-137 -68.5q-78 0 -199 74q-107 64 -140 64q-34 0 -48 -27t-14 -94h-127z" />
<glyph unicode="&#x2dd;" horiz-adv-x="750" d="M-43 1206l155 348h304l-318 -348h-141zM333 1206l155 348h304l-318 -348h-141z" />
<glyph unicode="&#x3c0;" horiz-adv-x="1408" d="M56 996v173h1297v-173h-175v-996h-208v996h-532v-996h-207v996h-175z" />
<glyph unicode="&#x2000;" horiz-adv-x="1028" />
<glyph unicode="&#x2001;" horiz-adv-x="2056" />
<glyph unicode="&#x2002;" horiz-adv-x="1028" />
<glyph unicode="&#x2003;" horiz-adv-x="2056" />
<glyph unicode="&#x2004;" horiz-adv-x="685" />
<glyph unicode="&#x2005;" horiz-adv-x="514" />
<glyph unicode="&#x2006;" horiz-adv-x="342" />
<glyph unicode="&#x2007;" horiz-adv-x="342" />
<glyph unicode="&#x2008;" horiz-adv-x="257" />
<glyph unicode="&#x2009;" horiz-adv-x="411" />
<glyph unicode="&#x200a;" horiz-adv-x="114" />
<glyph unicode="&#x2010;" horiz-adv-x="797" d="M69 424v208h660v-208h-660z" />
<glyph unicode="&#x2011;" horiz-adv-x="797" d="M69 424v208h660v-208h-660z" />
<glyph unicode="&#x2012;" horiz-adv-x="797" d="M69 424v208h660v-208h-660z" />
<glyph unicode="&#x2013;" horiz-adv-x="1126" d="M-13 466v195h1153v-195h-1153z" />
<glyph unicode="&#x2014;" horiz-adv-x="2252" d="M-13 466v195h2279v-195h-2279z" />
<glyph unicode="&#x2018;" horiz-adv-x="657" d="M194 955v235q0 120 18.5 186t79 108.5t172.5 45.5v-114q-132 -20 -132 -164v-27h132v-270h-270z" />
<glyph unicode="&#x2019;" horiz-adv-x="657" d="M194 955v115q132 20 132 163q0 9 -2 27h-130v270h270v-234q0 -121 -18.5 -187t-79.5 -108t-172 -46z" />
<glyph unicode="&#x201a;" horiz-adv-x="657" d="M194 0v271h270v-236q0 -120 -18.5 -186t-79.5 -108t-172 -46v115q132 20 132 164q0 8 -2 26h-130z" />
<glyph unicode="&#x201c;" horiz-adv-x="1173" d="M180 955v235q0 120 19 186t79.5 108.5t172.5 45.5v-114q-132 -20 -132 -164v-27h132v-270h-271zM725 955v235q0 120 18 186t79 108.5t172 45.5v-114q-132 -20 -132 -164q0 -9 2 -27h130v-270h-269z" />
<glyph unicode="&#x201d;" horiz-adv-x="1173" d="M179 955v115q132 20 132 163q0 9 -1 27h-131v270h271v-234q0 -121 -19 -187t-80 -108t-172 -46zM724 1530h269v-234q0 -121 -18.5 -187t-79 -108t-171.5 -46v115q132 20 132 163q0 9 -1 27h-131v270z" />
<glyph unicode="&#x201e;" horiz-adv-x="1173" d="M179 0v271h271v-236q0 -120 -19 -186t-80 -108t-172 -46v115q132 20 132 164q0 8 -1 26h-131zM724 271h269v-236q0 -120 -18.5 -186t-79 -108t-171.5 -46v115q132 20 132 164q0 8 -1 26h-131v271z" />
<glyph unicode="&#x2020;" horiz-adv-x="1173" d="M52 854v211h212q124 -67 282 -67q0 204 -72 303v253h231v-253q-73 -129 -76 -303q179 3 286 67h207v-211h-207q-107 63 -267 63h-19q0 -191 76 -311v-265l-76 -831h-83l-72 831v265q69 126 72 311q-169 -1 -282 -63h-212z" />
<glyph unicode="&#x2021;" horiz-adv-x="1173" d="M88 -16v202h204q81 -50 252 -63q-12 242 -98 420q82 168 98 412q-149 -3 -252 -61h-204v205h204q100 -56 252 -64q-8 168 -72 269v250h231v-250q-68 -119 -76 -269q174 10 262 64h196v-205h-196q-111 58 -262 61q15 -219 109 -412q-98 -200 -109 -420q169 6 262 63h196 v-202h-196q-86 49 -262 59q14 -157 76 -260v-260h-231v260q55 98 72 260q-142 0 -252 -59h-204z" />
<glyph unicode="&#x2022;" horiz-adv-x="797" d="M124 764q0 115 81.5 196t194.5 81q112 0 194 -79t82 -198q0 -113 -81 -193.5t-195 -80.5t-195 80.5t-81 193.5z" />
<glyph unicode="&#x2026;" horiz-adv-x="2252" d="M241 0v271h271v-271h-271zM992 0v271h270v-271h-270zM1742 0v271h271v-271h-271z" />
<glyph unicode="&#x202f;" horiz-adv-x="411" />
<glyph unicode="&#x2030;" horiz-adv-x="2439" d="M62 1144q0 184 82.5 297t243.5 113q151 0 239 -106.5t88 -303.5q0 -187 -84 -298t-243 -111q-150 0 -238 106t-88 303zM132 0l1213 1530h157l-1205 -1530h-165zM220 1145q0 -305 168 -305t168 304q0 305 -168 305t-168 -304zM905 386q0 198 88.5 303.5t238.5 105.5 q151 0 239 -106.5t88 -302.5q0 -198 -88.5 -304t-238.5 -106q-161 0 -244 112.5t-83 297.5zM1065 386q0 -305 167 -305q168 0 168 304q0 305 -168 305q-167 0 -167 -304zM1728 386q0 198 88.5 303.5t238.5 105.5q151 0 239 -106.5t88 -302.5q0 -198 -89 -304t-238 -106 q-161 0 -244 112.5t-83 297.5zM1888 386q0 -305 167 -305q168 0 168 304q0 305 -168 305q-167 0 -167 -304z" />
<glyph unicode="&#x2039;" horiz-adv-x="657" d="M60 532l334 533h213l-321 -533l321 -532h-213z" />
<glyph unicode="&#x203a;" horiz-adv-x="657" d="M50 0l321 532l-321 533h213l333 -533l-333 -532h-213z" />
<glyph unicode="&#x205f;" horiz-adv-x="514" />
<glyph unicode="&#x20ac;" horiz-adv-x="1221" d="M28 531v167h129v65q0 54 3 77h-132v166h144q63 548 544 548q163 0 239 -105v94h199v-455h-199q-17 134 -81 210t-160 76q-140 0 -216 -88.5t-100 -279.5h395v-166h-406l-2 -70l2 -72h406v-167h-389q52 -371 333 -371q91 0 160.5 80.5t98.5 210.5l200 -88 q-36 -177 -159.5 -282.5t-316.5 -105.5q-479 0 -548 556h-144z" />
<glyph unicode="&#x2122;" horiz-adv-x="2252" d="M253 1397v133h733v-133h-293v-762h-150v762h-290zM1086 635v895h220l226 -716l219 716h216v-895h-137v751l-231 -751h-135l-241 762v-762h-137z" />
<glyph unicode="&#x2126;" horiz-adv-x="1783" d="M148 0v185l406 -9q-380 221 -380 716q0 196 82 374t247 282.5t395 104.5q327 0 519 -220t192 -550q0 -457 -378 -707l404 7v-183h-636v195q181 82 281 264.5t100 395.5q0 255 -122 437t-363 182q-246 0 -367 -181t-121 -428q0 -246 102.5 -420t273.5 -247v-198h-635z" />
<glyph unicode="&#x2202;" horiz-adv-x="1113" d="M62 353q0 186 101 342t299.5 237.5t481.5 83.5q-2 275 -62.5 379t-163.5 104q-157 0 -249 -247l-149 66q70 165 179.5 243.5t216.5 78.5q163 0 258.5 -153t95.5 -468q0 -277 -80 -521.5t-245.5 -385t-346.5 -140.5q-148 0 -242 101t-94 280zM260 333q0 -97 58.5 -153.5 t128.5 -56.5q158 0 306.5 186.5t185.5 566.5q-265 -14 -393 -74.5t-207 -196.5t-79 -272z" />
<glyph unicode="&#x2206;" horiz-adv-x="1384" d="M32 0l691 1526l629 -1526h-1320zM169 90h923l-439 1064z" />
<glyph unicode="&#x220f;" horiz-adv-x="1854" d="M178 -502v2063h1498v-2063h-210v1872h-1078v-1872h-210z" />
<glyph unicode="&#x2211;" horiz-adv-x="1606" d="M134 -293l682 839l-663 821v194h1361v-181h-1087l667 -827l-713 -874h1144v-181h-1391v209z" />
<glyph unicode="&#x2215;" horiz-adv-x="679" d="M-333 0l1214 1528h132l-1213 -1528h-133z" />
<glyph unicode="&#x2219;" horiz-adv-x="657" d="M194 630v270h270v-270h-270z" />
<glyph unicode="&#x221a;" horiz-adv-x="1244" d="M96 1008l331 166l445 -906l286 1788h82l-344 -2142l-545 1123l-218 -100z" />
<glyph unicode="&#x221e;" horiz-adv-x="1314" d="M23 766q0 102 70 197.5t202 95.5q167 0 317 -189q128 165 205 210.5t161 45.5q121 0 219 -86t98 -267q0 -185 -92.5 -277t-224.5 -92q-97 0 -173.5 54.5t-192.5 201.5q-150 -188 -317 -188q-123 0 -197.5 90.5t-74.5 203.5zM145 769q0 -75 43 -124t108 -49q110 0 240 170 q-134 172 -242 172q-67 0 -108 -47t-41 -122zM688 767q90 -141 155.5 -190.5t131.5 -49.5q75 0 136.5 55.5t61.5 179.5q0 115 -57 177.5t-145 62.5q-61 0 -118.5 -44t-164.5 -191z" />
<glyph unicode="&#x222b;" horiz-adv-x="610" d="M-3 -483q0 47 27.5 78t71.5 31t77 -36q31 -34 53 -34q42 0 42 67q0 45 -10 132q-40 347 -40 914q0 631 58 818.5t201 187.5q51 0 93.5 -32.5t42.5 -86.5q0 -47 -27.5 -80t-73.5 -33q-39 0 -84 39q-25 22 -44 22q-44 0 -44 -70q0 -46 10 -159q40 -451 40 -751 q0 -701 -51 -920.5t-211 -219.5q-62 0 -96.5 37t-34.5 96z" />
<glyph unicode="&#x2248;" horiz-adv-x="1502" d="M148 353v186q173 141 336 141q102 0 322 -104q150 -70 225 -70q142 0 323 154v-186q-170 -141 -322 -141q-67 0 -131 19.5t-212 88.5q-140 66 -213 66q-148 0 -328 -154zM148 870v186q173 142 336 142q102 0 322 -104q150 -70 225 -70q146 0 323 153v-186 q-170 -141 -322 -141q-67 0 -131 20t-212 89q-140 66 -213 66q-148 0 -328 -155z" />
<glyph unicode="&#x2260;" horiz-adv-x="1502" d="M148 420v173h461l136 344h-597v173h664l228 581h148l-228 -581h394v-173h-461l-135 -344h596v-173h-663l-228 -581h-148l226 581h-393z" />
<glyph unicode="&#x2264;" horiz-adv-x="1502" d="M148 -42v173h1206v-173h-1206zM148 911v155l1206 506v-187l-970 -397l970 -396v-187z" />
<glyph unicode="&#x2265;" horiz-adv-x="1502" d="M148 -42v173h1206v-173h-1206zM148 405v187l971 396l-971 397v187l1206 -506v-155z" />
<glyph unicode="&#x25ca;" horiz-adv-x="1113" d="M51 780l430 784h122l460 -784l-460 -780h-122zM169 780l374 -677l395 677l-395 678z" />
<glyph unicode="&#xe000;" horiz-adv-x="1065" d="M0 1065h1065v-1065h-1065v1065z" />
<glyph unicode="&#xf001;" d="M67 0v186h167v693h-167v186h167v109q0 237 89 312t198 75q123 0 192 -75t82 -175l-187 -25q-10 104 -82 104q-50 0 -66.5 -43t-16.5 -173v-109h646v-879h169v-186h-544v186h166v693h-437v-693h165v-186h-541zM862 1426q0 54 37.5 89.5t89.5 35.5q51 0 88.5 -35.5 t37.5 -89.5q0 -53 -37 -90.5t-89 -37.5q-53 0 -90 37.5t-37 90.5z" />
<glyph unicode="&#xf002;" d="M68 879v186h161v92q0 220 77.5 312t199.5 92q59 0 135 -31h445v-1344h171v-186h-545v186h165v1158h-275q-38 41 -73 41q-44 0 -67.5 -41.5t-23.5 -175.5v-103h184v-186h-184v-693h164v-186h-534v186h161v693h-161z" />
</font>
</defs>
</svg>
