<?xml version="1.0" standalone="no"?>
<!DOCTYPE svg PUBLIC "-//W3C//DTD SVG 1.1//EN" "http://www.w3.org/Graphics/SVG/1.1/DTD/svg11.dtd" >
<svg xmlns="http://www.w3.org/2000/svg">
<metadata></metadata>
<defs>
<font id="webfontregular" horiz-adv-x="1024" >
<font-face units-per-em="2048" ascent="1638" descent="-410" />
<missing-glyph horiz-adv-x="477" />
<glyph unicode="&#xfb01;" horiz-adv-x="1196" d="M23 647v268h114v113q0 45 4 92t17.5 93.5t38 90.5t65.5 82q66 66 161 98t200 32q98 0 199.5 -30t166.5 -93q43 -41 79 -117t36 -191v-47h-328v31q0 2 -1 16.5t-4 33t-12 38t-24 35.5q-20 20 -51 30.5t-63 10.5q-31 0 -61 -12.5t-52 -34.5q-29 -31 -36 -67t-7 -75v-129 h229v-268h-229v-647h-328v647h-114zM776 0v915h328v-915h-328z" />
<glyph unicode="&#xfb02;" horiz-adv-x="1216" d="M23 647v268h114v121q0 88 21.5 179.5t103.5 170.5q53 53 142.5 91.5t213.5 38.5q104 0 204 -33t167 -103q39 -41 62.5 -85t35 -89t14.5 -91t3 -91v-1024h-328v1032q0 35 -5 78t-36 78q-18 20 -48 32.5t-64 12.5q-41 0 -69 -13.5t-46 -33.5q-29 -33 -36 -68t-7 -74v-129 h229v-268h-229v-647h-328v647h-114z" />
<glyph horiz-adv-x="0" />
<glyph horiz-adv-x="682" />
<glyph unicode=" "  horiz-adv-x="477" />
<glyph unicode="&#x09;" horiz-adv-x="477" />
<glyph unicode="&#xa0;" horiz-adv-x="477" />
<glyph unicode="!" horiz-adv-x="698" d="M137 174q0 55 21.5 92t42.5 58q37 37 75.5 50t73.5 13q39 0 78 -15.5t74 -49.5q27 -27 43 -62t16 -86t-16.5 -86t-44.5 -63q-33 -33 -71 -48.5t-79 -15.5q-35 0 -73.5 13.5t-75.5 50.5q-20 20 -42 57t-22 92zM178 465v901h340v-901h-340z" />
<glyph unicode="&#x22;" horiz-adv-x="845" d="M84 1366h295l-51 -549h-195zM467 1366h295l-49 -549h-197z" />
<glyph unicode="#" horiz-adv-x="1228" d="M12 373l37 239h207l29 170h-207l37 238h207l55 346h270l-57 -346h174l55 346h273l-56 -346h205l-37 -238h-205l-26 -170h207l-35 -239h-209l-59 -373h-275l62 373h-175l-59 -373h-270l61 373h-209zM526 612h174l27 170h-174z" />
<glyph unicode="$" horiz-adv-x="1228" d="M117 158l147 274q33 -31 70 -59.5t72 -44.5q39 -18 90 -32.5t96 -14.5q86 0 133 47q37 37 37 86q0 47 -41 78q-29 20 -92 40l-121 41q-98 35 -150.5 69t-74.5 58q-51 53 -69.5 110.5t-18.5 127.5q0 98 28.5 169t73.5 120q47 51 111.5 86t138.5 49v225h205v-225 q51 -4 127.5 -23.5t181.5 -81.5l-135 -262q-35 27 -94.5 57.5t-135.5 30.5q-35 0 -67.5 -8t-55.5 -28q-12 -10 -21 -28t-9 -40q0 -39 28 -68q16 -14 44 -28.5t51 -22.5l106 -37q55 -18 116.5 -44.5t121.5 -84.5q59 -59 80.5 -119.5t21.5 -130.5q0 -61 -11 -111t-28.5 -88 t-38 -64.5t-37.5 -45.5q-45 -47 -111.5 -82t-133.5 -51v-231h-205v221q-117 2 -232 49q-45 18 -95 47t-103 70z" />
<glyph unicode="%" horiz-adv-x="1832" d="M68 1040q0 66 21.5 127.5t62.5 104.5q33 37 70.5 58.5t75.5 32.5t75 14t65 3q111 0 180.5 -32.5t110.5 -75.5q31 -33 58.5 -87.5t27.5 -137.5q0 -78 -26.5 -134.5t-61.5 -93.5q-66 -68 -144.5 -88t-144.5 -20q-72 0 -145.5 20.5t-138.5 87.5q-86 92 -86 221zM289 1047 q0 -35 15 -66t38 -51q41 -37 100 -37q31 0 59.5 12.5t49.5 30.5q20 20 32.5 49t12.5 62q0 31 -12.5 61.5t-36.5 52.5q-23 23 -49.5 31t-55.5 8q-35 0 -64.5 -13t-47.5 -34q-41 -45 -41 -106zM432 0l791 1366h178l-793 -1366h-176zM1018 313q0 66 21.5 127.5t62.5 104.5 q33 37 70.5 58.5t75.5 32.5t75 14t66 3q111 0 180 -32.5t110 -75.5q31 -33 58.5 -87.5t27.5 -138.5q0 -78 -26.5 -134t-61.5 -93q-66 -68 -144 -88t-144 -20q-72 0 -146 20.5t-139 87.5q-86 92 -86 221zM1239 319q0 -35 15.5 -65.5t37.5 -50.5q41 -37 101 -37q31 0 59.5 12 t48.5 31q20 20 32.5 49t12.5 61q0 31 -12 62t-37 53q-23 23 -49 31t-55 8q-35 0 -65 -13.5t-48 -33.5q-41 -45 -41 -107z" />
<glyph unicode="&#x26;" horiz-adv-x="1548" d="M82 354q0 100 34 164t68 98q41 41 102.5 77t121.5 57q-20 23 -42 51t-38 57q-23 39 -35 78t-12 90q0 70 28.5 135.5t75.5 114.5q39 39 82 62.5t86 37t83 17.5t71 4q125 0 200.5 -37t116.5 -76q55 -53 82 -121.5t27 -134.5q0 -125 -95 -219q-33 -33 -73.5 -60.5 t-85.5 -46.5l172 -180q45 41 90 90.5t88 104.5l201 -195q-82 -104 -187 -198l305 -324h-442l-119 125q-70 -51 -135.5 -82t-124.5 -47t-110.5 -21.5t-88.5 -5.5t-78.5 4t-87 16.5t-88.5 35t-81 59.5q-49 47 -80 115.5t-31 154.5zM449 412q0 -23 9 -48.5t31 -44.5 q29 -25 61 -31.5t56 -6.5q35 0 81 11t106 48l-215 231q-6 -4 -27 -15t-43.5 -31.5t-40.5 -49.5t-18 -63zM616 1042q0 -27 11.5 -49t25.5 -43q16 -23 36 -44t36 -38q23 12 44.5 28.5t37.5 33.5q43 49 43 100q0 35 -10.5 57.5t-26.5 36.5q-35 31 -82 31t-78 -29 q-23 -20 -30 -43t-7 -41z" />
<glyph unicode="'" horiz-adv-x="460" d="M84 1366h295l-51 -549h-195z" />
<glyph unicode="(" horiz-adv-x="724" d="M137 553q0 186 24.5 318.5t51.5 218.5q33 106 82 211.5t102 191.5l232 -123q-45 -82 -86 -179t-66 -192q-12 -47 -22.5 -101t-18.5 -111.5t-12 -115t-4 -108.5q0 -49 4 -105.5t10 -112.5t15.5 -109.5t19.5 -96.5q23 -96 61.5 -196.5t98.5 -204.5l-232 -123 q-39 57 -68.5 110.5t-53 108.5t-42 114.5t-36.5 125.5q-16 59 -26.5 113.5t-19 110.5t-11.5 118.5t-3 136.5z" />
<glyph unicode=")" horiz-adv-x="724" d="M96 -262q59 104 98 204.5t62 196.5q10 43 19.5 96.5t15.5 109.5t10 112.5t4 105.5q0 51 -4 108.5t-12 115t-18.5 111.5t-22.5 101q-25 94 -66 191.5t-86 179.5l232 123q53 -86 102 -191.5t82 -211.5q41 -131 58.5 -266.5t17.5 -272.5q0 -74 -3 -135.5t-11.5 -117.5 t-19.5 -110.5t-26 -113.5q-18 -66 -36.5 -125.5t-42 -114.5t-53 -108.5t-68.5 -110.5z" />
<glyph unicode="*" horiz-adv-x="1325" d="M289 1141l69 213l211 -90l-20 229h225l-20 -229l213 90l69 -211l-225 -53l152 -175l-181 -131l-120 195l-119 -195l-181 131l152 172z" />
<glyph unicode="+" d="M68 573v246h311v314h266v-314h311v-246h-311v-313h-266v313h-311z" />
<glyph unicode="," horiz-adv-x="851" d="M-18 -305l256 647h307l-352 -647h-211z" />
<glyph unicode="-" horiz-adv-x="722" d="M102 414v272h519v-272h-519z" />
<glyph unicode="." horiz-adv-x="620" d="M98 174q0 55 21.5 92t42.5 58q37 37 75.5 50t73.5 13q39 0 78 -15.5t74 -49.5q27 -27 43 -62t16 -86t-16.5 -86t-44.5 -63q-33 -33 -71 -48.5t-79 -15.5q-35 0 -73.5 13.5t-75.5 50.5q-20 20 -42 57t-22 92z" />
<glyph unicode="/" horiz-adv-x="1376" d="M-61 -385l1046 1878h268l-1048 -1878h-266z" />
<glyph unicode="0" horiz-adv-x="1228" d="M35 682q0 182 55 324.5t148 234.5q80 78 178 117t198 39t198.5 -39t178.5 -117q92 -92 147.5 -234.5t55.5 -324.5q0 -180 -55.5 -322.5t-147.5 -234.5q-80 -78 -178 -117t-199 -39q-100 0 -198.5 39t-177.5 117q-92 92 -147.5 234.5t-55.5 322.5zM387 680q0 -41 7 -92 t22.5 -101.5t37 -93.5t52.5 -69q20 -18 49 -30.5t59 -12.5q31 0 59.5 12t49.5 31q29 25 50.5 66.5t36.5 90.5t23.5 101.5t8.5 95.5q0 45 -8.5 98t-23.5 102.5t-37.5 91.5t-49.5 66q-20 18 -49 30.5t-60 12.5t-59.5 -12t-48.5 -31q-29 -25 -50.5 -64.5t-37 -88.5 t-23.5 -102.5t-8 -100.5z" />
<glyph unicode="1" horiz-adv-x="1228" d="M285 1065v301h549v-1366h-355v1065h-194z" />
<glyph unicode="2" horiz-adv-x="1228" d="M53 0l346 362q92 98 162 183.5t119 163.5q29 43 51.5 95t22.5 118q0 6 -1 20t-4.5 33.5t-12.5 40t-23 37.5q-16 16 -41 28.5t-60 12.5q-43 0 -72.5 -16.5t-45.5 -39.5q-25 -33 -36.5 -83t-13.5 -85h-366q0 68 14 125.5t36 104.5t48.5 85t52.5 64q70 70 164 109t223 39 q76 0 137.5 -13.5t108.5 -34t82 -46t57 -48.5q20 -20 44 -50.5t43.5 -71.5t33 -94.5t13.5 -118.5q0 -129 -55.5 -224.5t-147.5 -181.5l-230 -213h447v-301h-1096z" />
<glyph unicode="3" horiz-adv-x="1228" d="M57 467h363q2 -39 16.5 -76t38.5 -61q49 -53 139 -54q53 0 86 18.5t54 41.5q23 27 32 54.5t9 58.5q0 45 -17.5 74.5t-36.5 45.5q-27 23 -62.5 31t-68.5 8q-35 0 -59 -8v240q53 -8 88 4t57 30q25 23 35 48.5t10 48.5q0 29 -10 55.5t-26 42.5q-37 37 -101 37q-63 0 -98 -35 q-23 -23 -35 -55.5t-12 -65.5h-330q6 109 46 188t87 126q76 78 169 105.5t192 27.5q78 0 170 -22.5t170 -98.5q51 -51 80.5 -118.5t29.5 -145.5q0 -45 -9 -86t-32 -82q-18 -35 -42.5 -60.5t-61.5 -44.5q63 -23 101 -58.5t61 -66.5q57 -84 57 -200q0 -111 -39 -183.5 t-82 -115.5q-55 -55 -154.5 -100.5t-253.5 -45.5q-98 0 -199.5 29t-191.5 113q-27 25 -54.5 58.5t-51 77.5t-41 99t-23.5 121z" />
<glyph unicode="4" horiz-adv-x="1228" d="M23 258v227l526 881h463v-836h166v-272h-166v-258h-328v258h-661zM362 530h322v557z" />
<glyph unicode="5" horiz-adv-x="1228" d="M94 92l53 332q53 -49 100.5 -75.5t63.5 -35.5q47 -23 100.5 -35t104.5 -12q53 0 100.5 17.5t77.5 50.5q23 25 38.5 60.5t15.5 78.5q0 53 -21.5 90t-44.5 58q-29 25 -63.5 38t-69.5 20t-65.5 8t-47.5 1q-72 0 -134 -14.5t-118 -42.5l119 735h711v-301h-473l-25 -152 q39 6 67.5 8.5t43.5 2.5q137 0 225 -43t135 -93q47 -47 86 -125.5t39 -197.5q0 -123 -41 -207t-90 -135q-47 -49 -101.5 -79t-109.5 -47t-110.5 -22.5t-104.5 -5.5q-156 0 -266.5 35t-194.5 88z" />
<glyph unicode="6" horiz-adv-x="1228" d="M39 455q0 141 60.5 271t142.5 239l305 401h403l-389 -465q41 18 90 30.5t101 12.5q78 0 159.5 -31.5t149.5 -99.5q72 -72 100.5 -155t28.5 -171q0 -96 -31 -186t-110 -170q-51 -51 -107.5 -83t-113 -49t-111.5 -23.5t-105 -6.5q-88 0 -158.5 15.5t-126 39t-95 53 t-68.5 58.5q-49 51 -87 130t-38 190zM385 475q0 -43 15.5 -84t43.5 -72q41 -41 84 -55t78 -14q57 0 96 20.5t62 42.5q29 29 46 69t17 87q0 33 -13 71t-50 72q-41 41 -84 52.5t-74 11.5q-41 0 -82 -15.5t-71 -44.5q-33 -29 -50.5 -67.5t-17.5 -73.5z" />
<glyph unicode="7" horiz-adv-x="1228" d="M119 0l622 1065h-569v301h1120l-782 -1366h-391z" />
<glyph unicode="8" horiz-adv-x="1228" d="M92 373q0 68 29 135t72 110q33 33 79.5 60t92.5 41q-74 29 -123 78q-33 33 -62.5 86t-29.5 131t30.5 144.5t81.5 113.5q63 59 157.5 92t207.5 33q111 0 202 -35t150 -96q39 -39 69.5 -100.5t30.5 -149.5q0 -74 -24.5 -126t-59.5 -87q-25 -25 -61.5 -47.5t-77.5 -36.5 q55 -16 99 -44t77 -61q63 -61 84 -125.5t21 -115.5q0 -70 -29 -137.5t-82 -120.5q-18 -18 -50 -43t-83 -47.5t-119.5 -39t-161.5 -16.5q-88 0 -154.5 15.5t-116.5 37t-83 46t-53 45.5q-55 55 -84 124.5t-29 135.5zM451 416q0 -29 10 -58.5t37 -56.5q23 -23 52.5 -36 t63.5 -13q37 0 65 12t50 35q49 49 49 117q0 66 -49 112q-29 27 -58.5 37t-56.5 10q-63 0 -114 -47q-49 -49 -49 -112zM465 1008q0 -27 12 -52.5t31 -46.5q23 -25 51.5 -35t56.5 -10q23 0 49.5 8.5t51.5 32.5q47 47 47 105q0 29 -12.5 57.5t-34.5 50.5q-46 41 -99 41 q-39 0 -66.5 -13t-45.5 -34q-41 -45 -41 -104z" />
<glyph unicode="9" horiz-adv-x="1228" d="M35 872q0 104 35.5 193.5t101.5 159.5q31 31 72 61.5t96 55t125 40t156 15.5q94 0 166.5 -17.5t127 -43t89 -53.5t55.5 -48q66 -68 100.5 -156t34.5 -182q0 -78 -20.5 -150.5t-52 -137t-67.5 -120t-67 -94.5l-305 -395h-401l387 461q-43 -23 -86 -33t-97 -10 q-88 0 -165.5 28.5t-147.5 96.5q-41 41 -67.5 84t-42 86t-21.5 84t-6 75zM399 895q0 -43 18.5 -82t47.5 -65q31 -29 74 -45.5t86 -16.5q39 0 79.5 14.5t73.5 42.5q31 29 51.5 72t20.5 84t-18.5 82t-47.5 70q-29 27 -70.5 46t-88.5 19q-33 0 -75 -12t-83 -53 q-31 -31 -49.5 -72t-18.5 -84z" />
<glyph unicode=":" horiz-adv-x="620" d="M98 182q0 55 21.5 92t42.5 58q37 37 75.5 50t73.5 13q39 0 78 -15t74 -50q27 -27 43 -62t16 -86t-16.5 -86t-44.5 -63q-33 -33 -71 -48.5t-79 -15.5q-35 0 -73.5 13.5t-75.5 50.5q-20 20 -42 57t-22 92zM98 733q0 55 21.5 92t42.5 58q37 37 75.5 50t73.5 13 q39 0 78 -15.5t74 -49.5q27 -27 43 -62t16 -86t-16.5 -86t-44.5 -63q-33 -33 -71 -48.5t-79 -15.5q-35 0 -73.5 13.5t-75.5 50.5q-20 20 -42 57t-22 92z" />
<glyph unicode=";" horiz-adv-x="804" d="M-18 -305l256 647h307l-352 -647h-211zM166 733q0 55 21.5 92t41.5 58q37 37 76 50t74 13q39 0 78 -15.5t73 -49.5q27 -27 43.5 -62t16.5 -86t-16.5 -86t-45.5 -63q-33 -33 -70.5 -48.5t-78.5 -15.5q-35 0 -74 13.5t-76 50.5q-20 20 -41.5 57t-21.5 92z" />
<glyph unicode="&#x3c;" d="M68 573v224l888 450v-262l-608 -301l608 -303v-262z" />
<glyph unicode="=" d="M68 403v232h888v-232h-888zM68 758v231h888v-231h-888z" />
<glyph unicode="&#x3e;" d="M68 119v264l608 301l-608 301v262l888 -452v-224z" />
<glyph unicode="?" horiz-adv-x="1120" d="M68 973q4 98 39.5 171t82.5 120q51 51 139.5 92t217.5 41t218 -40t144 -93t92 -127t37 -166q0 -66 -24.5 -134.5t-73.5 -123.5q-41 -47 -99.5 -81t-129.5 -50v-109h-334v332q16 -4 32.5 -7t36.5 -3q47 0 101.5 15t91.5 52q23 23 35 53.5t12 59.5q0 25 -8 51.5t-27 44.5 q-35 39 -98 39q-57 0 -88 -35q-37 -37 -37 -102h-360zM340 182q0 55 21.5 92t41.5 58q37 37 75 50t73 13q41 0 80 -15t74 -50q27 -27 43 -62t16 -86t-16.5 -86t-45.5 -63q-33 -33 -70.5 -48.5t-78.5 -15.5q-35 0 -74 13.5t-76 50.5q-20 20 -41.5 57t-21.5 92z" />
<glyph unicode="@" horiz-adv-x="1501" d="M68 670q0 158 59 291t152 221q106 102 245.5 154.5t263.5 52.5q131 0 262.5 -47.5t227.5 -151.5q70 -74 113 -177.5t43 -226.5q0 -117 -40 -214t-106 -164q-51 -53 -100 -73t-90 -20t-90.5 25t-69.5 86q-45 -63 -111.5 -96t-142.5 -33q-111 0 -186 74q-45 43 -74 106.5 t-29 140.5q0 84 31 160t82 133q55 59 118.5 88t127.5 29q49 0 104 -22.5t94 -75.5l15 78l182 -2l-76 -388q-4 -23 -8 -41t-4 -40v-17.5t4 -24t13 -21.5t28 -9q31 0 61 27q25 20 44.5 54t32.5 73.5t21.5 84t8.5 82.5q0 92 -36 174t-89 136q-61 59 -157.5 94t-194.5 35 q-96 0 -198.5 -36t-190.5 -124q-29 -29 -59 -68t-52.5 -88t-36.5 -109.5t-14 -131.5q0 -119 45 -225.5t125 -178.5q86 -78 186 -101.5t197 -23.5q90 0 184 16.5t184 45.5l41 -164q-135 -41 -243.5 -51.5t-171.5 -10.5q-57 0 -121 7.5t-130.5 28t-131 56t-125.5 91.5 q-104 96 -160.5 230t-56.5 282zM604 627q0 -29 9.5 -56.5t31.5 -52.5q35 -35 88 -35q25 0 52.5 10.5t56.5 38.5q31 33 48 78t17 86q0 29 -11 58.5t-32 50.5q-37 33 -86 33q-29 0 -57.5 -13.5t-50.5 -36.5q-33 -31 -49.5 -74.5t-16.5 -86.5z" />
<glyph unicode="A" horiz-adv-x="1454" d="M14 0l525 1366h387l514 -1366h-379l-84 229h-496l-92 -229h-375zM580 500h303l-154 442z" />
<glyph unicode="B" horiz-adv-x="1265" d="M143 0v1366h529q74 0 154.5 -18.5t144.5 -87.5q35 -39 59.5 -101.5t24.5 -154.5q0 -45 -8.5 -85t-30.5 -83q-23 -41 -47.5 -66t-63.5 -41q53 -6 103.5 -28.5t83.5 -53.5q41 -41 66.5 -104.5t25.5 -145.5q0 -98 -31 -163.5t-70 -104.5q-55 -57 -149 -93t-221 -36h-570z M498 276h80q74 0 132 10.5t87 45.5q12 14 20 36.5t8 51.5q0 63 -34 98q-33 33 -93.5 39t-126.5 6h-73v-287zM498 827h65q29 0 68 7.5t67 35.5q16 16 24.5 42t8.5 49q0 55 -33 92q-16 16 -49 28.5t-86 12.5h-65v-267z" />
<glyph unicode="C" horiz-adv-x="1206" d="M82 672q0 147 57.5 278t149.5 226q92 92 224 152.5t292 60.5q49 0 129 -12.5t190 -57.5v-424q-43 53 -88 83t-87 45t-76.5 18t-57.5 3q-78 0 -137.5 -22.5t-108.5 -67.5q-63 -59 -90.5 -134t-27.5 -146q0 -72 28.5 -143.5t81.5 -122.5q45 -41 111.5 -68t142.5 -27 q20 0 53 3t75 17.5t88 43.5t93 80v-420q-53 -18 -95 -31.5t-78 -22t-68.5 -11.5t-65.5 -3q-180 0 -311 60.5t-217 144.5q-100 100 -153.5 231.5t-53.5 266.5z" />
<glyph unicode="D" horiz-adv-x="1423" d="M143 0v1366h465q51 0 118 -5t139.5 -24.5t146 -57.5t139.5 -101q59 -57 97 -122t58.5 -129.5t27.5 -128t7 -118.5q0 -135 -38.5 -254t-139.5 -219q-82 -82 -215 -144.5t-309 -62.5h-496zM498 301h71q33 0 71 3t77 12.5t78 29t73 53.5q35 33 70 99.5t35 181.5 q0 96 -27.5 174t-79.5 125q-63 59 -140 72.5t-142 13.5h-86v-764z" />
<glyph unicode="E" horiz-adv-x="1001" d="M143 0v1366h777v-301h-422v-227h399v-301h-399v-236h422v-301h-777z" />
<glyph unicode="F" horiz-adv-x="993" d="M143 0v1366h783v-301h-428v-227h389v-301h-389v-537h-355z" />
<glyph unicode="G" horiz-adv-x="1585" d="M82 684q0 164 57.5 294t147.5 218q86 86 217 143.5t313 57.5q96 0 193.5 -22.5t175.5 -69.5q80 -49 143.5 -125t100.5 -156l-338 -139q-18 47 -45 80.5t-54 56.5q-45 37 -92 52.5t-98 15.5q-63 0 -125 -24t-109 -71q-59 -59 -88.5 -146t-29.5 -167q0 -94 30.5 -169 t77.5 -126q98 -104 250 -104q47 0 98 11t99 52q25 20 49 57t35 95h-291v276h704q0 -203 -48 -352.5t-171 -261.5q-109 -100 -229.5 -136t-251.5 -36q-184 0 -313.5 59t-210.5 143q-39 39 -74 89.5t-62.5 112t-44 135t-16.5 157.5z" />
<glyph unicode="H" horiz-adv-x="1509" d="M143 0v1366h355v-510h512v510h356v-1366h-356v553h-512v-553h-355z" />
<glyph unicode="I" horiz-adv-x="641" d="M143 0v1366h355v-1366h-355z" />
<glyph unicode="J" horiz-adv-x="958" d="M14 170l232 238q4 -29 17 -61t32 -48q14 -10 32.5 -17.5t34.5 -7.5t34 6.5t28 16.5q23 23 30 64.5t7 72.5v932h354v-940q0 -47 -3 -89t-15.5 -82t-36 -79t-62.5 -78q-68 -68 -148.5 -98.5t-184.5 -30.5q-57 0 -107.5 12.5t-107.5 49.5q-78 51 -136 139z" />
<glyph unicode="K" horiz-adv-x="1433" d="M143 0v1366h355v-563l434 563h438l-543 -647l592 -719h-458l-463 592v-592h-355z" />
<glyph unicode="L" horiz-adv-x="962" d="M143 0v1366h355v-1065h426v-301h-781z" />
<glyph unicode="M" horiz-adv-x="1873" d="M82 0l231 1366h351l276 -729l293 729h354l205 -1366h-354l-101 786l-329 -786h-142l-315 786l-117 -786h-352z" />
<glyph unicode="N" horiz-adv-x="1648" d="M143 0v1366h355l653 -836v836h354v-1366h-354l-653 836v-836h-355z" />
<glyph unicode="O" horiz-adv-x="1671" d="M82 682q0 137 52 272.5t163 239.5q104 100 244.5 151.5t294.5 51.5t294 -51.5t244 -151.5q111 -104 163 -239.5t52 -272.5q0 -135 -52 -270.5t-163 -239.5q-104 -100 -244.5 -151.5t-293.5 -51.5q-154 0 -294.5 51.5t-244.5 151.5q-111 104 -163 239.5t-52 270.5z M451 676q0 -92 34.5 -154.5t73.5 -99.5q49 -47 117.5 -78t159.5 -31q92 0 159.5 30t114.5 77t79 115.5t32 146.5q0 80 -32 147.5t-79 114.5q-57 53 -129.5 81t-144.5 28q-74 0 -148 -27t-129 -82q-55 -53 -81.5 -124.5t-26.5 -143.5z" />
<glyph unicode="P" horiz-adv-x="1226" d="M143 0v1366h566q90 0 179 -23.5t167 -99.5q80 -78 103.5 -162t23.5 -170q0 -41 -4 -84t-16.5 -87t-37 -87t-63.5 -82q-80 -78 -170 -98t-170 -20h-223v-453h-355zM498 739h118q29 0 73 7.5t77 35.5q33 29 39 65t6 60q0 29 -6 61.5t-35 61.5q-31 33 -74 41t-78 8h-120 v-340z" />
<glyph unicode="Q" horiz-adv-x="1671" d="M82 688q0 145 56.5 276.5t154.5 225.5q104 100 243.5 153.5t297.5 53.5q147 0 290.5 -50.5t251.5 -154.5q88 -86 149.5 -216t61.5 -298q0 -72 -12 -137.5t-43 -137.5q-23 -53 -52.5 -98t-72.5 -88l235 -242l-325 -49l-115 131q-92 -49 -177 -68.5t-181 -19.5 q-106 0 -193.5 19.5t-158 50.5t-125 72t-93.5 84q-98 104 -145 235t-47 258zM453 666q0 -78 29.5 -142.5t72.5 -105.5q49 -47 123 -76t153 -29q33 0 60 4.5t51 10.5l-217 217l334 43l94 -103q33 47 48.5 99.5t15.5 101.5q0 63 -30 133t-81 121q-55 55 -131 84t-141 29 q-74 0 -146 -29t-125 -84q-53 -53 -81.5 -126t-28.5 -148z" />
<glyph unicode="R" horiz-adv-x="1284" d="M143 0v1366h553q78 0 168 -21.5t166 -99.5q59 -59 88 -142t29 -165q0 -88 -28.5 -162t-80.5 -123q-41 -39 -91 -61.5t-97 -32.5l428 -559h-440l-340 524v-524h-355zM498 754h67q41 0 90.5 12t81.5 43q20 20 32.5 51t12.5 64q0 31 -12 61.5t-35 52.5q-53 53 -170 54h-67 v-338z" />
<glyph unicode="S" horiz-adv-x="1169" d="M82 123l151 287q57 -53 139.5 -96.5t174.5 -43.5q53 0 87 14.5t50 32.5q35 35 35 86q0 20 -8.5 42t-30.5 40q-27 23 -69 37.5t-107 34.5l-92 29q-43 14 -99.5 38.5t-97.5 71.5q-53 57 -65.5 123t-12.5 119q0 127 40 206t85 124q53 53 139 91t211 38q102 0 213 -30 t209 -81l-141 -276q-80 63 -139.5 77.5t-94.5 14.5q-27 0 -58.5 -8.5t-57.5 -32.5q-16 -16 -25.5 -33.5t-9.5 -40.5q0 -37 18 -61q8 -10 32 -26.5t87 -35.5l109 -33q66 -20 130 -47.5t117 -87.5q53 -55 71 -113.5t18 -129.5q0 -94 -28 -182.5t-101 -161.5 q-88 -88 -190.5 -114t-213.5 -26q-66 0 -129 8.5t-139 36.5q-16 6 -74.5 32t-132.5 77z" />
<glyph unicode="T" horiz-adv-x="964" d="M14 1065v301h938v-301h-295v-1065h-354v1065h-289z" />
<glyph unicode="U" horiz-adv-x="1476" d="M143 582v784h355v-809q0 -43 9 -102.5t60 -108.5q31 -29 76 -47t92 -18t91 16t73 43q31 27 47.5 58.5t23.5 64.5t8 64.5t1 60.5v778h354v-784q0 -53 -3 -108.5t-18.5 -111t-46 -111.5t-85.5 -112q-86 -88 -196 -129t-255 -41q-162 0 -275.5 48.5t-177.5 115.5 q-45 49 -71.5 104.5t-39.5 114t-17.5 116.5t-4.5 114z" />
<glyph unicode="V" horiz-adv-x="1431" d="M0 1366h387l328 -831l332 831h385l-582 -1366h-277z" />
<glyph unicode="W" horiz-adv-x="2076" d="M0 1366h371l237 -883l289 883h283l268 -883l258 883h371l-437 -1366h-362l-248 791l-262 -791h-360z" />
<glyph unicode="X" horiz-adv-x="1456" d="M0 0l535 729l-439 637h439l202 -354l211 354h436l-444 -637l516 -729h-430l-291 444l-307 -444h-428z" />
<glyph unicode="Y" horiz-adv-x="1310" d="M-25 1366h424l258 -373l248 373h430l-510 -711v-655h-356v655z" />
<glyph unicode="Z" horiz-adv-x="1292" d="M27 0l647 1065h-537v301h1129l-643 -1065h573v-301h-1169z" />
<glyph unicode="[" horiz-adv-x="690" d="M164 -385v1878h444v-190h-184v-1496h184v-192h-444z" />
<glyph unicode="\" horiz-adv-x="1376" d="M123 1493h268l1047 -1878h-267z" />
<glyph unicode="]" horiz-adv-x="690" d="M82 -193h184v1496h-184v190h444v-1878h-444v192z" />
<glyph unicode="^" d="M10 676l328 690h348l330 -690h-279l-225 477l-225 -477h-277z" />
<glyph unicode="_" d="M0 -94h1024v-271h-1024v271z" />
<glyph unicode="`" d="M197 1343l209 150l258 -315l-152 -113z" />
<glyph unicode="a" horiz-adv-x="1261" d="M76 451q0 129 43 220t98 146q59 59 145.5 94t184.5 35q55 0 99 -12t78 -30.5t58.5 -39t38.5 -37.5v88h328v-915h-328v100q-29 -39 -63.5 -64.5t-72.5 -39.5t-77 -20.5t-71 -6.5q-74 0 -160 29t-170 117q-66 72 -98.5 151.5t-32.5 184.5zM412 459q0 -41 16 -81t47 -69 q27 -25 67 -43t81 -18q84 0 147 63q23 23 42 57.5t19 90.5q0 33 -12 72.5t-51 76.5q-23 23 -58.5 41.5t-88.5 18.5q-31 0 -70 -12.5t-74 -47.5q-35 -33 -50 -73.5t-15 -75.5z" />
<glyph unicode="b" horiz-adv-x="1261" d="M113 0v1493h327v-666q45 47 111.5 83t161.5 36q86 0 171 -28.5t152 -94.5q63 -59 106.5 -152t43.5 -210q0 -111 -39 -204t-109 -161q-66 -63 -144.5 -95t-176.5 -32q-25 0 -57.5 4t-69.5 17.5t-76 39t-74 70.5v-100h-327zM430 459q0 -41 18.5 -84t51.5 -72 q27 -23 63.5 -39t77.5 -16q35 0 73 13t72 48q33 33 48.5 71t15.5 73q0 47 -17.5 87t-46.5 68q-23 23 -57.5 41.5t-87.5 18.5q-92 0 -149 -62q-25 -27 -43.5 -67.5t-18.5 -79.5z" />
<glyph unicode="c" horiz-adv-x="878" d="M76 451q0 102 39 194t108 160q66 61 159 100t210 39q43 0 97 -10t116 -41v-275q-33 23 -75 41.5t-95 18.5q-59 0 -97 -19.5t-63 -44.5q-35 -35 -49 -75.5t-14 -81.5q0 -39 14 -80t43 -74q23 -25 63.5 -47.5t104.5 -22.5q35 0 79 11.5t89 50.5v-275q-66 -33 -121 -42 t-106 -9q-68 0 -123.5 13.5t-99.5 33t-78.5 44t-59.5 49.5q-66 63 -103.5 151t-37.5 191z" />
<glyph unicode="d" horiz-adv-x="1261" d="M76 461q0 117 43 210t106 152q68 66 153 94.5t171 28.5q94 0 160.5 -36t111.5 -83v666h328v-1493h-328v100q-35 -45 -73.5 -70.5t-75.5 -39t-70 -17.5t-57 -4q-98 0 -177 32t-145 95q-70 68 -108.5 161t-38.5 204zM412 453q0 -35 15 -73t48 -71q35 -35 73 -48t73 -13 q41 0 77.5 16.5t63.5 38.5q33 29 51 72t18 84q0 39 -18 80t-43 67q-57 61 -149 62q-53 0 -88 -18.5t-58 -41.5q-29 -29 -46 -68.5t-17 -86.5z" />
<glyph unicode="e" horiz-adv-x="1159" d="M74 455q0 117 39 206t98 148q57 55 148.5 94t226.5 39q80 0 175 -24.5t177 -100.5q49 -47 77.5 -98t44 -102.5t19.5 -98.5t4 -86v-35h-682q0 -37 14.5 -81t43.5 -72q16 -16 48 -30.5t87 -14.5q6 0 41 4t65 20q16 10 32 24.5t26 37.5h313q-10 -39 -34.5 -89.5t-75.5 -99.5 t-137.5 -88t-235.5 -39q-90 0 -192.5 28t-186.5 112q-23 23 -46.5 54.5t-44 74.5t-32.5 97t-12 120zM412 586h370q-6 27 -20 53.5t-33 44.5q-33 33 -72 41t-63 8q-84 0 -133 -49q-16 -18 -30.5 -43t-18.5 -55z" />
<glyph unicode="f" horiz-adv-x="706" d="M23 647v268h114v154q0 74 14.5 150.5t69.5 150.5q63 84 149.5 115t168.5 31q47 0 85 -8.5t72 -22.5v-283q-35 20 -61.5 25.5t-40.5 5.5q-37 0 -59.5 -11.5t-32.5 -23.5q-27 -29 -32 -74t-5 -80v-129h229v-268h-229v-647h-328v647h-114z" />
<glyph unicode="g" horiz-adv-x="1255" d="M76 444q0 109 38 202t97 157q66 70 153 104.5t179 34.5q20 0 52 -4t68.5 -16.5t75.5 -36t76 -64.5v94h328v-858q0 -51 -4 -100t-16.5 -96t-37 -93.5t-67.5 -89.5q-43 -45 -93.5 -73.5t-102.5 -45t-105 -22.5t-103 -6q-129 0 -234.5 36t-193.5 126q-41 41 -65.5 86 t-34.5 104h365q4 -14 13 -30.5t26.5 -31t45 -23.5t68.5 -9q39 0 76 10.5t70 40.5q41 39 53 84t12 86v92q-39 -41 -76 -64.5t-71.5 -35.5t-67.5 -16t-59 -4q-127 0 -209 40.5t-129 88.5q-61 63 -94 151t-33 182zM412 461q0 -41 16 -80t47 -70q33 -33 72 -46t76 -13 q39 0 78.5 16.5t68.5 44.5q31 31 46 72t15 76t-18 78t-47 71q-29 29 -66.5 44.5t-78.5 15.5q-84 0 -146 -62q-35 -37 -49 -75.5t-14 -71.5z" />
<glyph unicode="h" horiz-adv-x="1198" d="M113 0v1493h327v-692q18 23 46 48t57 42q47 29 96 37t92 8q98 0 164 -28.5t106 -69.5q61 -61 73.5 -126t12.5 -130v-582h-327v463q0 51 -6 99t-35 79q-23 27 -51.5 33t-53.5 6q-27 0 -58.5 -7t-59.5 -32q-23 -20 -39.5 -57t-16.5 -92v-492h-327z" />
<glyph unicode="i" horiz-adv-x="550" d="M92 1296q0 78 53.5 131.5t130.5 53.5q78 0 131.5 -53.5t53.5 -131.5t-53.5 -131t-131.5 -53t-131 53t-53 131zM113 0v915h327v-915h-327z" />
<glyph unicode="j" horiz-adv-x="550" d="M92 1296q0 78 53.5 131.5t130.5 53.5q78 0 131.5 -53.5t53.5 -131.5t-53.5 -131t-131.5 -53t-131 53t-53 131zM113 -469v1384h327v-1384h-327z" />
<glyph unicode="k" horiz-adv-x="1230" d="M113 0v1493h327v-907l310 329h444l-432 -421l467 -494h-455l-334 375v-375h-327z" />
<glyph unicode="l" horiz-adv-x="550" d="M113 0v1493h327v-1493h-327z" />
<glyph unicode="m" horiz-adv-x="1787" d="M113 0v915h327v-110q59 72 133 99.5t142 27.5q100 0 176 -41q51 -27 80.5 -61.5t46.5 -69.5q29 49 61.5 79.5t63.5 47.5q49 29 96 37t94 8q51 0 124 -14.5t130 -69.5q31 -31 48.5 -64.5t25.5 -67.5t10 -64.5t2 -55.5v-596h-327v453q0 72 -9.5 121t-38.5 75 q-14 12 -33.5 21.5t-52.5 9.5q-57 0 -96 -37q-41 -41 -50 -90t-9 -84v-469h-328v453q0 66 -7 117t-36 79q-23 23 -48.5 30t-49.5 7q-27 0 -48.5 -6t-41.5 -27q-23 -20 -34 -45.5t-16.5 -53.5t-6.5 -54.5t-1 -46.5v-453h-327z" />
<glyph unicode="n" horiz-adv-x="1198" d="M113 0v915h327v-114q33 45 72 71.5t78 41t74.5 18.5t66.5 4q72 0 142.5 -20.5t127.5 -77.5q57 -59 71.5 -120t14.5 -136v-582h-327v463q0 41 -4 92t-37 86q-23 25 -51.5 32t-53.5 7q-39 0 -69.5 -12.5t-50.5 -30.5q-25 -23 -39.5 -64t-14.5 -81v-492h-327z" />
<glyph unicode="o" horiz-adv-x="1251" d="M76 459q0 123 45 204.5t96 131.5q57 55 157.5 103t250.5 48q76 0 138 -13t113.5 -34.5t90.5 -49.5t67 -54q51 -49 96.5 -131t45.5 -205q0 -92 -33 -178t-109 -160q-92 -90 -195.5 -121t-213.5 -31q-100 0 -206 29t-202 123q-76 74 -108.5 160t-32.5 178zM416 459 q0 -41 17.5 -79t45.5 -67q61 -61 148 -61q84 0 145 61q31 29 47.5 67t16.5 79q0 37 -16.5 78t-47.5 71q-29 27 -67.5 43.5t-77.5 16.5q-41 0 -80 -16.5t-68 -43.5q-31 -29 -47 -68.5t-16 -80.5z" />
<glyph unicode="p" horiz-adv-x="1261" d="M113 -469v1384h327v-100q43 53 110.5 92t170.5 39q106 0 188 -39t138 -94q57 -57 98 -146t41 -208q0 -117 -41 -207t-107 -156q-78 -76 -160.5 -101.5t-152.5 -25.5q-23 0 -55.5 3t-70.5 15.5t-79 36t-80 64.5v-557h-327zM430 455q0 -41 18.5 -80t45.5 -66 q61 -61 147 -61q88 0 145 61q27 27 45.5 66t18.5 80q0 39 -16.5 79.5t-47.5 71.5q-57 62 -145 62q-86 0 -147 -62q-31 -31 -47.5 -71.5t-16.5 -79.5z" />
<glyph unicode="q" horiz-adv-x="1261" d="M76 459q0 119 41 208t98 146q66 66 152 99.5t174 33.5q86 0 157.5 -32.5t122.5 -98.5v100h328v-1384h-328v557q-39 -41 -80 -64.5t-78.5 -36t-70.5 -15.5t-55 -3q-70 0 -153 25.5t-161 101.5q-18 18 -42.5 49t-48 76t-40 104.5t-16.5 133.5zM412 455q0 -41 18.5 -80 t44.5 -66q57 -61 146 -61q86 0 147 61q27 27 45 66t18 80q0 39 -16 79.5t-47 71.5q-61 62 -147 62q-88 0 -146 -62q-31 -31 -47 -71.5t-16 -79.5z" />
<glyph unicode="r" horiz-adv-x="837" d="M113 0v915h327v-149q25 47 58.5 77.5t70.5 49.5q37 20 80 28.5t90 8.5q6 0 19.5 -1t46.5 -3v-310q-12 6 -47 19.5t-94 13.5q-33 0 -74 -8t-76 -41q-27 -25 -41 -53.5t-21.5 -57t-9.5 -54t-2 -44.5v-391h-327z" />
<glyph unicode="s" horiz-adv-x="909" d="M55 76l117 227q61 -45 131 -67q31 -10 65.5 -16.5t61.5 -6.5q18 0 43 5t41 20q10 10 13 20t3 23q0 10 -3 20t-13 21q-16 14 -38.5 20t-47.5 12l-86 21q-35 8 -79 23.5t-81 56.5q-27 29 -43 66.5t-16 90.5q0 66 23.5 124.5t62.5 99.5q53 53 139 81.5t189 28.5 q102 0 176.5 -21.5t115.5 -37.5l-110 -209q-35 16 -81 30.5t-91 14.5t-76 -18q-29 -16 -29 -46q0 -23 11.5 -34t27.5 -17q23 -10 46.5 -13t62.5 -13l59 -17q33 -10 74 -30.5t61 -40.5q35 -33 52.5 -82.5t17.5 -100.5q0 -84 -28.5 -139t-63.5 -88q-41 -41 -88 -63.5t-93 -34 t-87 -14.5t-70 -3q-61 0 -155.5 17.5t-213.5 89.5z" />
<glyph unicode="t" horiz-adv-x="671" d="M43 647v268h104v302h328v-302h187v-268h-187v-647h-328v647h-104z" />
<glyph unicode="u" horiz-adv-x="1208" d="M113 344v571h327v-512q0 -29 8.5 -66.5t40.5 -66.5q25 -23 55.5 -28.5t59.5 -5.5q31 0 59.5 6t57.5 32q31 31 39 65t8 64v512h328v-571q0 -59 -13.5 -120.5t-74.5 -125.5q-43 -43 -92.5 -68.5t-101.5 -39t-103.5 -17.5t-98.5 -4q-51 0 -107 4t-110.5 17.5t-104.5 40 t-91 69.5q-53 55 -69.5 117t-16.5 127z" />
<glyph unicode="v" horiz-adv-x="1173" d="M0 915h367l219 -469l223 469h365l-478 -915h-223z" />
<glyph unicode="w" horiz-adv-x="1841" d="M0 915h367l217 -483l231 483h201l231 -497l230 497h364l-479 -915h-221l-230 504l-219 -504h-221z" />
<glyph unicode="x" horiz-adv-x="1335" d="M0 0l457 498l-371 417h426l158 -188l161 188h424l-378 -417l458 -498h-434l-233 272l-234 -272h-434z" />
<glyph unicode="y" horiz-adv-x="1236" d="M0 915h381l244 -469l237 469h375l-735 -1384h-367l307 594z" />
<glyph unicode="z" horiz-adv-x="1058" d="M41 0l432 647h-369v268h914l-428 -647h383v-268h-932z" />
<glyph unicode="{" d="M244 455v225q39 6 62.5 22.5t33.5 37t13 42t3 37.5v377q0 39 5.5 91t32 97.5t84 77t161.5 31.5q37 0 74 -3t73 -3h39v-234h-41q-57 0 -88.5 -7t-48 -21.5t-20.5 -37t-4 -50.5v-322q0 -37 -3.5 -78t-21.5 -78q-12 -23 -27.5 -41t-30 -30.5t-25.5 -20.5t-15 -10 q4 -2 15 -10t25.5 -20.5t30 -31t27.5 -40.5q18 -37 21.5 -78t3.5 -78v-328q0 -29 4 -51t20.5 -36.5t48 -21.5t88.5 -7h41v-234h-39q-37 0 -73.5 -3t-73.5 -3q-104 0 -161.5 31.5t-84 77t-32 96.5t-5.5 92v403q0 16 -3 38t-13 42.5t-33.5 37t-62.5 22.5z" />
<glyph unicode="|" d="M379 -512v2048h266v-2048h-266z" />
<glyph unicode="}" d="M244 -145h41q57 0 89 7t48 21.5t20 37t4 50.5v328q0 37 3.5 78t21.5 78q12 23 27.5 41t30 30.5t25.5 20.5t15 10q-4 2 -15 10t-25.5 20.5t-30 31t-27.5 40.5q-18 37 -21.5 78t-3.5 78v322q0 29 -4 51t-20 36.5t-48 21.5t-89 7h-41v234h39q37 0 73.5 3t73.5 3 q104 0 160.5 -31.5t84 -77t33 -97.5t5.5 -91v-377q0 -16 2 -37.5t13 -42t33.5 -37t63.5 -22.5v-225q-41 -6 -63.5 -22.5t-33.5 -37t-13 -42t-2 -38.5v-403q0 -41 -5.5 -92t-33 -96.5t-83.5 -77t-161 -31.5q-37 0 -74 3t-73 3h-39v234z" />
<glyph unicode="~" d="M12 496l17 34q20 41 44.5 91.5t63.5 87.5q45 45 93.5 58t86.5 13q10 0 56.5 -6t132.5 -37l74 -26q33 -12 65.5 -21.5t65.5 -9.5q57 0 94 31q14 12 29.5 33.5t25.5 39.5l152 -88l-11 -22q-29 -66 -57.5 -106t-50.5 -62q-41 -43 -88 -63.5t-107 -20.5q-53 0 -95 14.5 t-77 24.5l-71 24q-47 16 -84 27.5t-66 11.5q-51 0 -88 -35q-16 -16 -32.5 -40.5t-26.5 -49.5z" />
<glyph unicode="&#xa1;" horiz-adv-x="698" d="M137 721q0 55 21.5 92t42.5 57q37 37 75.5 50.5t73.5 13.5q39 0 78 -15.5t74 -50.5q27 -27 43 -61.5t16 -85.5t-16.5 -86t-44.5 -64q-33 -33 -71 -48t-79 -15q-35 0 -73.5 13.5t-75.5 49.5q-20 20 -42 57.5t-22 92.5zM180 430h340v-901h-340v901z" />
<glyph unicode="&#xa2;" horiz-adv-x="1228" d="M250 686q0 106 40 198.5t105 155.5q49 49 122 86t163 52v174h192v-187q55 -4 107 -30v-295q-20 20 -59 44.5t-105 24.5q-53 0 -92 -19.5t-61 -41.5q-35 -35 -51.5 -77t-16.5 -87q0 -47 18.5 -90t49.5 -72q33 -29 74.5 -43t78.5 -14q29 0 74 12t90 58v-295 q-55 -27 -107 -29v-191h-192v179q-98 14 -171 54t-122 89q-63 66 -100 154t-37 190z" />
<glyph unicode="&#xa3;" horiz-adv-x="1228" d="M41 0q12 66 42 127t69 102q29 31 74.5 56.5t105.5 36.5q12 37 12 86q0 33 -6 57t-19 51h-256v197h148q-23 53 -36 111.5t-13 105.5q0 84 31.5 169t103.5 154q45 45 96 72t103.5 41t103.5 19.5t98 5.5q37 0 84 -4.5t96.5 -16.5t97.5 -37.5t91 -68.5q39 -39 63.5 -84 t38 -89t17.5 -87t4 -76v-28.5t-2 -22.5h-357q2 12 2.5 24t0.5 25q0 41 -10.5 77.5t-39.5 65.5q-20 18 -48.5 30.5t-63.5 12.5q-47 0 -76 -17.5t-45 -33.5q-25 -29 -37 -66t-12 -75q0 -41 14 -99.5t37 -107.5h313v-197h-256q2 -10 5 -42t3 -60q0 -14 -3 -44t-13 -69l96 -29 q92 -29 132 -35t61 -6q45 0 67.5 26t22.5 65h221q-2 -80 -31.5 -155t-83.5 -122q-45 -41 -98 -57.5t-110 -16.5q-66 0 -118 12.5t-99 28.5l-78 25q-45 14 -94.5 22.5t-88.5 8.5q-68 0 -92 -25t-33 -43h-235z" />
<glyph unicode="&#xa4;" horiz-adv-x="1366" d="M39 1268l145 145l213 -213q92 61 166 75.5t121 14.5q45 0 116.5 -14t164.5 -74l211 209l143 -143l-209 -209q43 -59 68.5 -131t25.5 -156q0 -47 -15 -119.5t-75 -158.5l211 -211l-141 -146l-211 211q-90 -63 -167 -77.5t-124 -14.5q-57 0 -132 17.5t-155 72.5l-211 -209 l-143 144l211 211q-37 51 -63.5 119.5t-26.5 162.5q0 51 15.5 121t76.5 160zM406 772q0 -53 19 -103.5t62 -93.5t93.5 -62t103.5 -19t103.5 19t91.5 60q35 35 58.5 87.5t23.5 111.5q0 53 -19.5 105.5t-60.5 93.5q-41 43 -93.5 62.5t-103.5 19.5q-53 0 -104.5 -19.5 t-92.5 -60.5q-35 -35 -58 -87t-23 -114z" />
<glyph unicode="&#xa5;" horiz-adv-x="1228" d="M8 1366h404l204 -393l197 393h410l-301 -477h215v-215h-351l-12 -19v-108h363v-213h-363v-334h-336v334h-346v213h346v108l-12 19h-334v215h205z" />
<glyph unicode="&#xa6;" d="M385 330h266v-842h-266v842zM385 694v842h266v-842h-266z" />
<glyph unicode="&#xa7;" horiz-adv-x="1228" d="M176 557q0 53 11.5 105.5t52.5 105.5q23 31 57.5 61.5t77.5 53.5q-31 20 -59.5 45.5t-45.5 52.5q-27 39 -35 79t-8 83q0 92 27 152.5t63 97.5q43 43 117 71.5t174 28.5q72 0 154 -19.5t141 -66.5q45 -35 69.5 -79t37 -85t15.5 -77t3 -56h-287q0 33 -11 67.5t-34 57.5 q-18 16 -37.5 21.5t-40.5 5.5q-51 0 -81 -31q-14 -14 -23.5 -33.5t-9.5 -44.5q0 -35 15.5 -58.5t37.5 -39.5q14 -10 35.5 -22.5t44 -24t42 -19.5t30.5 -12l82 -35q35 -16 89 -45t97 -76q47 -49 68.5 -108.5t21.5 -118.5q0 -47 -14.5 -104.5t-32.5 -92.5q-25 -47 -68 -85 t-94 -60q33 -18 63.5 -46t51.5 -63q23 -39 32 -81t9 -85q0 -143 -92 -241q-72 -78 -156 -99.5t-156 -21.5t-149.5 20.5t-145.5 85.5q-16 16 -36.5 43t-37 63t-27.5 83t-11 106h286v-14q0 -47 14.5 -75.5t31.5 -45.5q31 -29 81 -28q33 0 55.5 9t37.5 23q37 37 36 88 q0 27 -9 57.5t-40 59.5q-25 23 -65.5 38t-122.5 44q-66 23 -122 47.5t-110 77.5q-53 53 -76.5 116.5t-23.5 143.5zM471 563q0 -23 12.5 -52.5t30.5 -49.5q16 -18 46 -31.5t58 -13.5q27 0 57 11t56 40q37 43 37 96q0 37 -12.5 61.5t-24.5 39.5q-18 23 -48 36t-65 13 q-20 0 -47.5 -8.5t-54.5 -34.5q-23 -23 -34 -51.5t-11 -55.5z" />
<glyph unicode="&#xa8;" d="M102 1249q0 47 18.5 78t35.5 47q16 16 45.5 34.5t77.5 18.5q35 0 67.5 -14t54.5 -37q55 -55 56 -127q0 -68 -54 -125q-29 -29 -60 -41t-64 -12q-74 0 -125 55q-51 57 -52 123zM567 1249q0 47 18.5 78t35.5 47q16 16 45.5 34.5t76.5 18.5q35 0 68 -14t55 -37 q55 -55 56 -127q0 -68 -54 -125q-29 -29 -60.5 -41t-64.5 -12q-74 0 -125 55q-51 57 -51 123z" />
<glyph unicode="&#xa9;" horiz-adv-x="1556" d="M68 684q0 131 53 266t160 242q90 90 218 147.5t279 57.5q152 0 280 -57.5t218 -147.5q106 -106 159.5 -241.5t53.5 -266.5q0 -133 -53.5 -268t-159.5 -242q-90 -90 -218 -147.5t-280 -57.5t-279.5 57.5t-217.5 147.5q-106 106 -159.5 241.5t-53.5 268.5zM211 682 q0 -135 53 -246.5t133 -187.5q78 -74 177.5 -113t203.5 -39t203.5 39t177.5 113q80 76 133.5 187.5t53.5 246.5t-53.5 246.5t-133.5 187.5q-78 74 -177.5 113t-203.5 39t-203.5 -39t-177.5 -113q-80 -76 -133 -187.5t-53 -246.5zM365 678q0 88 33.5 165t82.5 130 q47 49 128 93t206 44q43 0 91 -8t120 -37v-293q-35 53 -88 82t-113 29q-82 0 -139 -52q-29 -27 -46 -65.5t-17 -87.5q0 -47 15 -83t38 -58q23 -23 59.5 -40.5t89.5 -17.5q39 0 90.5 17.5t110.5 83.5v-285q-31 -16 -73 -29.5t-119 -13.5q-131 0 -217.5 42t-135.5 93 q-61 63 -88.5 139t-27.5 152z" />
<glyph unicode="&#xaa;" horiz-adv-x="737" d="M43 1077q0 63 25.5 120.5t60.5 92.5t84 55.5t109 20.5q29 0 75.5 -12.5t87.5 -59.5v54h193v-543h-193v61q-39 -53 -84 -65.5t-73 -12.5q-68 0 -117 21.5t-82 54.5q-41 39 -63.5 94.5t-22.5 118.5zM57 547v155h621v-155h-621zM244 1077q0 -20 9 -44.5t32 -47.5 q33 -33 82 -33t82 33q25 23 32.5 47.5t7.5 44.5t-8 45t-35 47q-20 16 -40.5 23.5t-38.5 7.5q-47 0 -82 -31q-16 -16 -28.5 -39.5t-12.5 -52.5z" />
<glyph unicode="&#xab;" horiz-adv-x="1087" d="M57 467l312 444l180 -125l-227 -319l233 -315l-186 -132zM508 467l311 444l180 -125l-227 -319l234 -315l-187 -132z" />
<glyph unicode="&#xac;" d="M68 307v240h888v-547h-266v307h-622z" />
<glyph unicode="&#xad;" horiz-adv-x="722" d="M102 414v272h519v-272h-519z" />
<glyph unicode="&#xae;" horiz-adv-x="1579" d="M68 684q0 147 57 277.5t155.5 227.5t229.5 152.5t281 55.5t280.5 -55.5t229 -152.5t154.5 -227.5t56 -277.5q-2 -147 -59 -277.5t-154.5 -227.5t-228.5 -153.5t-278 -56.5q-150 0 -281 56.5t-229.5 153.5t-155.5 227.5t-57 277.5zM211 684q0 -123 45 -229.5t124 -186.5 t184.5 -126t226.5 -46q119 0 224 46t184 126t124 186.5t45 229.5t-44 229.5t-122 185.5t-183.5 124t-227.5 45q-121 0 -226.5 -45t-184.5 -124t-124 -185.5t-45 -229.5zM467 307v776h324q125 0 199.5 -67.5t74.5 -181.5q0 -74 -38 -132.5t-101 -78.5l-8 -5l243 -311h-305 l-149 230v-230h-240zM707 745h14q109 0 108 80q0 78 -108 78h-14v-158z" />
<glyph unicode="&#xaf;" d="M106 1104v201h812v-201h-812z" />
<glyph unicode="&#xb0;" d="M197 1057q0 47 17 104.5t75 112.5q49 47 106.5 69.5t114.5 22.5q66 0 125 -24.5t100 -65.5q41 -39 66.5 -95.5t25.5 -123.5q0 -47 -17 -105.5t-75 -115.5q-92 -93 -219 -93q-80 0 -136 29t-91 64q-33 33 -62.5 87t-29.5 134zM365 1055q0 -59 40.5 -101.5t106.5 -42.5 t106.5 42t40.5 102q0 59 -40.5 101t-106.5 42t-106.5 -42t-40.5 -101z" />
<glyph unicode="&#xb1;" d="M68 102v246h888v-246h-888zM68 731v246h311v313h266v-313h311v-246h-311v-315h-266v315h-311z" />
<glyph unicode="&#xb2;" horiz-adv-x="765" d="M68 561l198 219q45 49 81 90t65 84q20 29 39.5 71t19.5 83q0 23 -6 44.5t-21 37.5q-12 14 -26.5 18t-30.5 4q-14 0 -27.5 -4t-27.5 -18q-20 -20 -27.5 -49t-7.5 -49h-217q4 63 28.5 122.5t65.5 100.5q47 47 105.5 64.5t113.5 17.5t113.5 -15.5t107.5 -66.5 q47 -47 60.5 -102.5t13.5 -100.5q0 -90 -38 -157.5t-124 -143.5l-86 -76h258v-174h-630z" />
<glyph unicode="&#xb3;" horiz-adv-x="765" d="M68 840h208q2 -20 10.5 -41t22.5 -35t33.5 -23.5t46.5 -9.5q51 0 78 31q29 29 29 78q0 27 -9.5 44t-19.5 27q-14 12 -33.5 20.5t-42.5 8.5q-10 0 -23.5 -2t-23.5 -4v139q29 -2 52.5 2t39.5 19q14 12 20.5 30.5t6.5 34.5q0 35 -23 58q-18 23 -57 22q-23 0 -38 -8t-23 -19 q-23 -27 -23 -63h-190q4 63 27.5 108.5t51.5 73.5q47 47 100.5 61.5t108.5 14.5q43 0 95.5 -11.5t97.5 -58.5q29 -29 45 -66.5t16 -90.5q0 -41 -8 -67t-18 -42q-20 -33 -56 -55q20 -6 42 -19.5t40 -38.5q10 -12 28.5 -45.5t18.5 -93.5q0 -47 -15 -94t-56 -88 q-51 -51 -112.5 -66.5t-117.5 -15.5q-53 0 -114.5 14.5t-116.5 67.5q-29 29 -59.5 78t-38.5 125z" />
<glyph unicode="&#xb4;" d="M360 1178l261 315l206 -150l-315 -278z" />
<glyph unicode="&#xb5;" horiz-adv-x="1196" d="M113 -471v1386h327v-409q0 -78 13.5 -137.5t48.5 -92.5q12 -12 35.5 -23t60.5 -11q35 0 58.5 11t39.5 28q41 41 50.5 107.5t9.5 125.5v401h327v-915h-327v115q-20 -55 -58 -90q-23 -20 -46 -30.5t-54 -10.5q-63 0 -106 41q-18 16 -30.5 37.5t-21.5 41.5v-575h-327z" />
<glyph unicode="&#xb6;" horiz-adv-x="1366" d="M55 999q0 104 34 167t67 94q66 61 164 83.5t208 22.5h689v-217h-148v-1344h-233v1344h-162v-1344h-234v846h-20q-86 0 -159 31t-120 80q-53 57 -69.5 120.5t-16.5 116.5z" />
<glyph unicode="&#xb7;" horiz-adv-x="507" d="M0 723q0 47 19.5 97t60.5 89q35 33 80 51.5t94 18.5q45 0 88 -15.5t82 -52.5q51 -47 67.5 -98t16.5 -90q0 -49 -18.5 -95t-55.5 -83q-39 -39 -86 -57.5t-94 -18.5q-41 0 -87 15.5t-87 54.5t-60.5 87t-19.5 97z" />
<glyph unicode="&#xb8;" d="M381 -401l209 307l217 -90l-254 -299z" />
<glyph unicode="&#xb9;" horiz-adv-x="452" d="M68 1194v172h317v-819h-205v647h-112z" />
<glyph unicode="&#xba;" horiz-adv-x="727" d="M43 1077q0 72 24.5 120t55.5 79q37 37 96.5 63.5t145.5 26.5q92 0 149 -28.5t86 -57.5q41 -39 62.5 -92t21.5 -109q0 -59 -22.5 -112.5t-59.5 -89.5q-31 -31 -88 -60t-149 -29q-80 0 -141.5 25t-100.5 64q-33 33 -56.5 84t-23.5 116zM53 547v155h621v-155h-621zM242 1077 q0 -33 11 -54.5t26 -33.5q16 -16 37.5 -25.5t48.5 -9.5q43 0 77 29q43 37 43 94t-36 90q-37 33 -84 33q-20 0 -45 -8t-41 -25q-37 -33 -37 -90z" />
<glyph unicode="&#xbb;" horiz-adv-x="1093" d="M82 152l233 315l-227 319l180 125l312 -444l-312 -447zM532 152l234 315l-227 319l180 125l311 -444l-311 -447z" />
<glyph unicode="&#xbc;" horiz-adv-x="1587" d="M68 1194v172h317v-819h-205v647h-112zM246 0l790 1366h178l-792 -1366h-176zM866 156v129l305 534h269v-506h96v-157h-96v-156h-193v156h-381zM1075 313h172v316z" />
<glyph unicode="&#xbd;" horiz-adv-x="1609" d="M68 1194v172h317v-819h-205v647h-112zM213 0l791 1366h178l-793 -1366h-176zM911 0l199 219q45 49 81 90t64 84q20 29 40 71t20 83q0 23 -6 44t-21 38q-12 14 -26.5 18t-30.5 4q-14 0 -27.5 -4t-27.5 -18q-20 -20 -27.5 -49t-7.5 -50h-217q4 63 28.5 123t65.5 101 q47 47 105.5 64.5t113.5 17.5t113.5 -15.5t107.5 -66.5q47 -47 60.5 -102.5t13.5 -100.5q0 -90 -38 -157.5t-124 -143.5l-86 -76h258v-174h-631z" />
<glyph unicode="&#xbe;" horiz-adv-x="1820" d="M68 840h208q2 -20 10.5 -41t22.5 -35t33.5 -23.5t46.5 -9.5q51 0 78 31q12 14 20.5 34.5t8.5 45.5t-9.5 42t-19.5 27q-16 16 -35.5 22.5t-40.5 6.5q-27 0 -47 -6v139q29 0 52.5 2t39.5 19q14 12 20.5 30.5t6.5 34.5q0 35 -23 58q-18 23 -57 22q-23 0 -38 -8t-23 -19 q-23 -27 -23 -63h-190q4 63 27.5 108.5t51.5 73.5q47 47 100.5 61.5t108.5 14.5q43 0 95.5 -11.5t97.5 -58.5q29 -29 45 -66.5t16 -90.5q0 -41 -8 -67t-18 -42q-20 -33 -56 -55q16 -4 38 -16.5t44 -41.5q23 -29 35 -67.5t12 -75.5q0 -43 -15 -90t-56 -88 q-51 -51 -112.5 -66.5t-117.5 -15.5q-53 0 -114.5 14.5t-116.5 67.5q-29 29 -59.5 78t-38.5 125zM483 0l791 1366h178l-793 -1366h-176zM1069 156v129l305 534h268v-506h97v-157h-97v-156h-192v156h-381zM1278 313h172v316z" />
<glyph unicode="&#xbf;" horiz-adv-x="1120" d="M82 -78q0 70 25.5 135.5t72.5 118.5q43 47 102.5 81t127.5 50v129h333v-352q-20 8 -35.5 9t-35.5 1q-49 0 -98.5 -9t-92.5 -54q-31 -31 -39 -60.5t-8 -52.5q0 -29 10.5 -53.5t26.5 -40.5t41 -24.5t49 -8.5q29 0 53.5 10.5t40.5 26.5q37 41 37 100h361 q-8 -109 -51.5 -189.5t-98.5 -127.5q-78 -68 -170 -87.5t-170 -19.5q-84 0 -179 21.5t-181 103.5q-43 41 -67.5 85t-36 83t-14.5 72t-3 53zM356 721q0 51 16.5 86t45.5 63q33 33 70.5 48.5t78.5 15.5q35 0 74 -13.5t76 -50.5q20 -20 41.5 -57t21.5 -92t-21.5 -92t-41.5 -58 q-37 -37 -76 -50t-74 -13q-39 0 -77.5 15.5t-73.5 49.5q-27 27 -43.5 62t-16.5 86z" />
<glyph unicode="&#xc0;" horiz-adv-x="1454" d="M14 0l525 1366h387l514 -1366h-379l-84 229h-496l-92 -229h-375zM412 1753l209 150l258 -316l-152 -112zM580 500h303l-154 442z" />
<glyph unicode="&#xc1;" horiz-adv-x="1454" d="M14 0l525 1366h387l514 -1366h-379l-84 229h-496l-92 -229h-375zM575 1587l261 316l206 -150l-315 -278zM580 500h303l-154 442z" />
<glyph unicode="&#xc2;" horiz-adv-x="1454" d="M14 0l525 1366h387l514 -1366h-379l-84 229h-496l-92 -229h-375zM324 1632l401 301l405 -301l-145 -157l-260 200l-262 -200zM580 500h303l-154 442z" />
<glyph unicode="&#xc3;" horiz-adv-x="1454" d="M14 0l525 1366h387l514 -1366h-379l-84 229h-496l-92 -229h-375zM362 1575q12 37 35 77t47 62q27 25 64 41.5t80 16.5q39 0 69.5 -9.5t53.5 -19.5l59 -27q31 -14 51.5 -22t36.5 -8q18 0 38.5 18t37.5 72l158 -95q-14 -35 -39 -75.5t-52 -65.5q-59 -59 -147 -59 q-35 0 -62.5 8t-56.5 22l-61 31q-35 16 -50.5 20.5t-23.5 4.5q-23 0 -45.5 -19.5t-32.5 -66.5zM580 500h303l-154 442z" />
<glyph unicode="&#xc4;" horiz-adv-x="1454" d="M14 0l525 1366h387l514 -1366h-379l-84 229h-496l-92 -229h-375zM317 1659q0 47 18.5 77.5t35.5 47.5q16 16 45.5 34.5t77.5 18.5q35 0 67.5 -14.5t54.5 -36.5q55 -55 56 -127q0 -68 -54 -125q-29 -29 -60 -41t-64 -12q-74 0 -125 55q-51 57 -52 123zM580 500h303 l-154 442zM782 1659q0 47 18.5 77.5t35.5 47.5q16 16 45.5 34.5t76.5 18.5q35 0 68 -14.5t55 -36.5q55 -55 56 -127q0 -68 -54 -125q-29 -29 -60.5 -41t-64.5 -12q-74 0 -125 55q-51 57 -51 123z" />
<glyph unicode="&#xc5;" horiz-adv-x="1454" d="M14 0l525 1366h387l514 -1366h-379l-84 229h-496l-92 -229h-375zM446 1692q0 39 12.5 73.5t41.5 63.5q6 6 21.5 18.5t43 24.5t67.5 22.5t95 10.5t95 -10.5t67.5 -22.5t43 -24.5t21.5 -18.5q29 -29 41.5 -63.5t12.5 -73.5q0 -37 -12.5 -72t-41.5 -64q-6 -6 -21.5 -18 t-43 -24.5t-67.5 -22.5t-95 -10t-95 10t-67.5 22.5t-43 24.5t-21.5 18q-29 29 -41.5 64t-12.5 72zM580 500h303l-154 442zM618 1694q0 -31 21 -52q31 -31 88 -30q57 0 88 30q20 20 21 52q0 31 -21 51q-31 31 -88 31t-88 -31q-20 -20 -21 -51z" />
<glyph unicode="&#xc6;" horiz-adv-x="1892" d="M14 0l527 1366h377h458l109 -301h-449l84 -227h449l112 -301h-450l90 -236h446l111 -301h-448h-375l-88 240h-494l-86 -240h-373zM571 510h299l-145 403z" />
<glyph unicode="&#xc7;" horiz-adv-x="1206" d="M82 672q0 147 57.5 278t149.5 226q92 92 224 152.5t292 60.5q49 0 129 -12.5t190 -57.5v-424q-43 53 -88 83t-87 45t-76.5 18t-57.5 3q-78 0 -137.5 -22.5t-108.5 -67.5q-63 -59 -90.5 -134t-27.5 -146q0 -72 28.5 -143.5t81.5 -122.5q45 -41 111.5 -68t142.5 -27 q20 0 53 3t75 17.5t88 43.5t93 80v-420q-53 -18 -95 -31.5t-78 -22t-68.5 -11.5t-65.5 -3q-180 0 -311 60.5t-217 144.5q-100 100 -153.5 231.5t-53.5 266.5zM483 -401l197 307l229 -90l-238 -299z" />
<glyph unicode="&#xc8;" horiz-adv-x="1001" d="M143 0v1366h777v-301h-422v-227h399v-301h-399v-236h422v-301h-777zM258 1753l209 150l258 -316l-152 -112z" />
<glyph unicode="&#xc9;" horiz-adv-x="1001" d="M143 0v1366h777v-301h-422v-227h399v-301h-399v-236h422v-301h-777zM331 1587l261 316l206 -150l-315 -278z" />
<glyph unicode="&#xca;" horiz-adv-x="1001" d="M129 1632l401 301l405 -301l-145 -157l-260 200l-262 -200zM143 0v1366h777v-301h-422v-227h399v-301h-399v-236h422v-301h-777z" />
<glyph unicode="&#xcb;" horiz-adv-x="1001" d="M122 1659q0 47 18.5 77.5t35.5 47.5q16 16 45.5 34.5t77.5 18.5q35 0 67.5 -14.5t54.5 -36.5q55 -55 56 -127q0 -68 -54 -125q-29 -29 -60 -41t-64 -12q-74 0 -125 55q-51 57 -52 123zM143 0v1366h777v-301h-422v-227h399v-301h-399v-236h422v-301h-777zM587 1659 q0 47 18.5 77.5t35.5 47.5q16 16 45.5 34.5t76.5 18.5q35 0 68 -14.5t55 -36.5q55 -55 56 -127q0 -68 -54 -125q-29 -29 -60.5 -41t-64.5 -12q-74 0 -125 55q-51 57 -51 123z" />
<glyph unicode="&#xcc;" horiz-adv-x="641" d="M35 1753l209 150l258 -316l-152 -112zM143 0v1366h355v-1366h-355z" />
<glyph unicode="&#xcd;" horiz-adv-x="641" d="M143 0v1366h355v-1366h-355zM157 1587l261 316l206 -150l-315 -278z" />
<glyph unicode="&#xce;" horiz-adv-x="641" d="M-79 1632l401 301l405 -301l-145 -157l-260 200l-262 -200zM143 0v1366h355v-1366h-355z" />
<glyph unicode="&#xcf;" horiz-adv-x="641" d="M-86 1659q0 47 18.5 77.5t35.5 47.5q16 16 45.5 34.5t77.5 18.5q35 0 67.5 -14.5t54.5 -36.5q55 -55 56 -127q0 -68 -54 -125q-29 -29 -60 -41t-64 -12q-74 0 -125 55q-51 57 -52 123zM143 0v1366h355v-1366h-355zM379 1659q0 47 18.5 77.5t35.5 47.5q16 16 45.5 34.5 t76.5 18.5q35 0 68 -14.5t55 -36.5q55 -55 56 -127q0 -68 -54 -125q-29 -29 -60.5 -41t-64.5 -12q-74 0 -125 55q-51 57 -51 123z" />
<glyph unicode="&#xd0;" horiz-adv-x="1509" d="M41 606v246h188v514h465q51 0 118 -5t139.5 -24.5t146 -57.5t139.5 -101q59 -57 97 -122t58.5 -129.5t27.5 -128t7 -118.5q0 -135 -38.5 -254t-139.5 -219q-82 -82 -215 -144.5t-309 -62.5h-496v606h-188zM584 301h71q33 0 71 3t77 12.5t78 29t73 53.5q35 33 70 99.5 t35 181.5q0 96 -27.5 174t-79.5 125q-63 59 -140 72.5t-142 13.5h-86v-213h241v-246h-241v-305z" />
<glyph unicode="&#xd1;" horiz-adv-x="1648" d="M143 0v1366h355l653 -836v836h354v-1366h-354l-653 836v-836h-355zM458 1575q12 37 35 77t47 62q27 25 64 41.5t80 16.5q39 0 69.5 -9.5t53.5 -19.5l59 -27q31 -14 51.5 -22t36.5 -8q18 0 38.5 18t37.5 72l158 -95q-14 -35 -39 -75.5t-52 -65.5q-59 -59 -147 -59 q-35 0 -62.5 8t-56.5 22l-61 31q-35 16 -50.5 20.5t-23.5 4.5q-23 0 -45.5 -19.5t-32.5 -66.5z" />
<glyph unicode="&#xd2;" horiz-adv-x="1671" d="M82 682q0 137 52 272.5t163 239.5q104 100 244.5 151.5t294.5 51.5t294 -51.5t244 -151.5q111 -104 163 -239.5t52 -272.5q0 -135 -52 -270.5t-163 -239.5q-104 -100 -244.5 -151.5t-293.5 -51.5q-154 0 -294.5 51.5t-244.5 151.5q-111 104 -163 239.5t-52 270.5z M451 676q0 -92 34.5 -154.5t73.5 -99.5q49 -47 117.5 -78t159.5 -31q92 0 159.5 30t114.5 77t79 115.5t32 146.5q0 80 -32 147.5t-79 114.5q-57 53 -129.5 81t-144.5 28q-74 0 -148 -27t-129 -82q-55 -53 -81.5 -124.5t-26.5 -143.5zM523 1753l209 150l258 -316l-152 -112z " />
<glyph unicode="&#xd3;" horiz-adv-x="1671" d="M82 682q0 137 52 272.5t163 239.5q104 100 244.5 151.5t294.5 51.5t294 -51.5t244 -151.5q111 -104 163 -239.5t52 -272.5q0 -135 -52 -270.5t-163 -239.5q-104 -100 -244.5 -151.5t-293.5 -51.5q-154 0 -294.5 51.5t-244.5 151.5q-111 104 -163 239.5t-52 270.5z M451 676q0 -92 34.5 -154.5t73.5 -99.5q49 -47 117.5 -78t159.5 -31q92 0 159.5 30t114.5 77t79 115.5t32 146.5q0 80 -32 147.5t-79 114.5q-57 53 -129.5 81t-144.5 28q-74 0 -148 -27t-129 -82q-55 -53 -81.5 -124.5t-26.5 -143.5zM686 1587l261 316l206 -150l-315 -278z " />
<glyph unicode="&#xd4;" horiz-adv-x="1671" d="M82 682q0 137 52 272.5t163 239.5q104 100 244.5 151.5t294.5 51.5t294 -51.5t244 -151.5q111 -104 163 -239.5t52 -272.5q0 -135 -52 -270.5t-163 -239.5q-104 -100 -244.5 -151.5t-293.5 -51.5q-154 0 -294.5 51.5t-244.5 151.5q-111 104 -163 239.5t-52 270.5z M435 1632l401 301l405 -301l-145 -157l-260 200l-262 -200zM451 676q0 -92 34.5 -154.5t73.5 -99.5q49 -47 117.5 -78t159.5 -31q92 0 159.5 30t114.5 77t79 115.5t32 146.5q0 80 -32 147.5t-79 114.5q-57 53 -129.5 81t-144.5 28q-74 0 -148 -27t-129 -82 q-55 -53 -81.5 -124.5t-26.5 -143.5z" />
<glyph unicode="&#xd5;" horiz-adv-x="1671" d="M82 682q0 137 52 272.5t163 239.5q104 100 244.5 151.5t294.5 51.5t294 -51.5t244 -151.5q111 -104 163 -239.5t52 -272.5q0 -135 -52 -270.5t-163 -239.5q-104 -100 -244.5 -151.5t-293.5 -51.5q-154 0 -294.5 51.5t-244.5 151.5q-111 104 -163 239.5t-52 270.5z M451 676q0 -92 34.5 -154.5t73.5 -99.5q49 -47 117.5 -78t159.5 -31q92 0 159.5 30t114.5 77t79 115.5t32 146.5q0 80 -32 147.5t-79 114.5q-57 53 -129.5 81t-144.5 28q-74 0 -148 -27t-129 -82q-55 -53 -81.5 -124.5t-26.5 -143.5zM473 1575q12 37 35 77t47 62 q27 25 64 41.5t80 16.5q39 0 69.5 -9.5t53.5 -19.5l59 -27q31 -14 51.5 -22t36.5 -8q18 0 38.5 18t37.5 72l158 -95q-14 -35 -39 -75.5t-52 -65.5q-59 -59 -147 -59q-35 0 -62.5 8t-56.5 22l-61 31q-35 16 -50.5 20.5t-23.5 4.5q-23 0 -45.5 -19.5t-32.5 -66.5z" />
<glyph unicode="&#xd6;" horiz-adv-x="1671" d="M82 682q0 137 52 272.5t163 239.5q104 100 244.5 151.5t294.5 51.5t294 -51.5t244 -151.5q111 -104 163 -239.5t52 -272.5q0 -135 -52 -270.5t-163 -239.5q-104 -100 -244.5 -151.5t-293.5 -51.5q-154 0 -294.5 51.5t-244.5 151.5q-111 104 -163 239.5t-52 270.5z M428 1659q0 47 18.5 77.5t35.5 47.5q16 16 45.5 34.5t77.5 18.5q35 0 67.5 -14.5t54.5 -36.5q55 -55 56 -127q0 -68 -54 -125q-29 -29 -60 -41t-64 -12q-74 0 -125 55q-51 57 -52 123zM451 676q0 -92 34.5 -154.5t73.5 -99.5q49 -47 117.5 -78t159.5 -31q92 0 159.5 30 t114.5 77t79 115.5t32 146.5q0 80 -32 147.5t-79 114.5q-57 53 -129.5 81t-144.5 28q-74 0 -148 -27t-129 -82q-55 -53 -81.5 -124.5t-26.5 -143.5zM893 1659q0 47 18.5 77.5t35.5 47.5q16 16 45.5 34.5t76.5 18.5q35 0 68 -14.5t55 -36.5q55 -55 56 -127q0 -68 -54 -125 q-29 -29 -60.5 -41t-64.5 -12q-74 0 -125 55q-51 57 -51 123z" />
<glyph unicode="&#xd7;" d="M78 934l188 188l252 -252l250 252l174 -174l-250 -252l252 -252l-188 -188l-252 252l-252 -250l-172 174l250 250z" />
<glyph unicode="&#xd8;" horiz-adv-x="1695" d="M61 76l179 176q-59 74 -102.5 177t-43.5 251q0 166 61.5 297t153.5 217q88 84 223.5 143.5t315.5 59.5q129 0 231.5 -31t192.5 -84l180 180l182 -172l-178 -176q88 -119 117 -231.5t29 -198.5q0 -139 -53.5 -273.5t-162.5 -238.5q-98 -96 -231 -149.5t-307 -53.5 q-135 0 -237.5 33t-186.5 82l-180 -180zM463 676q0 -51 11 -92t32 -76l506 504q-33 18 -72 29.5t-92 11.5q-92 0 -161 -31t-116 -78t-77.5 -114.5t-30.5 -153.5zM686 354q74 -41 164 -41t157.5 30t114.5 77q49 49 80 115.5t31 146.5q0 53 -11.5 96t-33.5 78z" />
<glyph unicode="&#xd9;" horiz-adv-x="1476" d="M143 582v784h355v-809q0 -43 9 -102.5t60 -108.5q31 -29 76 -47t92 -18t91 16t73 43q31 27 47.5 58.5t23.5 64.5t8 64.5t1 60.5v778h354v-784q0 -53 -3 -108.5t-18.5 -111t-46 -111.5t-85.5 -112q-86 -88 -196 -129t-255 -41q-162 0 -275.5 48.5t-177.5 115.5 q-45 49 -71.5 104.5t-39.5 114t-17.5 116.5t-4.5 114zM422 1753l209 150l258 -316l-152 -112z" />
<glyph unicode="&#xda;" horiz-adv-x="1476" d="M143 582v784h355v-809q0 -43 9 -102.5t60 -108.5q31 -29 76 -47t92 -18t91 16t73 43q31 27 47.5 58.5t23.5 64.5t8 64.5t1 60.5v778h354v-784q0 -53 -3 -108.5t-18.5 -111t-46 -111.5t-85.5 -112q-86 -88 -196 -129t-255 -41q-162 0 -275.5 48.5t-177.5 115.5 q-45 49 -71.5 104.5t-39.5 114t-17.5 116.5t-4.5 114zM585 1587l261 316l206 -150l-315 -278z" />
<glyph unicode="&#xdb;" horiz-adv-x="1476" d="M143 582v784h355v-809q0 -43 9 -102.5t60 -108.5q31 -29 76 -47t92 -18t91 16t73 43q31 27 47.5 58.5t23.5 64.5t8 64.5t1 60.5v778h354v-784q0 -53 -3 -108.5t-18.5 -111t-46 -111.5t-85.5 -112q-86 -88 -196 -129t-255 -41q-162 0 -275.5 48.5t-177.5 115.5 q-45 49 -71.5 104.5t-39.5 114t-17.5 116.5t-4.5 114zM334 1632l401 301l405 -301l-145 -157l-260 200l-262 -200z" />
<glyph unicode="&#xdc;" horiz-adv-x="1476" d="M143 582v784h355v-809q0 -43 9 -102.5t60 -108.5q31 -29 76 -47t92 -18t91 16t73 43q31 27 47.5 58.5t23.5 64.5t8 64.5t1 60.5v778h354v-784q0 -53 -3 -108.5t-18.5 -111t-46 -111.5t-85.5 -112q-86 -88 -196 -129t-255 -41q-162 0 -275.5 48.5t-177.5 115.5 q-45 49 -71.5 104.5t-39.5 114t-17.5 116.5t-4.5 114zM327 1659q0 47 18.5 77.5t35.5 47.5q16 16 45.5 34.5t77.5 18.5q35 0 67.5 -14.5t54.5 -36.5q55 -55 56 -127q0 -68 -54 -125q-29 -29 -60 -41t-64 -12q-74 0 -125 55q-51 57 -52 123zM792 1659q0 47 18.5 77.5 t35.5 47.5q16 16 45.5 34.5t76.5 18.5q35 0 68 -14.5t55 -36.5q55 -55 56 -127q0 -68 -54 -125q-29 -29 -60.5 -41t-64.5 -12q-74 0 -125 55q-51 57 -51 123z" />
<glyph unicode="&#xdd;" horiz-adv-x="1310" d="M-25 1366h424l258 -373l248 373h430l-510 -711v-655h-356v655zM503 1587l261 316l206 -150l-315 -278z" />
<glyph unicode="&#xde;" horiz-adv-x="1226" d="M143 0v1366h355v-184h211q90 0 179 -23.5t167 -99.5q80 -78 103.5 -162t23.5 -170q0 -41 -4 -84t-16.5 -87t-37 -87t-63.5 -82q-80 -78 -170 -98.5t-170 -20.5h-223v-268h-355zM498 555h118q29 0 73 7t77 36t39 64.5t6 60.5q0 29 -6 61.5t-35 61.5q-31 33 -74 41t-78 8 h-120v-340z" />
<glyph unicode="&#xdf;" horiz-adv-x="1208" d="M113 0v1085q0 70 21.5 157t94.5 159q41 39 123 75.5t215 36.5q72 0 127.5 -11t98.5 -28.5t73.5 -39t51.5 -41.5q39 -39 72.5 -106.5t33.5 -176.5q0 -25 -5 -60.5t-21.5 -75.5t-47 -78t-84.5 -67q39 -12 78 -33.5t78 -62.5q59 -59 85 -127.5t26 -161.5q0 -72 -13.5 -129 t-35 -102t-49 -79t-54.5 -56q-90 -76 -200.5 -94.5t-243.5 -10.5v275q53 0 102 18.5t82 50.5q16 16 35.5 51t19.5 91q0 57 -18.5 94t-38.5 59q-23 23 -67 49.5t-115 22.5v260h22q47 0 75 14.5t42 26.5q23 23 30 49.5t7 61.5t-10.5 59.5t-24.5 40.5q-12 14 -36 26.5t-64 12.5 q-39 0 -62.5 -13.5t-34.5 -23.5q-29 -29 -35 -61.5t-6 -65.5v-1071h-327z" />
<glyph unicode="&#xe0;" horiz-adv-x="1261" d="M76 451q0 129 43 220t98 146q59 59 145.5 94t184.5 35q55 0 99 -12t78 -30.5t58.5 -39t38.5 -37.5v88h328v-915h-328v100q-29 -39 -63.5 -64.5t-72.5 -39.5t-77 -20.5t-71 -6.5q-74 0 -160 29t-170 117q-66 72 -98.5 151.5t-32.5 184.5zM402 1343l209 150l258 -315 l-152 -113zM412 459q0 -41 16 -81t47 -69q27 -25 67 -43t81 -18q84 0 147 63q23 23 42 57.5t19 90.5q0 33 -12 72.5t-51 76.5q-23 23 -58.5 41.5t-88.5 18.5q-31 0 -70 -12.5t-74 -47.5q-35 -33 -50 -73.5t-15 -75.5z" />
<glyph unicode="&#xe1;" horiz-adv-x="1261" d="M76 451q0 129 43 220t98 146q59 59 145.5 94t184.5 35q55 0 99 -12t78 -30.5t58.5 -39t38.5 -37.5v88h328v-915h-328v100q-29 -39 -63.5 -64.5t-72.5 -39.5t-77 -20.5t-71 -6.5q-74 0 -160 29t-170 117q-66 72 -98.5 151.5t-32.5 184.5zM412 459q0 -41 16 -81t47 -69 q27 -25 67 -43t81 -18q84 0 147 63q23 23 42 57.5t19 90.5q0 33 -12 72.5t-51 76.5q-23 23 -58.5 41.5t-88.5 18.5q-31 0 -70 -12.5t-74 -47.5q-35 -33 -50 -73.5t-15 -75.5zM493 1178l261 315l206 -150l-315 -278z" />
<glyph unicode="&#xe2;" horiz-adv-x="1261" d="M76 451q0 129 43 220t98 146q59 59 145.5 94t184.5 35q55 0 99 -12t78 -30.5t58.5 -39t38.5 -37.5v88h328v-915h-328v100q-29 -39 -63.5 -64.5t-72.5 -39.5t-77 -20.5t-71 -6.5q-74 0 -160 29t-170 117q-66 72 -98.5 151.5t-32.5 184.5zM263 1223l401 301l405 -301 l-145 -158l-260 201l-262 -201zM412 459q0 -41 16 -81t47 -69q27 -25 67 -43t81 -18q84 0 147 63q23 23 42 57.5t19 90.5q0 33 -12 72.5t-51 76.5q-23 23 -58.5 41.5t-88.5 18.5q-31 0 -70 -12.5t-74 -47.5q-35 -33 -50 -73.5t-15 -75.5z" />
<glyph unicode="&#xe3;" horiz-adv-x="1261" d="M76 451q0 129 43 220t98 146q59 59 145.5 94t184.5 35q55 0 99 -12t78 -30.5t58.5 -39t38.5 -37.5v88h328v-915h-328v100q-29 -39 -63.5 -64.5t-72.5 -39.5t-77 -20.5t-71 -6.5q-74 0 -160 29t-170 117q-66 72 -98.5 151.5t-32.5 184.5zM301 1165q12 37 35 77t47 63 q27 25 64 41t80 16q39 0 69.5 -9.5t53.5 -19.5l59 -26q31 -14 51.5 -22.5t36.5 -8.5q18 0 38.5 18.5t37.5 71.5l158 -94q-14 -35 -39 -76t-52 -66q-59 -59 -147 -59q-35 0 -62.5 8t-56.5 23l-61 31q-35 16 -50.5 20t-23.5 4q-23 0 -45.5 -19.5t-32.5 -66.5zM412 459 q0 -41 16 -81t47 -69q27 -25 67 -43t81 -18q84 0 147 63q23 23 42 57.5t19 90.5q0 33 -12 72.5t-51 76.5q-23 23 -58.5 41.5t-88.5 18.5q-31 0 -70 -12.5t-74 -47.5q-35 -33 -50 -73.5t-15 -75.5z" />
<glyph unicode="&#xe4;" horiz-adv-x="1261" d="M76 451q0 129 43 220t98 146q59 59 145.5 94t184.5 35q55 0 99 -12t78 -30.5t58.5 -39t38.5 -37.5v88h328v-915h-328v100q-29 -39 -63.5 -64.5t-72.5 -39.5t-77 -20.5t-71 -6.5q-74 0 -160 29t-170 117q-66 72 -98.5 151.5t-32.5 184.5zM256 1249q0 47 18.5 78t35.5 47 q16 16 45.5 34.5t77.5 18.5q35 0 67.5 -14t54.5 -37q55 -55 56 -127q0 -68 -54 -125q-29 -29 -60 -41t-64 -12q-74 0 -125 55q-51 57 -52 123zM412 459q0 -41 16 -81t47 -69q27 -25 67 -43t81 -18q84 0 147 63q23 23 42 57.5t19 90.5q0 33 -12 72.5t-51 76.5 q-23 23 -58.5 41.5t-88.5 18.5q-31 0 -70 -12.5t-74 -47.5q-35 -33 -50 -73.5t-15 -75.5zM721 1249q0 47 18.5 78t35.5 47q16 16 45.5 34.5t76.5 18.5q35 0 68 -14t55 -37q55 -55 56 -127q0 -68 -54 -125q-29 -29 -60.5 -41t-64.5 -12q-74 0 -125 55q-51 57 -51 123z" />
<glyph unicode="&#xe5;" horiz-adv-x="1261" d="M76 451q0 129 43 220t98 146q59 59 145.5 94t184.5 35q55 0 99 -12t78 -30.5t58.5 -39t38.5 -37.5v88h328v-915h-328v100q-29 -39 -63.5 -64.5t-72.5 -39.5t-77 -20.5t-71 -6.5q-74 0 -160 29t-170 117q-66 72 -98.5 151.5t-32.5 184.5zM385 1282q0 39 12.5 74t41.5 63 q6 6 21.5 18.5t43 25t67.5 22.5t95 10t95 -10t67.5 -22.5t43 -25t21.5 -18.5q29 -29 41.5 -63.5t12.5 -73.5q0 -37 -12.5 -71.5t-41.5 -63.5q-6 -6 -21.5 -18.5t-43 -24.5t-67.5 -22.5t-95 -10.5t-95 10.5t-67.5 22.5t-43 24.5t-21.5 18.5q-29 29 -41.5 63.5t-12.5 71.5z M412 459q0 -41 16 -81t47 -69q27 -25 67 -43t81 -18q84 0 147 63q23 23 42 57.5t19 90.5q0 33 -12 72.5t-51 76.5q-23 23 -58.5 41.5t-88.5 18.5q-31 0 -70 -12.5t-74 -47.5q-35 -33 -50 -73.5t-15 -75.5zM557 1284q0 -31 21 -51q31 -31 88 -31t88 31q20 20 21 51 q0 31 -21 51q-31 31 -88 31t-88 -31q-20 -20 -21 -51z" />
<glyph unicode="&#xe6;" horiz-adv-x="1757" d="M76 268q0 119 80 199q47 47 122.5 75.5t180.5 28.5q51 0 109.5 -9t123.5 -38v23q0 35 -12 64.5t-31 47.5q-18 18 -43.5 28.5t-51.5 17t-47.5 7.5t-33.5 1q-41 0 -104.5 -9.5t-149.5 -41.5v243q59 16 131 29.5t142 13.5q47 0 92 -5t98 -30q47 -23 84 -51t65 -76 q25 33 61 64t79 53q18 10 71.5 27.5t141.5 17.5q117 0 211 -35.5t153 -95.5q47 -47 74 -103.5t40 -109.5t16 -99t3 -73v-26h-686q0 -55 19.5 -95.5t42.5 -62.5q35 -35 71.5 -43t75.5 -8q29 0 54.5 5t48.5 21q29 18 47 60h313q-29 -94 -78 -148.5t-88 -83.5 q-74 -53 -150.5 -67.5t-150.5 -14.5q-70 0 -128 11.5t-116 42.5q-84 45 -125 124q-35 -45 -77.5 -76.5t-85.5 -52.5q-25 -10 -79 -27.5t-134 -17.5q-96 0 -174 29t-127 78q-29 29 -53.5 75t-24.5 113zM391 291q0 -43 39 -70q23 -16 51.5 -23.5t57.5 -7.5q27 0 55.5 7.5 t50.5 17.5q29 16 42 36.5t13 39.5q0 23 -14 43t-35 31q-20 10 -51.5 17t-58.5 7q-10 0 -48 -3t-69 -26q-33 -25 -33 -69zM1004 592h376q-8 35 -23.5 58.5t-31.5 39.5q-29 25 -65.5 38t-71.5 13q-70 0 -121 -45q-23 -23 -39 -50.5t-24 -53.5z" />
<glyph unicode="&#xe7;" horiz-adv-x="878" d="M76 451q0 102 39 194t108 160q66 61 159 100t210 39q43 0 97 -10t116 -41v-275q-33 23 -75 41.5t-95 18.5q-59 0 -97 -19.5t-63 -44.5q-35 -35 -49 -75.5t-14 -81.5q0 -39 14 -80t43 -74q23 -25 63.5 -47.5t104.5 -22.5q35 0 79 11.5t89 50.5v-275q-66 -33 -121 -42 t-106 -9q-68 0 -123.5 13.5t-99.5 33t-78.5 44t-59.5 49.5q-66 63 -103.5 151t-37.5 191zM301 -401l209 307l217 -90l-254 -299z" />
<glyph unicode="&#xe8;" horiz-adv-x="1159" d="M74 455q0 117 39 206t98 148q57 55 148.5 94t226.5 39q80 0 175 -24.5t177 -100.5q49 -47 77.5 -98t44 -102.5t19.5 -98.5t4 -86v-35h-682q0 -37 14.5 -81t43.5 -72q16 -16 48 -30.5t87 -14.5q6 0 41 4t65 20q16 10 32 24.5t26 37.5h313q-10 -39 -34.5 -89.5t-75.5 -99.5 t-137.5 -88t-235.5 -39q-90 0 -192.5 28t-186.5 112q-23 23 -46.5 54.5t-44 74.5t-32.5 97t-12 120zM310 1343l209 150l258 -315l-152 -113zM412 586h370q-6 27 -20 53.5t-33 44.5q-33 33 -72 41t-63 8q-84 0 -133 -49q-16 -18 -30.5 -43t-18.5 -55z" />
<glyph unicode="&#xe9;" horiz-adv-x="1159" d="M74 455q0 117 39 206t98 148q57 55 148.5 94t226.5 39q80 0 175 -24.5t177 -100.5q49 -47 77.5 -98t44 -102.5t19.5 -98.5t4 -86v-35h-682q0 -37 14.5 -81t43.5 -72q16 -16 48 -30.5t87 -14.5q6 0 41 4t65 20q16 10 32 24.5t26 37.5h313q-10 -39 -34.5 -89.5t-75.5 -99.5 t-137.5 -88t-235.5 -39q-90 0 -192.5 28t-186.5 112q-23 23 -46.5 54.5t-44 74.5t-32.5 97t-12 120zM412 586h370q-6 27 -20 53.5t-33 44.5q-33 33 -72 41t-63 8q-84 0 -133 -49q-16 -18 -30.5 -43t-18.5 -55zM442 1178l261 315l206 -150l-315 -278z" />
<glyph unicode="&#xea;" horiz-adv-x="1159" d="M74 455q0 117 39 206t98 148q57 55 148.5 94t226.5 39q80 0 175 -24.5t177 -100.5q49 -47 77.5 -98t44 -102.5t19.5 -98.5t4 -86v-35h-682q0 -37 14.5 -81t43.5 -72q16 -16 48 -30.5t87 -14.5q6 0 41 4t65 20q16 10 32 24.5t26 37.5h313q-10 -39 -34.5 -89.5t-75.5 -99.5 t-137.5 -88t-235.5 -39q-90 0 -192.5 28t-186.5 112q-23 23 -46.5 54.5t-44 74.5t-32.5 97t-12 120zM183 1223l401 301l405 -301l-145 -158l-260 201l-262 -201zM412 586h370q-6 27 -20 53.5t-33 44.5q-33 33 -72 41t-63 8q-84 0 -133 -49q-16 -18 -30.5 -43t-18.5 -55z" />
<glyph unicode="&#xeb;" horiz-adv-x="1159" d="M74 455q0 117 39 206t98 148q57 55 148.5 94t226.5 39q80 0 175 -24.5t177 -100.5q49 -47 77.5 -98t44 -102.5t19.5 -98.5t4 -86v-35h-682q0 -37 14.5 -81t43.5 -72q16 -16 48 -30.5t87 -14.5q6 0 41 4t65 20q16 10 32 24.5t26 37.5h313q-10 -39 -34.5 -89.5t-75.5 -99.5 t-137.5 -88t-235.5 -39q-90 0 -192.5 28t-186.5 112q-23 23 -46.5 54.5t-44 74.5t-32.5 97t-12 120zM176 1249q0 47 18.5 78t35.5 47q16 16 45.5 34.5t77.5 18.5q35 0 67.5 -14t54.5 -37q55 -55 56 -127q0 -68 -54 -125q-29 -29 -60 -41t-64 -12q-74 0 -125 55 q-51 57 -52 123zM412 586h370q-6 27 -20 53.5t-33 44.5q-33 33 -72 41t-63 8q-84 0 -133 -49q-16 -18 -30.5 -43t-18.5 -55zM641 1249q0 47 18.5 78t35.5 47q16 16 45.5 34.5t76.5 18.5q35 0 68 -14t55 -37q55 -55 56 -127q0 -68 -54 -125q-29 -29 -60.5 -41t-64.5 -12 q-74 0 -125 55q-51 57 -51 123z" />
<glyph unicode="&#xec;" horiz-adv-x="546" d="M-36 1343l209 150l258 -315l-152 -113zM111 0v915h327v-915h-327z" />
<glyph unicode="&#xed;" horiz-adv-x="546" d="M111 0v915h327v-915h-327zM131 1178l261 315l206 -150l-315 -278z" />
<glyph unicode="&#xee;" horiz-adv-x="546" d="M-124 1223l401 301l405 -301l-145 -158l-260 201l-262 -201zM111 0v915h327v-915h-327z" />
<glyph unicode="&#xef;" horiz-adv-x="546" d="M-131 1249q0 47 18.5 78t35.5 47q16 16 45.5 34.5t77.5 18.5q35 0 67.5 -14t54.5 -37q55 -55 56 -127q0 -68 -54 -125q-29 -29 -60 -41t-64 -12q-74 0 -125 55q-51 57 -52 123zM111 0v915h327v-915h-327zM334 1249q0 47 18.5 78t35.5 47q16 16 45.5 34.5t76.5 18.5 q35 0 68 -14t55 -37q55 -55 56 -127q0 -68 -54 -125q-29 -29 -60.5 -41t-64.5 -12q-74 0 -125 55q-51 57 -51 123z" />
<glyph unicode="&#xf0;" horiz-adv-x="1208" d="M61 473q0 92 31 176t107 154q68 63 164 98t194 35q102 0 170 -32t113 -66q-6 55 -26.5 108t-55.5 96q-29 35 -64 60.5t-71 42.5l-406 -197l-82 156l291 131q-59 14 -127 19.5t-139 5.5l61 227q176 0 290 -31t181 -65l322 149l84 -156l-238 -108q68 -49 123 -114.5 t94 -157.5q43 -102 56.5 -205t13.5 -195q0 -53 -5 -116.5t-22.5 -130t-49.5 -130t-87 -118.5q-80 -82 -177 -111t-208 -29q-104 0 -202.5 29t-190.5 121q-70 70 -107 156.5t-37 197.5zM401 455q0 -41 16.5 -84t49.5 -72q29 -27 66.5 -39t70.5 -12t71 12t66 39q33 29 49.5 72 t16.5 84t-16.5 84t-49.5 71q-29 27 -66.5 39.5t-70.5 12.5t-70.5 -12.5t-66.5 -39.5q-33 -29 -49.5 -71.5t-16.5 -83.5z" />
<glyph unicode="&#xf1;" horiz-adv-x="1198" d="M113 0v915h327v-114q33 45 72 71.5t78 41t74.5 18.5t66.5 4q72 0 142.5 -20.5t127.5 -77.5q57 -59 71.5 -120t14.5 -136v-582h-327v463q0 41 -4 92t-37 86q-23 25 -51.5 32t-53.5 7q-39 0 -69.5 -12.5t-50.5 -30.5q-25 -23 -39.5 -64t-14.5 -81v-492h-327zM235 1165 q12 37 35 77t47 63q27 25 64 41t80 16q39 0 69.5 -9.5t53.5 -19.5l59 -26q31 -14 51.5 -22.5t36.5 -8.5q18 0 38.5 18.5t37.5 71.5l158 -94q-14 -35 -39 -76t-52 -66q-59 -59 -147 -59q-35 0 -62.5 8t-56.5 23l-61 31q-35 16 -50.5 20t-23.5 4q-23 0 -45.5 -19.5 t-32.5 -66.5z" />
<glyph unicode="&#xf2;" horiz-adv-x="1251" d="M76 459q0 123 45 204.5t96 131.5q57 55 157.5 103t250.5 48q76 0 138 -13t113.5 -34.5t90.5 -49.5t67 -54q51 -49 96.5 -131t45.5 -205q0 -92 -33 -178t-109 -160q-92 -90 -195.5 -121t-213.5 -31q-100 0 -206 29t-202 123q-76 74 -108.5 160t-32.5 178zM330 1343 l209 150l258 -315l-152 -113zM416 459q0 -41 17.5 -79t45.5 -67q61 -61 148 -61q84 0 145 61q31 29 47.5 67t16.5 79q0 37 -16.5 78t-47.5 71q-29 27 -67.5 43.5t-77.5 16.5q-41 0 -80 -16.5t-68 -43.5q-31 -29 -47 -68.5t-16 -80.5z" />
<glyph unicode="&#xf3;" horiz-adv-x="1251" d="M76 459q0 123 45 204.5t96 131.5q57 55 157.5 103t250.5 48q76 0 138 -13t113.5 -34.5t90.5 -49.5t67 -54q51 -49 96.5 -131t45.5 -205q0 -92 -33 -178t-109 -160q-92 -90 -195.5 -121t-213.5 -31q-100 0 -206 29t-202 123q-76 74 -108.5 160t-32.5 178zM416 459 q0 -41 17.5 -79t45.5 -67q61 -61 148 -61q84 0 145 61q31 29 47.5 67t16.5 79q0 37 -16.5 78t-47.5 71q-29 27 -67.5 43.5t-77.5 16.5q-41 0 -80 -16.5t-68 -43.5q-31 -29 -47 -68.5t-16 -80.5zM462 1178l261 315l206 -150l-315 -278z" />
<glyph unicode="&#xf4;" horiz-adv-x="1251" d="M76 459q0 123 45 204.5t96 131.5q57 55 157.5 103t250.5 48q76 0 138 -13t113.5 -34.5t90.5 -49.5t67 -54q51 -49 96.5 -131t45.5 -205q0 -92 -33 -178t-109 -160q-92 -90 -195.5 -121t-213.5 -31q-100 0 -206 29t-202 123q-76 74 -108.5 160t-32.5 178zM230 1223 l401 301l405 -301l-145 -158l-260 201l-262 -201zM416 459q0 -41 17.5 -79t45.5 -67q61 -61 148 -61q84 0 145 61q31 29 47.5 67t16.5 79q0 37 -16.5 78t-47.5 71q-29 27 -67.5 43.5t-77.5 16.5q-41 0 -80 -16.5t-68 -43.5q-31 -29 -47 -68.5t-16 -80.5z" />
<glyph unicode="&#xf5;" horiz-adv-x="1251" d="M76 459q0 123 45 204.5t96 131.5q57 55 157.5 103t250.5 48q76 0 138 -13t113.5 -34.5t90.5 -49.5t67 -54q51 -49 96.5 -131t45.5 -205q0 -92 -33 -178t-109 -160q-92 -90 -195.5 -121t-213.5 -31q-100 0 -206 29t-202 123q-76 74 -108.5 160t-32.5 178zM249 1165 q12 37 35 77t47 63q27 25 64 41t80 16q39 0 69.5 -9.5t53.5 -19.5l59 -26q31 -14 51.5 -22.5t36.5 -8.5q18 0 38.5 18.5t37.5 71.5l158 -94q-14 -35 -39 -76t-52 -66q-59 -59 -147 -59q-35 0 -62.5 8t-56.5 23l-61 31q-35 16 -50.5 20t-23.5 4q-23 0 -45.5 -19.5 t-32.5 -66.5zM416 459q0 -41 17.5 -79t45.5 -67q61 -61 148 -61q84 0 145 61q31 29 47.5 67t16.5 79q0 37 -16.5 78t-47.5 71q-29 27 -67.5 43.5t-77.5 16.5q-41 0 -80 -16.5t-68 -43.5q-31 -29 -47 -68.5t-16 -80.5z" />
<glyph unicode="&#xf6;" horiz-adv-x="1251" d="M76 459q0 123 45 204.5t96 131.5q57 55 157.5 103t250.5 48q76 0 138 -13t113.5 -34.5t90.5 -49.5t67 -54q51 -49 96.5 -131t45.5 -205q0 -92 -33 -178t-109 -160q-92 -90 -195.5 -121t-213.5 -31q-100 0 -206 29t-202 123q-76 74 -108.5 160t-32.5 178zM223 1249 q0 47 18.5 78t35.5 47q16 16 45.5 34.5t77.5 18.5q35 0 67.5 -14t54.5 -37q55 -55 56 -127q0 -68 -54 -125q-29 -29 -60 -41t-64 -12q-74 0 -125 55q-51 57 -52 123zM416 459q0 -41 17.5 -79t45.5 -67q61 -61 148 -61q84 0 145 61q31 29 47.5 67t16.5 79q0 37 -16.5 78 t-47.5 71q-29 27 -67.5 43.5t-77.5 16.5q-41 0 -80 -16.5t-68 -43.5q-31 -29 -47 -68.5t-16 -80.5zM688 1249q0 47 18.5 78t35.5 47q16 16 45.5 34.5t76.5 18.5q35 0 68 -14t55 -37q55 -55 56 -127q0 -68 -54 -125q-29 -29 -60.5 -41t-64.5 -12q-74 0 -125 55 q-51 57 -51 123z" />
<glyph unicode="&#xf7;" d="M68 573v246h888v-246h-888zM358 348q0 35 12.5 61.5t30.5 45.5q45 45 111 45q35 0 61.5 -12.5t44.5 -30.5q16 -16 31 -43t15 -66q0 -31 -10.5 -57.5t-35.5 -50.5q-47 -43 -106 -43q-70 0 -111 45q-43 43 -43 106zM358 1044q0 35 12.5 62t30.5 45q45 45 111 45 q35 0 61.5 -12.5t44.5 -30.5q16 -16 31 -43t15 -66q0 -31 -10.5 -57t-35.5 -51q-47 -43 -106 -43q-70 0 -111 45q-43 43 -43 106z" />
<glyph unicode="&#xf8;" horiz-adv-x="1228" d="M53 -2l140 139q-20 23 -43 53.5t-41.5 70.5t-29.5 89t-11 109q0 121 46 205t95 131q27 27 65.5 54.5t89 49t113 34.5t139.5 13q80 0 154 -15.5t152 -60.5l145 144l109 -105l-138 -135q53 -51 91 -126t38 -189q0 -92 -32.5 -178t-108.5 -160q-92 -90 -195.5 -121 t-214.5 -31q-94 0 -165.5 17.5t-141.5 56.5l-147 -147zM408 463q0 -25 8 -49.5t18 -44.5l275 274q-18 10 -40 17.5t-51 7.5q-47 0 -83.5 -16.5t-65.5 -43.5q-33 -31 -47 -69.5t-14 -75.5zM532 276q37 -25 86 -24q39 0 76 13.5t72 47.5q35 35 48 70t13 76q0 25 -4 46t-18 44z " />
<glyph unicode="&#xf9;" horiz-adv-x="1208" d="M113 344v571h327v-512q0 -29 8.5 -66.5t40.5 -66.5q25 -23 55.5 -28.5t59.5 -5.5q31 0 59.5 6t57.5 32q31 31 39 65t8 64v512h328v-571q0 -59 -13.5 -120.5t-74.5 -125.5q-43 -43 -92.5 -68.5t-101.5 -39t-103.5 -17.5t-98.5 -4q-51 0 -107 4t-110.5 17.5t-104.5 40 t-91 69.5q-53 55 -69.5 117t-16.5 127zM291 1343l209 150l258 -315l-152 -113z" />
<glyph unicode="&#xfa;" horiz-adv-x="1208" d="M113 344v571h327v-512q0 -29 8.5 -66.5t40.5 -66.5q25 -23 55.5 -28.5t59.5 -5.5q31 0 59.5 6t57.5 32q31 31 39 65t8 64v512h328v-571q0 -59 -13.5 -120.5t-74.5 -125.5q-43 -43 -92.5 -68.5t-101.5 -39t-103.5 -17.5t-98.5 -4q-51 0 -107 4t-110.5 17.5t-104.5 40 t-91 69.5q-53 55 -69.5 117t-16.5 127zM454 1178l261 315l206 -150l-315 -278z" />
<glyph unicode="&#xfb;" horiz-adv-x="1208" d="M113 344v571h327v-512q0 -29 8.5 -66.5t40.5 -66.5q25 -23 55.5 -28.5t59.5 -5.5q31 0 59.5 6t57.5 32q31 31 39 65t8 64v512h328v-571q0 -59 -13.5 -120.5t-74.5 -125.5q-43 -43 -92.5 -68.5t-101.5 -39t-103.5 -17.5t-98.5 -4q-51 0 -107 4t-110.5 17.5t-104.5 40 t-91 69.5q-53 55 -69.5 117t-16.5 127zM203 1223l401 301l405 -301l-145 -158l-260 201l-262 -201z" />
<glyph unicode="&#xfc;" horiz-adv-x="1208" d="M113 344v571h327v-512q0 -29 8.5 -66.5t40.5 -66.5q25 -23 55.5 -28.5t59.5 -5.5q31 0 59.5 6t57.5 32q31 31 39 65t8 64v512h328v-571q0 -59 -13.5 -120.5t-74.5 -125.5q-43 -43 -92.5 -68.5t-101.5 -39t-103.5 -17.5t-98.5 -4q-51 0 -107 4t-110.5 17.5t-104.5 40 t-91 69.5q-53 55 -69.5 117t-16.5 127zM196 1249q0 47 18.5 78t35.5 47q16 16 45.5 34.5t77.5 18.5q35 0 67.5 -14t54.5 -37q55 -55 56 -127q0 -68 -54 -125q-29 -29 -60 -41t-64 -12q-74 0 -125 55q-51 57 -52 123zM661 1249q0 47 18.5 78t35.5 47q16 16 45.5 34.5 t76.5 18.5q35 0 68 -14t55 -37q55 -55 56 -127q0 -68 -54 -125q-29 -29 -60.5 -41t-64.5 -12q-74 0 -125 55q-51 57 -51 123z" />
<glyph unicode="&#xfd;" horiz-adv-x="1236" d="M0 915h381l244 -469l237 469h375l-735 -1384h-367l307 594zM471 1178l261 315l206 -150l-315 -278z" />
<glyph unicode="&#xfe;" horiz-adv-x="1261" d="M113 -469v1962h327v-678q43 53 110.5 92t170.5 39q106 0 188 -39t138 -94q57 -57 98 -146t41 -208q0 -117 -41 -207t-107 -156q-78 -76 -160.5 -101.5t-152.5 -25.5q-23 0 -55.5 3t-70.5 15.5t-79 36t-80 64.5v-557h-327zM430 455q0 -41 18.5 -80t45.5 -66 q61 -61 147 -61q88 0 145 61q27 27 45.5 66t18.5 80q0 39 -16.5 79.5t-47.5 71.5q-57 62 -145 62q-86 0 -147 -62q-31 -31 -47.5 -71.5t-16.5 -79.5z" />
<glyph unicode="&#xff;" horiz-adv-x="1236" d="M0 915h381l244 -469l237 469h375l-735 -1384h-367l307 594zM213 1249q0 47 18.5 78t35.5 47q16 16 45.5 34.5t77.5 18.5q35 0 67.5 -14t54.5 -37q55 -55 56 -127q0 -68 -54 -125q-29 -29 -60 -41t-64 -12q-74 0 -125 55q-51 57 -52 123zM678 1249q0 47 18.5 78t35.5 47 q16 16 45.5 34.5t76.5 18.5q35 0 68 -14t55 -37q55 -55 56 -127q0 -68 -54 -125q-29 -29 -60.5 -41t-64.5 -12q-74 0 -125 55q-51 57 -51 123z" />
<glyph unicode="&#x152;" horiz-adv-x="2072" d="M82 686q0 131 51 261t158 239q84 86 211 148.5t307 62.5q61 0 118.5 -10.5t114.5 -36.5q47 -23 95.5 -56.5t85.5 -70.5v143h768v-303h-412v-225h385v-301h-385v-236h412v-301h-768v152q-35 -41 -79 -75t-95 -57q-66 -31 -129.5 -41t-122.5 -10q-154 0 -275 45t-227 154 q-70 70 -112 142.5t-64.5 141t-29.5 128t-7 106.5zM453 682q0 -66 26.5 -135.5t81.5 -122.5q53 -53 125 -82t143 -29q72 0 145 29t126 82t79.5 120.5t26.5 145.5q0 76 -27.5 137.5t-80.5 114.5q-51 51 -118 81t-151 30q-82 0 -149.5 -31t-114.5 -76q-47 -47 -79.5 -116.5 t-32.5 -147.5z" />
<glyph unicode="&#x153;" horiz-adv-x="1892" d="M74 451q0 133 45 219t96 137q47 45 97 72.5t100.5 43t98.5 19.5t91 4q47 0 102.5 -6t108.5 -29q47 -18 88 -46.5t72 -59.5q29 33 57.5 53.5t67.5 38.5q57 27 104 37t113 10q45 0 93 -5t96 -20.5t93 -41t86 -66.5q43 -43 68 -90t38 -95t18 -98.5t10 -99.5l2 -27h-689 q4 -37 20.5 -85t41.5 -70q45 -45 139 -45q18 0 41 3t44.5 12t40 25.5t30.5 45.5h313q-14 -66 -54 -131.5t-126 -116.5q-27 -16 -99.5 -43t-193.5 -27q-98 0 -152.5 18.5t-74.5 28.5q-35 18 -68 47t-59 66q-35 -37 -77 -69.5t-83 -51.5q-55 -25 -109.5 -32t-101.5 -7 q-49 0 -99 6.5t-100.5 21.5t-99.5 43t-94 73q-70 68 -102.5 149.5t-32.5 188.5zM412 461q0 -43 15 -84t44 -70t64.5 -42t70.5 -13q78 0 133 49q33 29 51.5 73t18.5 85q0 43 -18.5 83t-47.5 68q-35 35 -69.5 44.5t-63.5 9.5q-41 0 -77.5 -18.5t-61.5 -41.5q-25 -25 -42 -60.5 t-17 -82.5zM1139 588h377q-8 29 -24.5 57.5t-37.5 46.5q-23 20 -55.5 32.5t-71.5 12.5q-35 0 -67.5 -12t-55.5 -29q-25 -20 -41 -50t-24 -58z" />
<glyph unicode="&#x178;" horiz-adv-x="1310" d="M-25 1366h424l258 -373l248 373h430l-510 -711v-655h-356v655zM245 1659q0 47 18.5 77.5t35.5 47.5q16 16 45.5 34.5t77.5 18.5q35 0 67.5 -14.5t54.5 -36.5q55 -55 56 -127q0 -68 -54 -125q-29 -29 -60 -41t-64 -12q-74 0 -125 55q-51 57 -52 123zM710 1659 q0 47 18.5 77.5t35.5 47.5q16 16 45.5 34.5t76.5 18.5q35 0 68 -14.5t55 -36.5q55 -55 56 -127q0 -68 -54 -125q-29 -29 -60.5 -41t-64.5 -12q-74 0 -125 55q-51 57 -51 123z" />
<glyph unicode="&#x2c6;" d="M109 1223l401 301l405 -301l-145 -158l-260 201l-262 -201z" />
<glyph unicode="&#x2dc;" d="M147 1165q12 37 35 77t47 63q27 25 64 41t80 16q39 0 69.5 -9.5t53.5 -19.5l59 -26q31 -14 51.5 -22.5t36.5 -8.5q18 0 38.5 18.5t37.5 71.5l158 -94q-14 -35 -39 -76t-52 -66q-59 -59 -147 -59q-35 0 -62.5 8t-56.5 23l-61 31q-35 16 -50.5 20t-23.5 4 q-23 0 -45.5 -19.5t-32.5 -66.5z" />
<glyph unicode="&#x2000;" horiz-adv-x="966" />
<glyph unicode="&#x2001;" horiz-adv-x="1933" />
<glyph unicode="&#x2002;" horiz-adv-x="966" />
<glyph unicode="&#x2003;" horiz-adv-x="1933" />
<glyph unicode="&#x2004;" horiz-adv-x="644" />
<glyph unicode="&#x2005;" horiz-adv-x="483" />
<glyph unicode="&#x2006;" horiz-adv-x="322" />
<glyph unicode="&#x2007;" horiz-adv-x="322" />
<glyph unicode="&#x2008;" horiz-adv-x="241" />
<glyph unicode="&#x2009;" horiz-adv-x="386" />
<glyph unicode="&#x200a;" horiz-adv-x="107" />
<glyph unicode="&#x2010;" horiz-adv-x="722" d="M102 414v272h519v-272h-519z" />
<glyph unicode="&#x2011;" horiz-adv-x="722" d="M102 414v272h519v-272h-519z" />
<glyph unicode="&#x2012;" horiz-adv-x="722" d="M102 414v272h519v-272h-519z" />
<glyph unicode="&#x2013;" horiz-adv-x="1175" d="M143 408v270h889v-270h-889z" />
<glyph unicode="&#x2014;" horiz-adv-x="1857" d="M143 408v270h1571v-270h-1571z" />
<glyph unicode="&#x2018;" horiz-adv-x="706" d="M96 764l332 602h211l-236 -602h-307z" />
<glyph unicode="&#x2019;" horiz-adv-x="917" d="M68 764l235 602h309l-333 -602h-211z" />
<glyph unicode="&#x201a;" horiz-adv-x="940" d="M68 -305l258 647h309l-356 -647h-211z" />
<glyph unicode="&#x201c;" horiz-adv-x="1171" d="M96 764l332 602h211l-236 -602h-307zM559 764l334 602h211l-236 -602h-309z" />
<glyph unicode="&#x201d;" horiz-adv-x="1382" d="M68 764l235 602h309l-333 -602h-211zM532 764l236 602h307l-332 -602h-211z" />
<glyph unicode="&#x201e;" horiz-adv-x="1398" d="M68 -305l251 647h308l-348 -647h-211zM532 -305l252 647h308l-349 -647h-211z" />
<glyph unicode="&#x2022;" horiz-adv-x="2048" d="M741 696q0 45 16.5 98.5t65.5 102.5q43 43 95.5 64.5t105.5 21.5q33 0 87 -14.5t110 -69.5q51 -51 68.5 -105.5t17.5 -97.5q0 -55 -22.5 -109.5t-70.5 -99.5q-51 -47 -102 -62t-88 -15q-45 0 -96 18t-97 59q-55 51 -72.5 108.5t-17.5 100.5z" />
<glyph unicode="&#x2026;" horiz-adv-x="1861" d="M98 174q0 51 16.5 86t45.5 64q33 33 70.5 48t78.5 15q35 0 74 -13.5t76 -49.5q20 -20 41.5 -57.5t21.5 -92.5t-21.5 -92t-41.5 -57q-37 -37 -76 -50.5t-74 -13.5q-39 0 -77.5 15.5t-73.5 50.5q-27 27 -43.5 61.5t-16.5 85.5zM719 174q0 51 16.5 86t44.5 64q33 33 71 48 t79 15q35 0 73.5 -13.5t75.5 -49.5q20 -20 42 -57.5t22 -92.5t-21.5 -92t-42.5 -57q-37 -37 -75.5 -50.5t-73.5 -13.5q-39 0 -78 15.5t-74 50.5q-27 27 -43 61.5t-16 85.5zM1339 174q0 51 16.5 86t45.5 64q33 33 70.5 48t78.5 15q35 0 74 -13.5t76 -49.5q20 -20 41.5 -57.5 t21.5 -92.5t-21.5 -92t-41.5 -57q-37 -37 -76 -50.5t-74 -13.5q-39 0 -77.5 15.5t-73.5 50.5q-27 27 -43.5 61.5t-16.5 85.5z" />
<glyph unicode="&#x202f;" horiz-adv-x="386" />
<glyph unicode="&#x2039;" horiz-adv-x="636" d="M57 467l312 444l180 -125l-227 -319l233 -315l-186 -132z" />
<glyph unicode="&#x203a;" horiz-adv-x="643" d="M82 152l233 315l-227 319l180 125l312 -444l-312 -447z" />
<glyph unicode="&#x205f;" horiz-adv-x="483" />
<glyph unicode="&#x20ac;" horiz-adv-x="1228" d="M-41 440l74 185h61q-4 47 0 102h-135l74 184h88q29 123 91 209t138 142q90 66 205 99.5t248 33.5q141 0 232 -31t141 -59l-119 -299q-76 47 -146.5 62t-122.5 15q-51 0 -104 -10t-96 -35q-82 -43 -111 -127h549l-74 -184h-512q-4 -27 -3 -52.5t5 -49.5h469l-73 -185h-351 q16 -35 43 -65.5t72 -52.5q53 -29 107.5 -35t87.5 -6q63 0 114.5 11t90 27.5t66.5 35t46 34.5v-342q-88 -45 -182 -61.5t-170 -16.5q-109 0 -225.5 29t-206.5 98q-76 59 -131.5 149.5t-79.5 194.5h-160z" />
<glyph unicode="&#x2122;" horiz-adv-x="1591" d="M0 1184v182h541v-182h-166v-596h-211v596h-164zM580 588l129 778h211l147 -399l158 399h211l114 -778h-211l-53 422l-174 -422h-94l-166 422l-61 -422h-211z" />
<glyph unicode="&#x25fc;" horiz-adv-x="911" d="M0 0v911h911v-911h-911z" />
</font>
</defs>
</svg>
